#VERSION:0.83;
#TITLE:いのちの食べ方;
#SUBTITLE:(DanceMix Ver.);
#ARTIST:Eve;
#TITLETRANSLIT:How to Eat Life;
#SUBTITLETRANSLIT:;
#ARTISTTRANSLIT:;
#GENRE:J-Rock;
#CREDIT:;
#MUSIC:How To Eat Life (DanceMix ver).ogg;
#BANNER:How to Eat Life (DanceMix Ver).png;
#BACKGROUND:How to Eat Life (DanceMix Ver)-bg.png;
#CDTITLE:cdtitle.png;
#SAMPLESTART:68.104;
#SAMPLELENGTH:13.427;
#SELECTABLE:YES;
#OFFSET:0.276;
#BPMS:0.000=143.000
,28.500=143.600
,35.000=143.000
;
#STOPS:;
#SPEEDS:0.000=1.000=0.000=0;
#SCROLLS:0.000=0.500,
28.500=0.250,
35.000=-1.334,
35.250=-0.666,
35.500=0.000,
35.750=2.000,
36.000=1.000,
96.000=0.500,
100.000=1.000,
132.000=0.500,
148.500=0.516,
149.000=0.533,
149.500=0.550,
150.000=0.566,
150.500=0.584,
151.000=0.600,
151.500=0.616,
152.000=0.633,
152.500=0.650,
153.000=0.666,
153.500=0.684,
154.000=0.700,
154.500=0.716,
155.000=0.733,
155.500=0.750,
156.000=0.766,
156.500=0.784,
157.000=0.800,
157.500=0.816,
158.000=0.833,
158.500=0.850,
159.000=0.866,
159.500=0.884,
160.000=0.900,
161.500=0.950,
164.000=1.000,
224.000=0.500,
232.000=1.000
;
#TICKCOUNTS:0.000=4;
#TIMESIGNATURES:0.000=4=4;
#LABELS:0.000=Song Start;
#COMBOS:0.000=1;
#DISPLAYBPM:143.000;
#ORIGIN:;
#PREVIEWVID:;
#JACKET:How to Eat Life (DanceMix Ver)-jacket.png;
#CDIMAGE:;
#DISCIMAGE:;
#BGCHANGES:-1.750=How To Eat Life (DanceMix ver).mp4=1.000=1=0=1===CrossFade==,
99999.000=-nosongbg-=1.000=0=0=0=StretchNoLoop====
;
#FGCHANGES:;

//--------------- dance-single - ----------------
#NOTEDATA:;
#STEPSTYPE:dance-single;
#DESCRIPTION:;
#DIFFICULTY:Beginner;
#METER:3;
#RADARVALUES:0.148435,0.206856,0.057195,0.181118,0,109,103,6,19,0,0,0,0,0,0.148435,0.206856,0.057195,0.181118,0,109,103,6,19,0,0,0,0,0;
#OFFSET:0.276;
#BPMS:0.000=143.000
,28.500=143.600
,35.000=143.000
;
#SPEEDS:0.000=1.000=0.000=0;
#SCROLLS:0.000=1.000,
28.500=0.996,
35.000=1.000
;
#TICKCOUNTS:0.000=4;
#TIMESIGNATURES:0.000=4=4;
#LABELS:0.000=Song Start;
#COMBOS:0.000=1;
#DISPLAYBPM:143.000;
#CHARTNAME:;
#CHARTSTYLE:;
#CREDIT:;
#NOTES:
0000
0000
0000
0000
,
0000
0000
0000
0000
,
0000
0000
0000
0000
,
0000
0000
0000
0000
,
0000
2000
0000
3000
,
0000
0000
1000
0000
,
0000
0002
0000
0003
,
0000
0000
0000
0000
,
0000
0000
0000
0000
,
0001
0001
0001
0000
,
0000
0000
0020
0000
0000
0030
0000
0000
,
1000
1000
1000
0000
,
0000
0000
0020
0000
0000
0030
0000
0000
,
0001
0001
0001
0000
,
0000
0000
0200
0000
0000
0300
0000
0000
,
1000
1000
1000
0000
,
0000
0000
0200
0000
0000
0300
0000
0000
,
0001
0000
0000
0000
,
0010
0000
0000
0000
,
0100
0000
0000
0000
,
1000
0000
0001
0000
,
1000
0000
0010
0010
,
0010
0000
0100
0000
,
0001
0000
0010
0010
,
0010
0000
0000
0000
,
2002
0000
3003
0000
,
0001
0000
0100
0100
,
0100
0000
0001
0000
,
0010
0000
0001
0000
,
1000
0000
0010
0000
,
1000
0000
0100
0100
,
0100
0000
0010
0000
,
0001
0000
1000
0000
,
2002
0000
3003
0000
,
0000
0000
0000
0000
,
0020
0000
0030
0000
,
0000
0000
0000
0000
,
0200
0000
0300
0000
,
0002
0000
0003
0000
,
2000
0000
3000
0000
,
1001
0000
0000
0001
,
0002
0003
0001
0000
,
0010
0010
0010
0000
,
0002
0003
0001
0000
,
0100
0100
0100
0000
,
0010
0000
1001
0000
,
0010
0000
1001
0000
,
0010
0000
1000
0000
,
0100
0000
0000
1000
,
2000
3000
1000
0000
,
0010
0010
0010
0000
,
2000
3000
1000
0000
,
0100
0100
0100
0000
,
0010
0000
0001
0000
,
1000
0000
0010
0010
,
0010
0000
0100
0000
,
0110
0000
0000
0000
,
0000
0000
0000
0000
,
0001
0001
0001
0000
,
0000
0000
0020
0000
0000
0030
0000
0000
,
1000
1000
1000
0000
,
0010
0000
0001
0000
,
0100
0000
0000
0000
;

//--------------- dance-single - ----------------
#NOTEDATA:;
#STEPSTYPE:dance-single;
#DESCRIPTION:;
#DIFFICULTY:Easy;
#METER:5;
#RADARVALUES:0.231504,0.295508,0.15252,0.305041,0,170,154,16,32,0,0,0,0,0,0.231504,0.295508,0.15252,0.305041,0,170,154,16,32,0,0,0,0,0;
#OFFSET:0.276;
#BPMS:0.000=143.000
,28.500=143.600
,35.000=143.000
;
#SPEEDS:0.000=1.000=0.000=0;
#SCROLLS:0.000=0.500,
28.500=0.000,
35.000=1.000,
96.000=0.500,
100.000=1.000,
132.000=0.500,
148.000=0.600,
152.000=0.700,
156.000=0.800,
160.000=0.900,
163.000=1.000,
224.000=0.500,
232.000=1.000
;
#TICKCOUNTS:0.000=4;
#TIMESIGNATURES:0.000=4=4;
#LABELS:0.000=Song Start;
#COMBOS:0.000=1;
#DISPLAYBPM:143.000;
#CHARTNAME:;
#CHARTSTYLE:;
#CREDIT:;
#NOTES:
0000
0000
0000
0000
,
0000
0000
0000
0000
,
0000
0000
0000
0000
,
0000
0000
0000
0000
,
0000
1000
1000
0100
,
0000
0000
0000
0000
0020
0000
0000
0030
,
0000
0001
0001
0100
,
0000
0000
0000
0000
,
0000
0000
0000
0000
,
0001
0010
0100
0100
,
0000
2000
3002
0003
,
1000
0010
0100
0100
,
0000
0002
2003
3000
,
0100
0100
0010
0001
,
0000
2000
3020
0030
,
0100
0100
0010
1000
,
0000
0002
0023
0030
,
0001
0000
0001
0000
,
1000
0000
1000
0000
,
0001
0100
0001
0000
,
1000
0100
1000
1000
,
0001
0000
0100
0100
,
1001
0000
0001
0010
,
0100
0000
1000
0010
,
0200
0000
0000
0000
,
0301
0000
1000
0000
,
0001
0010
0100
1000
,
0001
0000
0101
0000
,
1010
0000
0011
0000
,
1100
0000
0001
0000
,
1000
0010
0100
0001
,
2000
0000
3200
0000
,
0310
0100
0010
0001
,
2002
0000
3003
0000
,
2000
0000
3000
0000
,
0020
0000
0030
0000
,
0200
0000
0300
0000
,
0002
0000
1003
0000
,
2000
0000
3001
0000
,
0010
0100
0010
0100
,
0110
0000
0000
0010
,
2002
3003
0001
0001
,
0100
1000
0100
0001
,
2002
3003
0001
0001
,
0010
1000
0010
0001
,
0002
0003
0100
0010
,
1000
0000
0100
0010
,
0001
0001
0100
0010
,
1000
0000
1000
0010
,
2002
3003
1000
1000
,
0100
0001
0100
1000
,
2002
3003
1000
1000
,
0010
0001
0010
1000
,
1001
0000
0110
0000
,
1001
0000
1000
0100
,
0010
0001
0100
0010
,
1000
0000
0000
0000
,
0000
0000
0000
0000
,
0001
0010
0100
0100
,
0000
2000
3002
1003
,
2002
3003
1000
0010
,
0001
0010
1000
0100
,
0110
0000
0000
0000
;

//--------------- dance-single - ----------------
#NOTEDATA:;
#STEPSTYPE:dance-single;
#DESCRIPTION:;
#DIFFICULTY:Medium;
#METER:8;
#RADARVALUES:0.345894,0.472813,0.247846,0.419431,0.004766,254,228,26,44,0,0,0,0,0,0.345894,0.472813,0.247846,0.419431,0.004766,254,228,26,44,0,0,0,0,0;
#OFFSET:0.276;
#BPMS:0.000=143.000
,28.500=143.600
,35.000=143.000
;
#SPEEDS:0.000=1.000=0.000=0;
#SCROLLS:0.000=0.500,
28.500=0.000,
35.000=1.000,
96.000=0.500,
100.000=1.000,
132.000=0.500,
148.000=0.600,
152.000=0.700,
156.000=0.800,
160.000=0.900,
163.000=1.000,
224.000=0.500,
232.000=1.000
;
#TICKCOUNTS:0.000=4;
#TIMESIGNATURES:0.000=4=4;
#LABELS:0.000=Song Start;
#COMBOS:0.000=1;
#DISPLAYBPM:143.000;
#CHARTNAME:;
#CHARTSTYLE:;
#CREDIT:;
#NOTES:
0000
0000
0000
0000
,
0000
0000
0000
0000
,
0000
0000
0000
0000
,
0000
0000
0000
0000
,
0000
1000
0010
0100
,
0100
0000
0000
0000
0001
0000
0000
1000
,
0000
0001
0010
0100
,
0100
0000
0000
0000
,
0000
0000
0000
0000
,
1000
0001
1000
0000
0100
0000
0100
0000
,
0000
2000
0010
3000
0002
0010
0003
0000
,
0001
1000
0001
0000
0100
0000
0100
0000
,
0000
0002
0010
0003
2000
0010
3000
0000
,
1000
0010
1000
0000
0100
0000
0100
0000
,
0000
2000
0010
3000
0002
0010
0003
0000
,
0001
0010
0001
0000
0100
0000
0100
0100
,
0000
0000
0001
0000
0000
1000
0000
0000
,
0001
0001
0010
0000
,
0100
0100
1000
0000
,
0002
0203
0302
0203
,
0320
2030
3200
0320
,
0031
0000
1001
0110
,
1001
0000
0000
1000
0010
0100
0001
0000
,
1000
0000
0000
0001
0010
0100
1000
0000
,
0020
0000
0000
0000
,
1030
1010
0001
0101
,
1000
0100
0010
0000
0001
0100
0001
0100
,
0010
2000
0010
3002
,
0100
0000
2003
0000
0100
0000
3001
0010
,
0001
0011
1000
1100
,
0001
0100
0010
0000
1000
0100
0010
0001
,
2000
3020
0230
0302
,
1003
0000
1000
0000
1000
0100
0010
0000
,
0022
0000
0033
0000
,
1000
0000
0001
0000
,
0200
0000
0300
0000
,
0001
0000
1000
0000
,
0200
0000
0310
0000
,
0100
0010
0001
1000
,
0010
0100
0001
1000
,
0100
0000
0000
0100
0000
0000
0100
0000
0000
0000
0000
0000
0011
0000
0000
0000
,
1100
0000
0001
0100
0020
0000
1000
0000
,
0130
0001
0100
0001
1000
0000
1100
0000
,
0011
0000
1000
0010
0200
0000
0001
0000
,
0310
1000
0100
0000
0010
0001
0100
0000
,
2002
0000
3003
0000
1000
0100
0010
0000
,
1100
0000
1100
0000
0001
0100
0010
0000
,
0101
0000
0101
0000
1000
0100
1000
0100
,
0020
0032
1003
1010
,
0101
0000
1000
0100
0020
0000
0001
0000
,
0130
1000
0100
1000
0001
0000
0101
0000
,
1010
0000
0001
0010
0200
0000
2300
0000
,
3002
0000
1003
0010
1000
0000
0001
0010
,
0001
0101
1000
1100
,
0001
1001
2000
3020
,
0230
0000
0000
0000
0302
0000
0000
1000
,
1003
0000
0000
0000
,
0000
0000
0000
0000
,
1000
0001
1000
0000
0100
0000
0100
0000
,
0000
2000
0010
3000
0002
0010
0013
0000
,
2002
3003
0001
0100
,
0010
1000
0001
1000
0100
0000
0010
0000
,
0110
0000
0000
0000
;

//--------------- dance-single - ----------------
#NOTEDATA:;
#STEPSTYPE:dance-single;
#DESCRIPTION:;
#DIFFICULTY:Hard;
#METER:11;
#RADARVALUES:0.446667,0.502364,0.123923,0.505224,0.142988,328,315,13,53,0,0,0,0,0,0.446667,0.502364,0.123923,0.505224,0.142988,328,315,13,53,0,0,0,0,0;
#DISPLAYBPM:143.000;
#CHARTNAME:;
#CHARTSTYLE:;
#CREDIT:;
#NOTES:
0000
0000
0000
0000
,
0000
0000
0000
0000
,
0000
0000
0000
0000
,
0000
0000
0000
0000
,
0000
0000
0000
0000
1000
0000
0000
0000
0010
0000
0000
0000
0100
0000
0000
0001
,
0000
1000
0000
0001
0001
0000
1000
1000
,
0000
0000
0000
0000
0001
0000
0000
0000
0010
0000
0000
0000
0100
0000
0000
1000
,
0000
0001
0000
0000
0000
0000
0000
0000
,
0000
0000
0000
0000
,
0001
0000
0100
0000
0001
0000
0100
0000
0010
0000
0000
1000
0000
0000
0001
0000
,
0000
2000
0100
3000
0002
0010
0003
1000
,
1000
0000
0100
0000
1000
0000
0100
0000
0010
0000
0000
0001
0000
0000
1000
0000
,
0000
0002
0100
0003
2000
0010
3000
0001
,
0001
0000
0010
0000
0100
0000
1000
0000
0001
0000
0000
1000
0000
0000
0010
0000
,
0000
2000
0100
3000
0002
0010
0003
1000
,
1000
0000
0010
0000
0100
0000
0001
0000
1000
0000
0000
0001
0000
0000
1001
0000
,
0000
0002
1000
0003
2000
0001
3000
0000
,
0001
0010
0001
0000
0010
0000
0100
0000
,
1000
0010
1000
0000
0010
0000
0100
0000
,
0001
1000
0100
0000
1000
0001
0100
0000
,
0001
1000
0100
0010
0001
0000
0001
0000
,
1000
0010
0200
0000
1000
0000
0010
0000
,
0301
0000
0000
0000
1000
0000
0100
0000
0010
0000
0100
0000
1000
0000
0000
0001
,
0000
1000
0010
0000
1000
0010
1000
0100
,
0002
0203
0320
0230
,
1300
0001
0100
0000
0001
1000
0100
0010
,
0001
0000
0000
0001
0000
0000
1000
0000
1000
0000
0010
0000
0100
0000
0000
0001
,
0000
0000
0001
0000
2000
0000
0000
0100
0000
0000
0001
0000
3002
0000
0000
0010
,
0000
0000
1000
0000
2003
0000
0000
0010
0000
0000
0001
0000
3002
0000
0000
0100
,
0000
0000
1003
0000
0000
0000
1000
0000
0100
0000
0000
0010
0000
0000
0100
0000
,
0001
0000
0100
0000
1000
0000
0001
0000
0100
0000
0010
0000
0100
0000
0000
1000
,
0000
0100
0000
0002
0000
1003
0000
0001
,
0001
0000
0010
0000
0100
0000
1000
0000
1000
0000
0010
0000
0100
0001
0000
0000
,
2002
0000
3003
0000
,
0001
0010
0100
0010
,
0002
0000
0003
0000
,
1000
0010
0100
0010
,
1000
1000
0001
0001
,
0010
0100
1000
0001
,
0100
0010
0100
0010
1000
0001
1000
0100
,
0110
0000
0000
0110
0000
0000
0110
0000
0000
0000
0000
0000
0002
0000
0023
0000
,
2030
0000
3010
0000
0001
0000
0000
0000
0011
0000
0000
1100
0000
0000
0001
0000
,
1000
0000
0001
0000
0100
0000
0000
0010
0000
0000
0100
0000
0020
0000
0230
0000
,
2300
0000
3100
0000
0001
0000
0000
0000
0101
0000
0000
1010
0000
0000
0001
0000
,
1000
0000
0000
0100
0000
0000
0010
0000
0100
0000
1000
0000
0001
0000
0100
0000
,
0020
0000
0000
0000
1030
0000
0001
0000
0020
0000
0000
0100
0000
0000
0031
0000
,
1000
0000
1000
0000
0001
0000
1000
0000
0020
0000
0000
0100
0000
0000
2030
0000
,
0000
3002
0000
0013
0100
0010
0100
1000
,
1001
0000
1001
0000
0001
0001
2000
3020
,
0032
0000
0013
0000
1000
0000
0000
0000
1010
0000
0000
0101
0000
0000
1000
0000
,
0001
0000
1000
0000
0100
0000
0000
0010
0000
0000
0100
0000
0020
0000
0230
0000
,
0302
0103
1000
0000
0001
0100
0001
0100
,
0020
0000
1030
0100
0020
0000
0031
1000
,
0001
0000
0000
0000
2000
0000
0000
0010
0000
0000
0010
0000
3002
0000
0000
0010
,
0000
0010
1003
0000
0001
0100
1000
0100
,
0020
0000
1030
0100
0001
0100
0010
0100
,
2000
0000
3000
0000
,
2000
3200
0320
0032
,
1003
0000
0010
0000
0100
0000
0001
0000
1000
0000
0000
0001
0000
0000
0010
0000
,
0000
0002
0100
0003
2000
0010
3002
2003
,
3200
0000
0000
0000
0310
0000
0001
0000
1000
0000
0000
0001
0000
0000
1000
0000
,
0010
0000
0001
0000
0010
0000
0000
1000
0000
0000
0100
0000
0001
0000
0100
0000
,
1000
0000
0000
0000
;

//--------------- dance-single - ----------------
#NOTEDATA:;
#STEPSTYPE:dance-single;
#DESCRIPTION:;
#DIFFICULTY:Challenge;
#METER:13;
#RADARVALUES:0.585569,0.650118,0.133455,0.552886,0.47186,430,416,14,58,0,0,0,0,0,0.585569,0.650118,0.133455,0.552886,0.47186,430,416,14,58,0,0,0,0,0;
#DISPLAYBPM:143.000;
#CHARTNAME:;
#CHARTSTYLE:;
#CREDIT:;
#NOTES:
0000
0000
0000
0000
,
0000
0000
0000
0000
,
0000
0000
0000
0000
,
0000
0000
0000
0000
,
0000
0000
0000
0000
1000
0000
0010
0000
0100
0000
0001
0000
1000
0000
0000
0001
,
0000
1000
0000
0002
0010
0003
2000
0100
,
3000
0000
0000
0000
0001
0000
0010
0000
0100
0000
1000
0000
0001
0000
0000
1000
,
0000
0010
0000
0000
0000
0000
0000
0000
,
0000
0000
0000
0000
,
0010
0000
1000
0000
0001
0000
1000
0000
0100
0000
0010
0001
0000
0010
0001
0000
,
1000
0000
0001
2000
0010
0000
3000
0000
0001
2000
0010
0000
3000
0000
0001
0000
,
0010
0000
0001
0000
1000
0000
0001
0000
0100
0000
0010
1000
0000
0010
1000
0000
,
0001
0000
1000
0002
0010
0000
0003
0000
1000
0002
0010
0000
0003
0000
1000
0000
,
0010
0000
0100
0000
1000
0000
0100
0000
0001
0000
1000
0100
0000
1000
0100
0000
,
0010
0000
0001
2000
0010
0000
3000
0000
0001
2000
0010
0000
3000
0000
0001
0000
,
0010
0000
0100
0000
0001
0000
0100
0000
1000
0000
0001
1000
0001
0000
1001
0000
,
0000
0000
1000
0010
1000
0000
0000
0000
1000
0010
1000
0000
0000
0000
0001
0010
,
0001
0000
0010
0000
0001
0000
0000
0000
0010
0000
0100
1000
0000
0000
0001
0000
,
1000
0000
0010
0000
1000
0000
0000
0000
1000
0000
0010
0100
0000
0000
0001
0000
,
1000
0000
0100
0000
0001
0000
0100
0000
1000
0000
0000
1000
0000
0000
0001
0000
,
0100
1000
0100
0001
1001
0000
1001
0000
,
1000
0000
0000
0001
0000
0000
1000
0000
0000
0000
0000
0000
0001
0000
0010
0000
0001
0000
1000
0000
0010
0000
1000
0000
,
0100
0000
0000
0000
0010
0001
0010
0001
1000
0000
0010
0000
0100
0000
0010
0001
,
0000
0010
0100
0010
1000
0001
0010
0100
,
0002
0000
0203
0000
0320
0000
0230
2300
,
3001
0000
0100
0000
0010
0000
0000
0000
1000
0000
0100
0000
0010
0000
0001
1000
,
0001
0000
2000
0010
0000
0000
3001
0100
0001
0000
1000
0000
1000
0000
0002
0010
,
0000
0000
1003
0000
0010
0000
0100
0001
0000
0000
0001
0000
0010
0000
0100
1000
,
0000
0000
0001
0000
1000
0010
0100
0001
0000
0001
1000
0000
0001
0010
0100
1000
,
0000
0000
0001
0000
1000
0000
0010
0000
0100
0000
0002
1000
0000
0000
0013
0000
,
0100
0000
0001
0000
0100
0010
0000
0100
1000
0000
0001
0000
0001
0000
2000
0010
,
0000
0000
0001
0000
0000
0000
3100
0000
0000
0000
0100
0010
0001
0000
1000
0000
,
0001
0000
0100
0000
0001
0000
0100
0000
0010
0000
1000
0000
0001
0010
0000
0000
,
2002
0000
3003
0000
,
0001
0100
0010
0100
,
0002
0000
0003
0000
,
1000
0100
0010
0100
,
1000
1000
0001
0001
,
0100
0010
1000
0001
,
1000
0000
0100
0000
1000
0000
0100
0000
0010
0000
0001
1000
0000
1000
0001
0000
,
1001
0000
0000
1001
0000
0000
1001
0000
0000
0000
0000
0000
2000
0000
3020
0000
,
0032
0000
0013
0000
0100
0000
0010
1000
0001
1000
0000
0100
0000
0000
2000
0000
,
0100
0000
3002
0000
0010
0000
1003
0100
0000
0100
0000
0010
0002
0000
0203
0000
,
2300
0000
3100
0000
0001
0000
0100
0001
1000
0001
0000
0010
0000
0000
0100
0000
,
1000
0000
0000
0000
0000
0000
0000
0000
0000
0001
0000
0000
0000
0000
0000
0000
0000
0000
0100
0000
0000
0000
0000
0000
0010
0000
0000
0000
0000
0000
1000
0000
0000
0000
0000
0000
0001
0000
0000
0000
0010
0000
0000
0000
0100
0000
0000
0000
,
2000
0000
0000
3100
1000
0000
0001
0100
0020
0000
0000
0001
0000
0000
0130
0000
,
0010
0000
1000
0000
1000
0000
0001
0010
0200
0000
0000
0001
0000
0000
0310
0000
,
0100
0000
1000
0000
0001
0000
1000
0010
1000
0000
0001
0010
0001
0000
1000
0000
,
1010
0000
0000
0000
0101
0000
0000
0000
1001
0000
0001
1000
0002
0000
0023
0000
,
2030
0000
3010
0000
0100
0000
0010
0001
1000
0001
0000
0100
0000
0000
0002
0000
,
0100
0000
2003
0000
0010
0000
3001
0100
0000
0100
0000
0010
2000
0000
3200
0000
,
0302
0000
0103
0000
1000
0000
0001
0010
0001
0000
1000
0010
1000
0000
0010
0000
,
0200
0000
0000
0301
1000
0000
0001
0000
0020
0000
0000
0031
1000
0000
0001
0000
,
0101
0000
0000
0000
1000
0100
0000
0020
0000
0000
0031
0000
0001
0100
0000
0020
,
0000
0000
0000
1030
0000
0000
1000
0000
0100
0000
0010
0000
0001
0000
0010
0000
0100
0000
1000
0000
0001
0000
0100
0000
,
0020
0000
0000
0000
0130
0000
0010
1000
0002
0000
1003
0100
0010
0000
0100
0000
,
2002
0000
3003
0000
,
2000
3020
0230
0302
,
0013
0000
0100
0000
0001
0000
0100
0000
1000
0000
0001
0100
0000
0001
0100
0000
,
0010
0000
1000
0002
0010
0000
0003
0000
1000
0002
0010
0000
2003
0000
3020
0000
,
0032
0000
0000
0000
0013
0000
0100
0000
0001
0000
1000
0100
0000
1000
0200
0000
,
0010
0000
2300
0000
0001
0000
3010
0100
0000
0100
0000
0001
1000
0000
0001
0000
,
0010
0000
0000
0000
;
