#TITLE:Hollywood Galaxy;
#SUBTITLE:;
#ARTIST:dj TAKA;
#TITLETRANSLIT:;
#SUBTITLETRANSLIT:;
#ARTISTTRANSLIT:;
#GENRE:;
#CREDIT:;
#MUSIC:Hollywood Galaxy.ogg;
#BANNER:Hollywood Galaxy.png;
#BACKGROUND:Hollywood Galaxy-bg.png;
#CDTITLE:;
#SAMPLESTART:42.583;
#SAMPLELENGTH:10.921;
#SELECTABLE:YES;
#OFFSET:1.288;
#BPMS:0.000=186.000;
#STOPS:67.500=1.291;
#BGCHANGES:;
#FGCHANGES:;

//--------------- dance-single - Pandemonium X ----------------
#NOTES:
     dance-single:
     Pandemonium X:
     Beginner:
     6:
     0,0,0,0,0:
0000
0000
0000
0000
,
0000
0000
0000
0000
,
0000
0000
0000
0000
,
0000
0000
0000
0000
,
0000
0000
0000
0000
,
0000
0000
0000
0000
,
0000
0000
0000
0000
,
0000
0000
0000
0000
,
0000
0000
0000
0000
,
0001
0000
0000
0000
,
1000
0000
0000
0000
,
0001
0000
0000
0000
,
1000
0000
0001
0000
,
0100
0000
0000
0000
,
0010
0000
0000
0000
,
0100
0000
0000
0000
,
0010
0000
0100
0000
,
0001
1000
0000
1000
,
0000
1000
0000
1000
,
0000
0001
0000
0001
,
0000
0001
0000
0001
,
0000
0100
0000
0100
,
0000
0100
0000
0100
,
0000
0010
0000
0010
,
0000
0010
0000
0010
,
1001
0000
0000
0000
,
0000
0000
0000
0000
,
1000
0000
0000
0000
,
0001
0000
0000
0000
,
1000
0000
0000
0000
,
0000
0000
0000
0000
,
0000
0000
0000
0000
,
0110
0000
0000
0000
,
0001
0001
0000
0000
,
0001
0001
0000
0000
,
0001
0001
0000
0000
,
0001
0001
1000
0000
,
0010
0000
0100
0000
,
0010
0010
0010
0000
,
1000
0000
0001
0000
,
0010
0010
0010
0000
,
0100
0100
0000
0000
,
1000
1000
0000
0000
,
0100
0100
0000
0000
,
1000
1000
0001
0000
,
0100
0000
0001
0000
,
0010
0010
0001
0001
,
1000
0000
0001
0000
,
1000
1000
0100
0100
,
0010
0000
0000
0000
,
0100
0000
0000
0000
,
1000
0000
0001
0000
,
1000
0000
0000
0000
,
0010
0000
0000
0000
,
0100
0000
0000
0000
,
0010
0000
1000
0000
,
0001
0001
1000
1000
,
0110
0000
0000
0000
,
0001
0000
0000
0000
,
1000
0000
0100
0000
,
0010
0000
0000
0000
,
0110
0000
0000
0000
,
1001
0000
0000
0000
,
0010
0000
0000
0000
,
1001
0000
0000
0000
,
0001
0000
0000
0000
,
1000
0000
0000
0000
,
0010
0000
0000
0010
0000
0000
0010
0000
,
0010
0000
0000
0000
,
0100
0000
0000
0000
,
0001
0000
0010
0000
,
0100
0000
0000
0100
0000
0000
0100
0000
,
0100
0000
0000
0000
,
1001
0000
0000
0000
,
0001
0000
1000
0000
,
0010
0000
1000
0000
,
0100
0000
0000
0010
,
1001
1001
0000
0000
,
1000
0000
0001
0000
,
0100
0000
0000
0100
0000
0000
0100
0000
,
0000
0000
0000
0000
0000
0020
0000
0000
,
0030
0000
0000
0000
;

//--------------- dance-single - Pandemonium X ----------------
#NOTES:
     dance-single:
     Pandemonium X:
     Easy:
     9:
     0,0,0,0,0:
0000
0000
0000
0000
,
0000
0000
0000
0000
,
0000
0000
0000
0000
,
0000
0000
0000
0000
,
0000
0000
0000
0000
,
0001
0000
0000
0000
,
1000
0000
0000
0000
,
0001
0000
0000
0000
,
1000
0000
0001
0000
,
1000
1000
0010
0100
,
0001
0001
0100
0010
,
1000
1000
0010
0100
,
0001
0010
0001
0100
,
0010
0010
1000
0001
,
0010
0010
0001
1000
,
0100
0100
1000
0001
,
0100
0010
1000
0001
,
1000
0000
0001
0000
0000
1000
0001
0000
,
1000
0000
0010
0000
0000
0100
0001
0000
,
0010
0000
0100
0000
0000
0010
0001
0000
,
0100
0000
0001
0000
1000
0100
1000
0000
,
0100
0000
0010
0000
0000
0100
1000
0000
,
0010
0000
0100
0000
0000
0001
1000
0000
,
0001
0000
0010
0000
0000
0100
0010
0000
,
0001
0000
0100
0000
0010
0100
0001
0000
,
2000
0100
0000
0001
,
0000
0010
0000
3001
,
0002
0100
0000
0013
,
0200
0010
0000
1300
,
0020
1000
0000
0100
,
0000
1000
0000
0100
,
0000
1000
0000
0130
,
1001
0000
0000
0000
,
0001
0100
0001
0000
0000
0000
0000
0000
,
1000
0010
1000
0000
0000
0000
0000
0000
,
0001
0100
0001
0000
0000
0000
0000
0000
,
1000
0010
1000
0000
0001
0000
1001
0000
,
1000
0100
0010
0001
,
1000
0010
1000
0010
0100
0001
0100
0001
,
0010
0010
0100
0100
,
1000
0100
1000
0100
0010
0001
0010
0001
,
1000
0100
1000
0000
0000
0000
0000
0000
,
0001
0010
0001
0000
0000
0000
0000
0000
,
1000
0100
1000
0000
0000
0000
0000
0000
,
0001
0010
0001
0000
0010
0000
1001
0000
,
0001
0100
0010
1000
,
0001
0010
0001
0010
0100
1000
0100
1000
,
0100
1000
0010
0100
,
0001
0100
0001
0100
0010
1000
0001
0100
,
0020
0000
0000
0030
,
2000
0000
0000
3000
,
0200
0000
0320
0000
,
0032
0000
0000
0003
,
0200
0000
0000
0300
,
0020
0000
0000
0030
,
2000
0000
3002
0000
,
0023
0230
2300
3002
,
0103
0001
0010
0001
,
0100
0010
1000
0010
,
0100
0001
0010
0100
,
0010
0001
0100
0010
,
1000
0100
0010
0001
,
0010
0100
0010
0001
,
0100
0010
1000
0100
,
0022
0000
0000
0033
,
0001
0000
1000
0000
0000
0010
1000
0000
,
0100
0000
0010
0000
0000
0100
1000
0000
,
0020
0000
0000
0230
0000
0000
0302
0000
,
2003
0000
0000
0100
0000
0000
3000
0000
,
0100
0000
1000
0000
0000
0100
0010
0000
,
0100
0000
1000
0000
0000
0010
0100
0000
,
0002
0000
0000
2003
0000
0000
3200
0000
,
0320
0000
0000
0100
0000
0130
0010
0100
,
0010
1001
0000
0000
,
1010
0010
0110
0100
,
0101
0001
0011
0010
,
0110
0000
0110
0000
0000
0100
0010
0001
,
0011
1000
0000
0000
,
1001
0001
0101
0100
,
0001
1000
0000
0001
1000
0000
0001
1000
,
0000
0000
0000
0000
0000
0020
0000
0000
,
0030
0000
0000
0000
;

//--------------- dance-single - Pandemonium X ----------------
#NOTES:
     dance-single:
     Pandemonium X:
     Medium:
     12:
     0,0,0,0,0:
0000
0000
0000
0000
,
0000
0000
0000
0000
,
0000
0000
0000
0000
,
0000
0000
0000
0000
,
0000
0000
0000
0000
,
1000
0010
1000
0000
0010
0000
0010
0000
,
0100
0001
0100
0000
0001
0000
0001
0000
,
0010
0100
0010
0000
0100
0000
0100
0000
,
0010
0001
0100
0000
0010
1000
0100
0000
,
0010
0100
0010
0000
0001
0000
1001
0000
,
1000
0010
1000
0000
0010
0000
0101
0000
,
0001
1000
0001
0000
0100
0000
0110
0000
,
0001
1000
0010
0000
0100
0001
0010
0100
,
1000
0010
0100
0000
0001
0000
0011
0000
,
0010
0001
0100
0000
0010
0000
1010
0000
,
1000
0100
0010
0000
0100
0000
1100
0000
,
1000
0100
0010
0001
1000
0100
0010
0100
,
0100
0000
1001
0000
0000
0001
0101
0000
,
0001
0000
0100
0000
0010
0000
0000
1010
0000
0000
1000
0000
1001
0000
0000
0000
,
0100
0000
1001
0000
0000
1000
1010
0000
,
1000
0000
0010
0000
0100
0000
0000
0011
0000
0000
0001
0000
0010
0000
0100
0000
,
1000
0000
0011
0000
0000
0100
1001
0000
,
0001
0000
0100
0000
0010
0000
0000
0110
0000
0000
0001
0000
1001
0000
0000
0000
,
0001
0000
1100
0000
0000
0010
1001
0000
,
1000
0010
0100
0010
0001
0010
1000
0000
,
0002
0000
0100
0000
0013
0100
1000
0000
,
0100
0000
1001
0000
1000
0010
0100
0000
,
0020
0000
1000
0000
0130
0001
1000
0000
,
0200
0000
0010
0000
1300
0100
0010
0001
,
2000
0000
0010
0000
3001
0010
0001
0000
,
0100
0000
1001
0000
1000
0001
1000
0000
,
0001
0000
0011
0000
1000
0100
0010
0000
,
1001
0000
0000
0000
,
0001
0100
0001
0000
0100
0010
1000
0000
,
0001
0100
0001
0000
0100
0010
1000
0000
,
0001
0100
0001
0000
0100
0010
1000
0000
,
0001
0000
0100
0000
0001
0000
0000
0000
0100
0000
0000
0100
0010
0000
1000
0000
,
0001
0010
1000
0010
,
0001
0100
0010
1000
0001
0010
0100
1000
,
0001
0100
0001
1000
,
0100
1000
0010
0100
1000
0100
0001
1000
,
0100
0010
0001
0000
1000
0100
0010
0000
,
0100
0010
0001
0000
1000
0100
0010
0000
,
0100
0010
0001
0000
1000
0100
0010
0000
,
0100
0000
0010
0000
0001
0000
0000
0000
0100
0000
0000
0100
0010
0000
1000
0000
,
0100
0001
0100
1000
,
0010
0100
0001
0010
0001
1000
0010
0100
,
1000
0100
0001
1000
,
0001
0010
0100
1000
0100
0010
0100
1000
,
0002
0000
0000
0003
,
0200
0000
0000
0300
,
0020
0000
2030
0000
,
3020
0000
0000
0000
0030
1000
1000
0100
,
0020
0000
0000
0030
,
0200
0000
0000
0300
,
2000
0000
3020
0000
,
0230
2300
3200
0302
,
1003
0000
0001
0100
0000
0001
1000
0000
,
0001
0010
0001
0010
0011
0000
0011
0000
,
1001
0000
1000
0010
0000
1000
0001
0000
,
1000
0100
1000
0100
1100
0000
1100
0000
,
1001
0000
1000
0100
0000
0100
0010
0000
,
0100
0010
0100
0010
0100
0000
0100
0000
,
1001
0000
0001
0100
0000
0010
1000
0000
,
2200
0000
0000
3300
,
0010
0001
0100
0000
0010
0100
0001
0000
,
1000
0001
0010
0000
0100
1000
0001
0000
,
2000
0000
3100
0020
0000
0130
2000
0000
,
3010
0000
0110
0000
0010
0100
1001
0000
,
0001
0010
0100
0000
0010
0001
0100
0000
,
0010
1000
0001
0000
0010
0100
1000
0000
,
0200
0000
0310
0002
0000
0103
0020
0000
,
2030
0000
0001
0001
0000
0001
3001
0000
,
1001
0000
0000
1000
0100
0000
0000
0000
0000
0000
0000
0000
0000
0000
0000
0000
,
0100
0000
0000
0100
0010
0000
0000
0000
0010
0000
0000
0010
0001
0000
0000
0000
,
0001
0000
0000
0001
0100
0000
0000
0000
0100
0000
0000
0100
0010
0000
0000
0000
,
0010
0000
0000
0010
1000
0000
0000
0000
0000
0000
1000
0000
0100
0000
0010
0000
,
0011
0000
0000
0001
0010
0000
0000
0000
0000
0000
0000
0000
0000
0000
0000
0000
,
0010
0000
0000
0010
0100
0000
0000
0000
0100
0000
0000
0100
1000
0000
0000
0000
,
0001
0101
0000
1000
1010
0000
0001
0101
,
0000
0000
0000
0000
0000
2000
0000
0000
,
3100
0000
0000
0000
;

//--------------- dance-single - Pandemonium X ----------------
#NOTES:
     dance-single:
     Pandemonium X:
     Hard:
     16:
     0,0,0,0,0:
0000
0000
0000
0000
,
0000
0000
0000
0000
,
0000
0000
0000
0000
,
0000
0000
0000
0000
,
0000
0000
0000
0000
,
1000
0010
0100
0001
1000
0100
0010
0001
,
1000
0010
0100
0001
1000
0100
0010
0001
,
1000
0010
0100
0001
1000
0100
0010
0001
,
1000
0010
0100
0100
0010
1000
0100
0100
,
1000
0010
0100
0010
1000
0100
0010
0001
,
1000
0001
0010
0001
1000
0100
0010
0001
,
1000
0010
0100
0010
1000
0100
0010
0001
,
1000
1000
0010
0100
0001
0001
0010
0100
,
1000
0001
0010
0100
1000
0100
0010
0100
,
1000
0100
0010
0001
0010
0100
0010
0001
,
1000
0100
0010
0001
0010
0100
0010
0001
,
1000
1000
0001
0100
0010
0010
1000
0001
,
1100
0000
0000
0000
1000
0000
0100
0000
0010
0100
0000
0010
0001
0000
0100
0000
,
0101
0000
0000
0000
0001
0000
0010
0000
0001
0010
0000
0100
1000
0000
0010
0000
,
0110
0000
0000
0000
0010
0000
1000
0000
0001
0100
0000
0010
1000
0000
0010
0000
,
1010
0000
0000
0000
0100
0000
0001
0000
0010
0001
0000
1000
0100
0000
0010
0001
,
0200
0000
0000
0000
0301
0000
0100
0000
1000
0100
0000
0010
1000
0000
0001
0000
,
0102
0000
0000
0000
1003
0000
0100
0000
0010
0001
0000
0100
0001
0000
0010
0000
,
0021
0000
0000
0000
1030
0000
0010
0000
0001
0010
0000
0001
0100
0000
1000
0000
,
1200
0000
0000
0000
0301
0000
0100
0000
0010
0100
0000
0010
1000
0000
0001
0000
,
1000
0000
0100
0000
1000
0000
0010
0100
0001
0000
0010
0000
0110
0000
0000
0000
,
0010
0000
0100
0000
1000
0000
0010
0100
0001
0000
1000
0000
1001
0000
0000
0000
,
0001
0000
0010
0000
0100
0000
0010
0001
1000
0000
0010
0000
1010
0000
0000
0000
,
0010
0000
0100
0000
0001
0000
1000
0001
1000
0010
0100
0000
0101
0000
0000
0000
,
0001
0000
0010
0000
0011
0000
0001
1000
0010
0000
0100
0000
0110
0000
0000
0000
,
0001
0000
1000
0000
1010
0000
1000
0001
0010
0000
0100
0000
1001
0000
0000
0000
,
0001
0000
0100
0000
0101
0000
0001
1000
0010
0000
0100
0000
0110
0000
0010
0100
,
0002
0000
0000
0000
0003
0000
0000
0000
0000
1000
0100
1000
0100
1000
0100
1000
,
0001
0000
1000
0100
0010
0000
0000
0000
0010
0000
0100
0000
1001
0000
0000
0000
,
0001
0000
1000
0100
0010
0000
0000
0000
0100
0000
0010
0000
1001
0000
0000
0000
,
0001
0000
1000
0100
0010
0000
0000
0000
0100
0000
0010
0000
1001
0000
0000
0000
,
0001
0000
1000
0100
0010
0000
0000
0000
0100
0000
0000
0010
0100
0010
0001
1000
,
0010
0001
0010
1000
0001
0010
1000
0010
,
0001
0001
1000
1000
0100
0100
0010
0010
,
0001
0010
1000
0010
0001
0010
0100
1000
,
0001
0001
1000
1000
0010
0010
0100
0100
,
0001
0000
0100
0010
1000
0000
0000
0000
0100
0000
0010
0000
1001
0000
0000
0000
,
0001
0000
0100
0010
1000
0000
0000
0000
0100
0000
0010
0000
1001
0000
0000
0000
,
0001
0000
0100
0010
1000
0000
0000
0000
0100
0000
0010
0000
1001
0000
0000
0000
,
0001
0000
0100
0010
1000
0000
0000
0000
0100
0000
0000
0100
0010
0001
0010
0001
,
1000
0100
0001
0100
1000
0001
0100
0001
,
0010
0010
0001
0001
1000
1000
0100
0100
,
0010
1000
0010
0001
0100
1000
0100
0001
,
0101
0000
0100
0000
0110
0000
0010
0000
1000
0001
1000
0001
1000
0001
1000
0001
,
2000
0000
0100
0100
0000
0000
0000
0000
,
3002
0000
0100
0100
0000
0000
0000
0000
,
2003
0000
0100
3100
0020
0000
0000
0000
,
0230
0000
1000
1000
0000
1300
0100
0010
,
0200
0000
0010
0010
0000
0000
0000
0000
,
0320
0000
0100
0100
0000
0000
0000
0000
,
0230
0000
1000
1300
0002
0000
0000
0000
,
2003
3020
0230
0302
,
0013
0100
1000
0010
0001
0010
1000
0000
,
0100
0010
0001
0100
1000
0100
0001
0000
,
0021
0130
2100
3010
,
1002
1000
1000
1003
,
1001
0000
0000
0000
0001
0000
0020
0030
0000
0000
0020
0030
1000
0000
0000
0000
,
1001
0000
0000
0000
1000
0000
0200
0300
0000
0000
0200
0300
0001
0000
0000
0000
,
2001
0001
0001
3001
,
0220
0000
0000
0330
,
1000
0001
0010
0001
1000
0100
0010
0001
,
1000
0010
0100
0001
0010
0100
0010
0001
,
1000
0010
1000
0000
0001
0000
0010
0001
0010
0000
0001
0000
1000
0010
1000
0000
,
0100
0010
0100
0000
0010
0000
0001
0000
0000
0000
1000
0000
1001
0000
0000
0000
,
1000
0010
0100
0001
0010
0001
1000
0100
,
0010
0100
1000
0001
0010
0100
1000
0001
,
0100
0001
0100
0000
0001
0000
1000
0100
1000
0000
0001
0000
0100
0001
0100
0000
,
0010
0100
0010
0000
1000
0000
0001
0000
0000
0000
1000
0000
1000
0000
1000
0000
,
1010
0000
0000
0100
0001
0000
0000
0000
0010
0000
0100
0000
1100
0000
0000
0000
,
1001
0000
0000
1000
0010
0000
0000
0000
0101
0000
0000
0001
0010
0000
0000
0000
,
1100
0000
0000
1000
0100
0000
0000
0000
0011
0000
0000
0001
0100
0000
0000
0000
,
0110
0000
0000
1000
0001
0000
0000
0000
1000
0000
0010
0000
0100
0000
0001
0000
,
0101
0000
0000
0010
1000
0000
0000
0000
0100
0000
0010
0000
0001
0000
0000
0000
,
0011
0000
0000
0001
0100
0000
0000
0000
0110
0000
0000
1000
0010
0000
0000
0000
,
1001
1001
0000
0110
0110
0000
1001
1001
,
0000
0000
0000
0000
0000
0000
0000
0000
0000
0000
0001
0010
0100
1000
0001
0010
,
0100
0000
0000
0000
;

//--------------- dance-double - Pandemonium X ----------------
#NOTES:
     dance-double:
     Pandemonium X:
     Easy:
     10:
     0,0,0,0,0:
00000000
00000000
00000000
00000000
,
00000000
00000000
00000000
00000000
,
00000000
00000000
00000000
00000000
,
00000000
00000000
00000000
00000000
,
00000000
00000000
00000000
00000000
,
00001000
00000000
00000000
00000000
,
00010000
00000000
00000000
00000000
,
00001000
00000000
00000000
00000000
,
00100000
00000000
00001000
00000000
,
00010000
00010000
00000100
00001000
,
00000010
00000010
00000100
00000001
,
00000010
00000010
00000100
00001000
,
00000100
00010000
00001000
01000000
,
00010000
00010000
00100000
01000000
,
10000000
10000000
01000000
10000000
,
00010000
00010000
01000000
00010000
,
00100000
00001000
00010000
00000100
,
00001000
00000000
00001010
00000000
00000000
00000010
00000100
00000000
,
00000001
00000000
00001001
00000000
00000000
00001000
00000100
00000000
,
00010000
00000000
00011000
00000000
00000000
00001000
01000000
00000000
,
00100000
00000000
01100000
00000000
01000000
00010000
10000000
00000000
,
01000000
00000000
00110000
00000000
00000000
00010000
01000000
00000000
,
00100000
00000000
10010000
00000000
00000000
10000000
00010000
00000000
,
00100000
00000000
00011000
00000000
00000000
00001000
00010000
00000000
,
00000100
00000000
00001100
00000000
00001000
00000010
00000100
00000000
,
00000002
00000100
00000000
00001000
,
00000000
00000010
00000000
00001003
,
00000200
00010000
00000000
00001000
,
00020300
00001000
00000000
00000100
,
00032000
01000000
00000000
00010000
,
00000000
01000000
00000000
00010000
,
00000000
01000000
00000000
00013000
,
00011000
00000000
00000000
00000000
,
00001000
01000000
00100000
00000000
00000000
00000000
00000000
00000000
,
01000000
00100000
10000000
00000000
00000000
00000000
00000000
00000000
,
01000000
00100000
00010000
00000000
00000000
00000000
00000000
00000000
,
00100000
00001000
00010000
00000000
00001000
00000000
00011000
00000000
,
00010000
00000100
00001000
00000010
,
00000100
00001000
00000100
00000001
,
00001000
00000100
00010000
00001000
,
01000000
00010000
01000000
10000000
,
01000000
00100000
10000000
00000000
00000000
00000000
00000000
00000000
,
01000000
00100000
00010000
00000000
00000000
00000000
00000000
00000000
,
00100000
00001000
00010000
00000000
00000000
00000000
00000000
00000000
,
00000100
00001000
00000010
00000000
00000100
00000000
00001001
00000000
,
00000001
00000010
00000001
00000100
,
00001000
00000100
00000001
00001000
,
00000100
00010000
00001000
01000000
,
10010000
01100000
10010000
01100000
,
10000000
00000000
00000000
00000000
,
00100000
00000000
00000000
00000000
,
01000000
00000000
00001000
00000000
,
00020000
00000000
00000000
00000000
00000000
00031000
00010000
00000100
,
00001000
00000000
00000000
00000000
,
00000010
00000000
00000000
00000000
,
00000100
00000000
00001000
00000000
,
00000100
00010000
00001000
01000000
,
00010000
00000000
00000000
00100000
00000000
00000000
01000000
00000000
,
10000000
10000000
10000000
10000000
,
00010000
00000000
00000000
00100000
00000000
00000000
00001000
00000000
,
00010000
00010000
00010000
00010000
,
00000100
00000000
00000000
00001000
00000000
00000000
00000010
00000000
,
00000100
00000100
00000100
00000100
,
00000010
00001000
00000100
00010000
,
00022000
00000000
00000000
00033000
,
00001000
00000000
01001000
00000000
00000000
01000000
00100000
00000000
,
10000000
00000000
11000000
00000000
00000000
01000000
00100000
00000000
,
00001000
00000000
00000000
00010000
00000000
00000000
00000100
00000000
,
00002000
00000000
00000010
00000010
00000000
00000000
00003001
00000000
,
00001000
00000000
00001100
00000000
00000000
00000100
00010000
00000000
,
00000010
00000000
00000110
00000000
00000000
00001000
00000001
00000000
,
00001000
00000000
00000000
00000100
00000000
00000000
00010000
00000000
,
00001000
00000000
00010000
00010000
00000000
00010000
00010000
00000000
,
00011000
00100000
00000000
00000000
,
01100000
10000000
01010000
00001000
,
00011000
00000100
00010100
00001000
,
00001010
00000000
00001010
00000000
00000000
00000010
00000100
00000001
,
00001001
00000001
00000000
00000000
,
00000011
00000100
00001100
00000100
,
00010000
00001000
00000000
00010000
00001000
00000000
00010000
00001000
,
00000000
00000000
00000000
00000000
00000000
00020000
00000000
00000000
,
00031000
00000000
00000000
00000000
;

//--------------- dance-double - Pandemonium X ----------------
#NOTES:
     dance-double:
     Pandemonium X:
     Medium:
     12:
     0,0,0,0,0:
00000000
00000000
00000000
00000000
,
00000000
00000000
00000000
00000000
,
00000000
00000000
00000000
00000000
,
00000000
00000000
00000000
00000000
,
00000000
00000000
00000000
00000000
,
00001000
00001000
00010000
00000100
,
00001000
00001000
00000010
00000100
,
00000001
00000001
00000010
00000100
,
00001000
00000100
00001000
00000000
00000100
00010000
00000100
00000000
,
00010000
00000000
00001000
00000000
01000000
00100000
01000000
00000000
,
00010000
00000000
00100000
00000000
01000000
10000000
01000000
00000000
,
10000000
00000000
00010000
00000000
01000000
00001000
01000000
00000000
,
00001000
00010000
00000100
00000000
00001000
00000010
00000100
00000000
,
00000001
00000100
00000001
00000100
00000010
00000000
00001000
00000000
,
00000100
00010000
00000100
00010000
00001000
00000000
01000000
00000000
,
00010000
00100000
00010000
00100000
01000000
00000000
10000000
00000000
,
00100000
01000000
00010000
00000000
00100000
00001000
00010000
00010000
,
00001000
00000000
00011000
00000000
00000000
00010000
00010100
00000000
,
00000100
00000000
00001000
00000000
00000010
00000000
00000000
00000100
00000000
00000000
00000010
00000000
00001001
00000000
00000000
00000000
,
00001000
00000000
00001100
00000000
00000000
00000100
00010100
00000000
,
00010000
00000000
00001000
00000000
01000000
00000000
00000000
00001000
00010000
00000000
00001000
00000000
00011000
00000000
00000000
00000000
,
00100000
00000000
00110000
00000000
00000000
01000000
11000000
00000000
,
10000000
00000000
00010000
00000000
01000000
00000000
00000000
00100000
00000000
00000000
01000000
00000000
10010000
00000000
00000000
00000000
,
00100000
00000000
00110000
00000000
00000000
00100000
00101000
00000000
,
00001000
00000000
00010000
00000000
00000100
00000000
00000000
00001000
00000010
00000000
00000001
00000000
00000010
00000000
00001000
00000000
,
00000002
00000000
00000100
00000000
00001003
00000100
00000010
00000000
,
00000100
00000000
00010000
00000000
00001000
00000000
00000000
01000000
00000000
00000000
00001000
00000000
00011000
00000000
00000000
00000000
,
00200000
00000000
00010000
00000000
01300000
00100000
00010000
00000000
,
02000000
00000000
00100000
00000000
03010000
10000000
01000000
00100000
,
00020000
00000000
01000000
00000000
10030000
00010000
00100000
00000000
,
00001000
00000000
00010000
00000000
00000100
00001000
00000010
00000000
,
00000100
00000000
00000001
00000000
00000100
00000010
00001000
00000000
,
00011000
00000000
00000000
00000000
,
00001000
01000000
00100000
00000000
00000000
00000000
00000000
00000000
,
01000000
00001000
00010000
00000000
00000000
00000000
00000000
00000000
,
00001000
00010000
00000100
00000000
00000000
00000000
00000000
00000000
,
00001000
00000000
00000010
00000000
00010000
00000000
00000000
00000000
00001000
00000000
00000000
00010000
00000100
00000000
00001000
00000000
,
00000010
00000100
00000001
00001000
,
00000100
00010000
00001000
01000000
00001000
00010000
00000010
00010000
,
00001000
01000000
00010000
00100000
,
00010000
00100000
00001000
00010000
00000010
00010000
00001000
01000000
,
00010000
00100000
01000000
00000000
00000000
00000000
00000000
00000000
,
00100000
00010000
00001000
00000000
00000000
00000000
00000000
00000000
,
00000100
00000010
00000001
00000000
00000000
00000000
00000000
00000000
,
00000100
00001000
00010000
00000000
00001000
00000000
00011000
00000000
,
01001000
00010000
00100000
01000000
,
10000000
01000000
10000000
00100000
01000000
00001000
00010000
00000100
,
00001100
00001000
00001010
00000010
,
00000100
00001000
00000100
00000001
00000010
00000100
00001000
00000100
,
00020000
00000000
00000000
00030000
,
00002000
00000000
00000000
00003000
,
00200000
00000000
00302000
00000000
,
00020000
00000000
00000000
00000000
00003000
00030100
00001000
00000010
,
00000200
00000000
00000000
00000300
,
00000020
00000000
00000000
00000030
,
00000200
00000300
00000002
00000003
,
00000020
00000032
00002003
00003200
,
00010300
00000000
00001000
01000000
00000000
01000000
00010000
00000000
,
00010000
00100000
00010000
00100000
00010000
00000000
10010000
00000000
,
10000000
00000000
00100000
01000000
00000000
01000000
00001000
00000000
,
00010000
00001000
00010000
00001000
00010000
00000000
00011000
00000000
,
00020000
00000000
00030100
00000000
00001000
00000010
00000100
00000000
,
00000020
00000000
00000130
00000000
00000010
00001000
00000001
00000000
,
00001001
00000010
00001001
00000100
,
00002002
00000000
00000000
00003003
,
00000001
00000000
00001010
00000000
00000010
00001000
00001100
00000000
,
00000100
00000000
00010100
00000000
00010000
00001000
00011000
00000000
,
00002000
00000000
01003000
00020000
00000000
00130000
02000000
00000000
,
23000000
00000000
00010000
00010000
00000000
00010000
30010000
00000000
,
10000000
00000000
10100000
00000000
00100000
01000000
01010000
00000000
,
00010000
00000000
00110000
00000000
00100000
00001000
00011000
00000000
,
00010000
00000000
00000100
00001000
00000000
00000010
00000100
00000000
,
00000002
00000000
00001000
00001000
00000000
00001000
00001000
00001003
,
00000101
00000000
00000000
00000010
00001000
00000000
00000000
00000000
00000000
00000000
00000000
00000000
00000000
00000000
00000000
00000000
,
00000100
00000000
00000000
00000100
00001000
00000000
00000000
00000000
00000100
00000000
00000000
00000100
00010000
00000000
00000000
00000000
,
00010000
00000000
00000000
00010000
00001000
00000000
00000000
00000000
00001000
00000000
00000000
00001000
01000000
00000000
00000000
00000000
,
01000000
00000000
00000000
01000000
00100000
00000000
00000000
00000000
00000000
00000000
00100000
00000000
01000000
00000000
00010000
00000000
,
10010000
00000000
00000000
10000000
00010000
00000000
00000000
00000000
00000000
00000000
00000000
00000000
00000000
00000000
00000000
00000000
,
10000000
00000000
00000000
10000000
01000000
00000000
00000000
00000000
01000000
00000000
00000000
01000000
00100000
00000000
00000000
00000000
,
00001000
00001000
00000000
00010000
00010000
00000000
00001000
00001000
,
00000000
00000000
00000000
00000000
00000000
00200000
00000000
00000000
,
01300000
00000000
00000000
00000000
;

//--------------- dance-double - Pandemonium X ----------------
#NOTES:
     dance-double:
     Pandemonium X:
     Hard:
     16:
     0,0,0,0,0:
00000000
00000000
00000000
00000000
,
00000000
00000000
00000000
00000000
,
00000000
00000000
00000000
00000000
,
00000000
00000000
00000000
00000000
,
00000000
00000000
00000000
00000000
,
01000000
00010000
01000000
00100000
10000000
01000000
00100000
00010000
,
00100000
00001000
00100000
00010000
00100000
00001000
00010000
00000010
,
00000100
00000001
00000100
00000010
00001000
00000100
00001000
00000001
,
00000010
00000100
00001000
00000100
00010000
00000100
00001000
00000001
,
00001000
00001000
00000010
00010000
00001000
01000000
00010000
00100000
,
01000000
01000000
00100000
00010000
01000000
00001000
00010000
00000100
,
00001000
00001000
00000010
00000100
00000001
00000010
00000100
00001000
,
00000100
00000100
00010000
00001000
01000000
01000000
00001000
00010000
,
00001000
00001000
00010000
00001000
01000000
00010000
00100000
01000000
,
10000000
10000000
01000000
00100000
00010000
00100000
00001000
00010000
,
00000010
00000010
00000100
00000001
00000010
00000100
00001000
00000100
,
00010000
00010000
00001000
01000000
00010000
00010000
01000000
00001000
,
00000100
00000000
00001001
00000100
00000001
00001000
00000010
00000000
,
00000011
00000000
00001000
00000010
00010000
00001000
00100000
00000000
,
01100000
00000000
00110000
00001000
00010000
01000000
10000000
00000000
,
01100000
00000000
10010000
10000000
00100000
00010000
00001000
00010000
,
00011000
00000000
00001100
00000100
00000010
00000001
00001000
00000000
,
00000110
00000000
00000101
00000001
00000100
00001000
00010000
00000000
,
00101000
00000000
01010000
01000000
10000000
01000000
00010000
00000000
,
10010000
00000000
01100000
00100000
01000000
00010000
00001000
00000100
,
00000110
00000000
00000000
00000100
00000010
00000000
00000000
00000010
00000001
00000000
00000100
00000000
00001010
00000000
00000000
00000000
,
00001100
00000000
00000000
00000100
00010000
00000000
00000000
00010000
00001000
00000000
01000000
00000000
00010000
00000000
00100000
00000000
,
01100000
00000000
00000000
00100000
01000000
00000000
00000000
01000000
10000000
00000000
00100000
00000000
10100000
00000000
00000000
00000000
,
01010000
00000000
00000000
00010000
01000000
00000000
00000000
01000000
00001000
00000000
00010000
00000000
00000100
00001000
00000100
00000000
,
00001100
00000000
00000000
00000010
00000001
00000000
00000000
00000010
00000100
00000000
00000010
00000000
00001001
00000000
00000000
00000000
,
00001010
00000000
00000000
00000010
00010000
00000000
00000000
00010000
00001000
00000000
01000000
00000000
01010000
00000000
00000000
00000000
,
10010000
00000000
00000000
00010000
00100000
00000000
00000000
01000000
10000000
00000000
01000000
00000000
00100000
00010000
01000000
00001000
,
00010000
00000000
00000000
00000000
00000000
00000000
00000000
00000000
00000000
00000100
00010000
00000100
00010000
00000100
00010000
00000100
,
00010000
00000000
00001000
01000000
00100000
00000000
00000000
00000000
01000000
00000000
10000000
00000000
01000000
00000000
00010000
00000000
,
00100000
00000000
00001000
00010000
00000010
00000000
00000000
00000000
00001000
00000000
00000100
00000000
00000001
00000000
00000100
00000000
,
00001000
00000000
00000010
00010000
00001000
00000000
00000000
00000000
00010000
00000000
00001000
00000000
01000000
00000000
00010000
00000000
,
00100000
00000000
01000000
10000000
00010000
00000000
00000000
00000000
10100000
00000000
00000000
10000000
00100000
01000000
00010000
00100000
,
01000000
10000000
01000000
00100000
00010000
10000000
00010000
00100000
,
00010000
00001000
00000100
00000010
00000001
00000100
00001000
00010000
,
00001000
01000000
00010000
00100000
10000000
00100000
00010000
10000000
,
01000000
00100000
00010000
00001000
00000100
00000010
00000001
00001000
,
00000010
00000000
00000010
00001000
00000001
00000000
00000000
00000000
00000010
00000000
00000100
00000000
00001000
00000000
00000100
00000000
,
00010000
00000000
00010000
00001000
01000000
00000000
00000000
00000000
00100000
00000000
01000000
00000000
00010000
00000000
10000000
00000000
,
01000000
00000000
01000000
10000000
00100000
00000000
00000000
00000000
01000000
00000000
00010000
00000000
00100000
00000000
00001000
00000000
,
00010000
00000000
00010000
00000100
00001000
00000000
00000000
00000000
00000011
00000000
00000000
00000001
00000010
00000100
00001000
00000010
,
00010000
00001000
01000000
00010000
00100000
01000000
00100000
00010000
,
01000000
10000000
01000000
00010000
00100000
00010000
00001000
00000100
,
00000110
00000010
00000001
00000100
00000110
00000010
00001000
00000100
,
00010000
00000000
00001000
00000000
01000000
00000000
00010000
00000000
00100000
01000000
00100000
01000000
00100000
01000000
00100000
01000000
,
20000000
00000000
00000000
30000000
,
02000000
00000000
00000000
03000000
,
00200000
00000000
00320000
00000000
,
00032000
00000000
00000000
00000000
00000000
00003100
00000010
00000001
,
00000200
00000000
00000000
00000300
,
00002000
00000000
00000000
00003000
,
00020000
00000000
00230000
00000000
,
20300000
32000000
03200000
00320000
,
01030000
00000000
00010000
00010000
00000000
00100000
00100000
00000000
,
00001000
00001000
00010000
00010000
00000100
00000000
00010100
00000000
,
00001000
00000000
00000010
00000010
00000000
00000100
00000100
00000000
,
00000001
00000001
00001000
00001000
00000100
00000000
00010100
00000000
,
00000100
00000000
00010000
00001000
00000000
01000000
00010000
00000000
,
00010000
00100000
10000000
00100000
00010000
00000000
10010000
00000000
,
00100000
00000000
00001000
00010000
00000000
00001000
00010000
00000000
,
00022000
00000000
00000000
00033000
,
00010000
00000010
00000100
00001000
00000100
00000001
00000010
00000100
,
00001000
00000100
00010000
00001000
01000000
00010000
00100000
01000000
,
10000000
01000000
10000000
00000000
00010000
00000000
01000000
00010000
01000000
00000000
00010000
00000000
00100000
00001000
00100000
00000000
,
00001000
00010000
00001000
00000000
00010000
00000000
00010100
00000000
00000000
00000000
00000100
00000000
00001100
00000000
00000000
00000000
,
00001000
00000010
00000100
00001000
00010000
00001000
01000000
00010000
,
00100000
10000000
00100000
00010000
10000000
00100000
01000000
00001000
,
00010000
00001000
00010000
00000000
00000100
00000000
00001000
00000100
00001000
00000000
00000010
00000000
00000100
00000001
00000100
00000000
,
00000010
00000100
00000010
00000000
00000100
00000000
00000101
00000000
00000000
00000000
00000010
00000000
00000010
00000000
00000010
00000000
,
00001001
00000000
00000000
00000100
00010000
00000000
00000000
00000000
00001000
00000000
01000000
00000000
01010000
00000000
00000000
00000000
,
00110000
00000000
00000000
00100000
01000000
00000000
00000000
00000000
11000000
00000000
00000000
00010000
01000000
00000000
00000000
00000000
,
01001000
00000000
00000000
00001000
00010000
00000000
00000000
00000000
00010100
00000000
00000000
00000100
00001000
00000000
00000000
00000000
,
00001010
00000000
00000000
00000100
00000001
00000000
00000000
00000000
00000000
00000000
00000010
00000000
00000100
00000000
00000010
00000000
,
00000011
00000000
00000000
00000100
00001000
00000000
00000000
00000000
00000100
00000000
00010000
00000000
00011000
00000000
00000000
00000000
,
02001000
03100000
20100000
30010000
,
10000000
00010000
00000000
00010000
00001000
00000000
00001000
00000001
,
00000000
00000000
00000000
00000000
00000000
00000000
00000000
00000000
00000000
00000000
00001000
00000001
00001000
00000100
00010000
00001000
,
00010000
00000000
00000000
00000000
;
