#VERSION:0.83;
#TITLE:Hastur;
#SUBTITLE:;
#ARTIST:Usao;
#TITLETRANSLIT:;
#SUBTITLETRANSLIT:;
#ARTISTTRANSLIT:;
#GENRE:;
#ORIGIN:;
#CREDIT:;
#BANNER:Hastur.png;
#BACKGROUND:Hastur-bg.png;
#PREVIEWVID:;
#JACKET:Hastur-jacket.png;
#CDIMAGE:;
#DISCIMAGE:;
#LYRICSPATH:;
#CDTITLE:;
#MUSIC:Hastur.mp3;
#OFFSET:0.100000;
#SAMPLESTART:83.159882;
#SAMPLELENGTH:12.000000;
#SELECTABLE:YES;
#BPMS:0.000=118.010;
#STOPS:;
#DELAYS:;
#WARPS:;
#TIMESIGNATURES:0.000=4=4;
#TICKCOUNTS:0.000=4;
#COMBOS:0.000=1;
#SPEEDS:0.000=1.000=0.000=0;
#SCROLLS:0.000=1.000;
#FAKES:;
#LABELS:0.000=Song Start;
#BGCHANGES:;
#KEYSOUNDS:;
#ATTACKS:
;

//---------------dance-single - FS JA XO----------------
#NOTEDATA:;
#CHARTNAME:;
#STEPSTYPE:dance-single;
#DESCRIPTION:FS JA XO;
#CHARTSTYLE:;
#DIFFICULTY:Challenge;
#METER:16;
#RADARVALUES:0.697835,0.716832,0.092325,0.478413,1.208622,582.000000,571.000000,11.000000,57.000000,28.000000,0.000000,0.000000,0.000000,0.000000,0.697835,0.716832,0.092325,0.478413,1.208622,582.000000,571.000000,11.000000,57.000000,28.000000,0.000000,0.000000,0.000000,0.000000;
#CREDIT:Kingly;
#NOTES:
0000
0000
0000
0000
,
0000
0000
0000
0000
,
0000
0000
0000
0000
,
0000
0000
0000
0000
,
0000
0000
00M0
0000
,
2000
0000
0000
3010
0000
0100
0001
0100
00M0
0100
1000
0100
0000
0010
0001
0000
,
1000
0000
0001
0100
0000
0010
0000
0002
0000
0000
0013
0000
1000
0010
0100
0001
,
2000
0000
3001
0010
0000
0100
1000
0100
00M0
0100
0001
0100
0000
0010
1000
0000
,
0001
0000
1000
0100
0000
0010
0000
0200
0000
0000
1300
0000
0100
0001
0100
0010
,
0001
0000
1000
1000
0000
0001
0100
0100
0000
0010
1000
1000
0001
0000
0010
0100
,
1000
0000
0001
0001
0000
1000
0100
0100
0000
0010
0001
0001
1000
0000
0010
0100
,
0001
0001
1000
1000
0100
0100
0010
0010
,
0001
0000
0000
0000
0000
0000
0000
0000
0000
0000
0000
0000
1000
0000
0000
0000
0000
0000
0000
0000
0000
0000
0000
0000
0100
0000
0000
0000
0000
0000
00M0
0000
0000
0000
0000
0000
0100
0000
0000
0000
0000
0000
0000
0000
0000
0000
0000
0000
0001
0000
0000
0000
0000
0000
0000
0000
0000
0000
0000
0000
1000
0000
0000
0000
0000
0000
0000
0000
0000
0000
0000
0000
0100
0000
0000
0000
0000
0000
00M0
0000
0000
0000
0000
0000
0100
0000
0000
0000
0000
0000
0000
0000
0000
0000
0000
0000
0001
0000
0000
0000
0000
0000
0000
0000
0100
0000
0000
0000
0000
0000
0000
0000
0001
0000
0000
0000
0000
0000
0000
0000
1000
0000
0000
0000
0000
0000
0000
0000
0010
0000
0000
0000
0000
0000
0000
0000
0100
0000
0000
0000
0000
0000
0000
0000
0002
0000
0000
0000
0000
0000
0000
0000
0000
0000
0000
0000
0000
0000
0000
0000
0000
0000
0000
0000
0000
0000
0000
0000
0003
0000
0000
0000
0000
0000
0000
0000
0000
0000
0000
0000
0000
0000
0000
0000
0000
0000
0000
0000
0000
0000
0000
0000
,
0101
0000
0000
0000
1000
0100
01M0
0100
0010
0001
0010
0100
1000
0010
0200
0000
,
2300
0000
3200
0000
0301
0100
01M0
0100
0010
1000
0010
0100
0002
0000
0003
0000
,
0102
0000
0000
0000
1003
0100
01M0
0100
0010
0001
0010
0100
1000
0010
0200
0000
,
0301
0000
1000
0010
0000
0001
0000
0020
0000
0000
0130
0000
0001
0100
00M0
0100
,
1000
0000
0001
0001
0000
1000
0100
0100
0000
0010
0001
1000
1000
0100
0020
0000
,
0031
0000
1000
1000
0000
0001
0100
0100
0000
0010
1000
0001
0001
0100
0020
0000
,
1030
0000
0100
0100
0000
0010
0001
0001
0000
1000
0010
0100
0100
0001
1000
0000
,
0100
0000
0010
0001
0000
1000
0010
1000
0000
0100
0000
0020
0000
0000
0031
0000
,
0012
0000
0000
0000
0000
0000
0000
0000
1003
0000
1000
0000
0000
0000
0001
0000
0100
00M0
0100
0000
1000
0000
0010
0000
0000
0000
1000
0000
0001
0000
0000
0000
,
0021
0000
0000
0130
1000
0001
0000
0100
0100
0010
1000
0010
0100
0001
0010
0001
,
2000
0000
0000
0000
0000
0000
0000
0000
3001
0000
0001
0000
0000
0000
1000
0000
0100
00M0
0100
0000
0001
0000
0010
0000
0000
0000
0001
0000
1000
0000
0000
0000
,
1020
0000
0000
0130
0001
1000
0000
0100
0100
0010
0001
0010
0100
1000
0010
0000
,
2010
0000
3001
0001
0000
1000
0100
0010
0001
1000
0010
1000
1000
0000
0001
0000
,
0011
0000
1000
1000
0100
0001
0100
0020
0000
0031
0010
0100
1000
0001
0000
0000
,
0012
0000
1000
1003
0000
0001
0100
0010
1000
0001
0010
0001
0001
0000
1000
0000
,
0001
0000
0100
0010
0000
0001
0000
0020
0000
0000
0130
0000
0001
0100
0010
1000
,
0002
0000
0023
0000
,
0230
0000
2300
0000
,
3001
0000
0010
0100
0000
1000
0000
0020
0000
0130
1000
0000
0100
0001
0100
0010
,
1000
0000
0001
0100
0000
0010
0000
0200
0000
0000
0301
1000
0000
0001
0010
0100
,
1000
0000
0010
0100
0000
0001
0000
0020
0000
0130
0001
0000
0100
1000
0100
0010
,
0001
0000
1000
0100
0000
0010
0000
2000
0000
0000
3010
0000
0001
0010
0100
1000
,
0001
0000
0100
0010
0000
1000
0000
0200
0000
0310
1000
0000
0010
0001
0010
0100
,
1000
0000
0001
0100
0000
0010
0000
0200
0000
0000
0301
1000
0000
0200
0000
0000
,
0310
0000
0001
0001
0000
1000
0010
0010
0000
0100
0001
0001
1000
0000
0100
0010
,
0001
0000
1000
1000
0000
0001
0010
0010
0000
0100
1000
1000
0001
0000
0100
0001
,
1000
0000
0100
0100
0000
0010
0001
0001
1000
0100
1000
1000
0001
0000
0100
0010
,
1000
0000
0100
00M0
0100
0000
0001
0000
1000
0000
0100
00M0
0100
0000
0001
0000
0100
0000
0010
0000
1000
0000
0001
1000
0001
0000
0000
0000
0000
0000
0000
0000
,
2001
0000
0000
0000
3001
0100
01M0
0100
0010
1000
0001
0100
0000
0001
0010
0000
,
0210
0000
0000
0000
1300
0100
01M0
0100
0010
0001
0010
0100
2000
0000
3002
0000
,
1003
0000
0010
1000
0100
00M0
0100
0000
0001
1000
0010
1000
0100
00M0
0100
0000
,
0001
0000
1000
0200
0000
0302
0000
0203
0000
0000
0310
0000
0001
0010
0100
1000
,
0002
0000
0000
0000
1003
0100
01M0
0100
0010
0001
1000
0100
0000
1000
0010
0000
,
0210
0000
0000
0000
0301
0100
01M0
0100
0010
1000
0010
0100
0002
0000
2003
0000
,
3100
0000
0010
0001
0100
00M0
0100
0000
1000
0001
0010
0001
0100
00M0
0100
0000
,
1000
0200
0000
0320
0000
1030
0010
0002
0000
1003
0000
0020
0000
0130
0001
1000
,
0200
0000
0000
0000
1300
0001
0100
01M0
0100
0010
0100
0001
0100
0010
0100
0001
,
1000
0000
0001
0010
0000
0100
0000
1000
0100
1000
0020
0000
0130
0001
0100
0010
,
2000
0000
0000
0000
3001
0001
1000
0100
01M0
0100
0010
0001
0000
1000
1000
0010
,
0200
0000
0301
0100
0000
0010
0000
0002
0000
0000
0013
0000
1000
0010
0100
0001
,
2000
0000
0000
0000
3001
0000
1000
0000
0100
00M0
0100
0000
0001
0000
0010
0000
0001
0000
1000
0000
0010
0000
1000
0000
0100
00M0
0100
0000
0001
0000
0010
0000
,
0001
0000
1000
0010
0000
0100
0000
0020
0000
0000
1030
0000
0001
0010
0100
1000
,
0002
0000
0000
0000
1003
0000
0001
0000
0100
00M0
0100
0000
1000
0000
0010
0000
1000
0000
0001
0000
0010
0000
0001
0000
0100
00M0
0100
0000
1000
0000
0010
0000
,
1000
0000
0000
0000
0001
0000
0100
0000
00M0
0000
0100
0000
1000
0000
0100
0000
0000
0000
0010
0000
0000
0000
0001
0100
0001
0000
1000
0000
0100
0000
0010
0000
;

//---------------dance-single - ----------------
#NOTEDATA:;
#CHARTNAME:;
#STEPSTYPE:dance-single;
#DESCRIPTION:;
#CHARTSTYLE:;
#DIFFICULTY:Hard;
#METER:13;
#RADARVALUES:0.567141,0.597360,0.193044,0.276976,0.520379,473.000000,450.000000,23.000000,33.000000,0.000000,0.000000,0.000000,0.000000,0.000000,0.567141,0.597360,0.193044,0.276976,0.520379,473.000000,450.000000,23.000000,33.000000,0.000000,0.000000,0.000000,0.000000,0.000000;
#CREDIT:Kingly;
#NOTES:
// measure 0
0000
0000
0000
0000
,  // measure 1
0000
0000
0000
0000
,  // measure 2
0000
0000
0000
0000
,  // measure 3
0000
0000
0000
0000
,  // measure 4
0000
0000
0000
0000
,  // measure 5
1000
0000
0000
0001
0000
0001
0100
0000
0010
0000
1000
0000
0100
0000
1000
0000
,  // measure 6
0001
0000
0000
0010
0000
0010
0001
0000
1000
0000
0000
0001
0000
0001
0100
0000
,  // measure 7
0010
0000
0000
1000
0000
1000
0100
0000
0010
0000
0001
0000
0100
0000
0001
0000
,  // measure 8
1000
0000
0000
0100
0000
0100
0010
0000
0001
0000
0000
1000
0000
1000
0010
0000
,  // measure 9
0100
0000
0001
0010
0000
0100
1000
0100
0000
0010
0001
0000
0001
0000
1000
0000
,  // measure 10
0100
0000
1000
0010
0000
0100
0001
0100
0000
0010
1000
0000
1000
0000
0001
0000
,  // measure 11
0010
0000
0100
1000
0000
0001
0100
0001
0000
0010
0100
0000
1000
0000
0001
0000
,  // measure 12
0100
0000
0010
1000
0100
0000
0010
0001
0100
0000
0010
2000
0002
0000
3003
0000
,  // measure 13
1002
0000
0000
0000
1003
0100
1000
0000
0001
0010
0001
0010
0001
0000
0100
0000
,  // measure 14
1000
0000
0100
0000
0010
1000
0010
0000
0100
0001
0100
0001
0200
0000
0300
0000
,  // measure 15
2001
0000
0000
0000
3001
0100
0001
0000
1000
0010
1000
0010
1000
0000
0100
0000
,  // measure 16
0010
0100
0001
1000
0010
0001
1000
0010
,  // measure 17
0110
0000
0100
0001
0000
1000
0100
1000
0000
0001
0100
0010
1000
0000
0100
0000
,  // measure 18
0010
0000
0100
1000
0000
0001
0100
0001
0000
1000
0100
0010
0001
0000
0100
0000
,  // measure 19
0010
0000
1000
0100
0000
0010
0001
0010
0000
0001
0100
0010
1000
0000
0001
0000
,  // measure 20
2001
0000
0000
3200
0000
0000
0320
0000
0032
0000
0003
0000
1001
0000
0000
0000
,  // measure 21
2000
0000
0000
0000
3001
0100
0000
0010
0000
0100
0001
0000
1000
0000
0100
0000
,  // measure 22
2100
0000
0000
0000
3001
0010
0000
0100
0000
0010
0001
0000
1000
0010
1000
0000
,  // measure 23
1002
0000
0000
0000
1003
0100
0000
0010
0000
0100
1000
0000
0001
0000
0100
0000
,  // measure 24
0102
0000
0000
0000
1003
0010
0000
0100
0000
0010
1000
0000
0001
0010
0100
0000
,  // measure 25
1100
0000
0001
0000
0100
0000
1000
0000
0100
0010
1000
0020
0000
0000
0130
0000
,  // measure 26
0001
0000
1000
0000
0100
0010
0001
2000
0000
0000
3010
0000
0100
0000
0001
0000
,  // measure 27
1001
0000
1000
0000
0100
0000
0001
0000
0100
0010
0001
0020
0000
0000
0130
0000
,  // measure 28
1000
0001
0100
1000
0001
0010
2000
0000
,  // measure 29
3002
0000
0023
0000
,  // measure 30
0230
0000
2300
0000
,  // measure 31
3001
0000
0100
0010
0000
1000
0000
0020
0000
0000
0130
0000
0001
0000
1000
0000
,  // measure 32
0100
0000
0010
0001
0000
0100
0000
0002
0000
0000
1003
0000
0100
0000
0010
0000
,  // measure 33
0001
0000
1000
0010
0000
0100
0000
0002
0000
0000
0013
0000
0001
0000
1000
0000
,  // measure 34
0010
0000
0100
0001
0000
0100
0000
2000
0000
0000
3100
0000
0010
0000
1000
0000
,  // measure 35
0001
0000
0010
0100
0000
1000
0000
0020
0000
0000
1030
0000
0001
0000
0010
0000
,  // measure 36
0100
0000
1000
0100
0000
0010
0000
0002
0000
0000
1003
0000
0010
0000
0100
0000
,  // measure 37
0001
0000
1000
0100
0000
0010
0001
0010
0000
0100
1000
0000
1000
0000
0001
0000
,  // measure 38
0010
0000
0001
0100
0000
0010
1000
0010
0000
0100
0001
0000
0001
0000
1000
0000
,  // measure 39
0100
0100
0010
0010
0001
0001
1000
1000
,  // measure 40
0001
0100
0010
0000
1000
0100
0010
0000
0001
1000
0010
0000
0220
0000
0330
0000
,  // measure 41
1001
0000
0000
0000
1000
0100
1000
0000
0001
0100
0001
0100
0010
1000
0001
0000
,  // measure 42
0010
0000
0100
0000
1000
0100
1000
0000
0001
0100
0001
0100
0001
0000
0010
0000
,  // measure 43
0100
0000
1000
0010
1000
0000
0100
0000
0010
0000
0001
0100
0001
0000
0010
0000
,  // measure 44
0100
1000
0100
0001
1000
0010
0001
1000
,  // measure 45
1001
0000
0000
0000
0001
0100
0001
0000
1000
0100
1000
0100
0010
0001
1000
0000
,  // measure 46
0010
0000
0100
0000
0001
0100
0001
0000
1000
0100
1000
0100
1000
0000
0010
0000
,  // measure 47
0100
0000
0001
0010
0001
0000
0100
0000
0010
0000
1000
0100
1000
0000
0010
0000
,  // measure 48
0100
0001
0100
1000
0001
0010
1000
0001
,  // measure 49
0021
0000
0000
0000
0130
0000
1000
0010
1000
0000
0100
0000
0010
0000
0001
0000
,  // measure 50
1000
0010
0001
1000
0100
0001
1000
0010
,  // measure 51
1020
0000
0000
0000
0130
0001
0100
0001
0100
0000
0010
0000
1000
0000
0100
0000
,  // measure 52
0010
0100
0001
1000
0010
0001
1000
0100
,  // measure 53
1100
0000
0101
0001
1000
0100
1100
1000
,  // measure 54
0001
0010
0011
0001
1000
0010
1010
0000
,  // measure 55
0220
0330
0101
0001
1000
0100
0110
0010
,  // measure 56
0001
0000
1000
0000
0010
0000
0001
0000
1000
0000
0100
0000
0001
1000
0001
1000
;
