#TITLE:Harmony of a Dream;
#SUBTITLE:;
#ARTIST:XAVIBCN;
#TITLETRANSLIT:;
#SUBTITLETRANSLIT:;
#ARTISTTRANSLIT:;
#GENRE:;
#CREDIT:;
#MUSIC:Harmony of a Dream.ogg;
#BANNER:harmony-of-a-dream-bn.png;
#BACKGROUND:harmony-of-a-dream-bg.png;
#CDTITLE:;
#SAMPLESTART:71.682;
#SAMPLELENGTH:13.765;
#SELECTABLE:YES;
#OFFSET:-0.012;
#BPMS:0.000=75.000
,20.000=76.000
,22.000=79.000
,24.000=81.000
,26.000=83.000
,28.000=86.000
,30.000=88.000
,32.000=90.000
,35.000=95.000
,37.000=96.000
,38.000=97.000
,40.000=101.000
,42.000=102.000
,44.000=105.000
,47.000=108.000
,49.000=111.000
,52.000=114.000
,54.000=116.000
,56.000=119.000
,57.000=121.000
,59.000=122.000
,61.000=123.000
,62.000=125.000
,63.000=127.000
,64.000=129.000
,65.000=131.000
,66.000=135.000
,68.000=147.000
,72.000=154.000
,73.000=155.000
,74.000=163.000
,75.000=170.000
,269.000=181.000
,273.000=184.000
,278.000=186.000
,280.000=187.000
,283.000=189.000
,287.000=191.000
,291.000=195.000
,296.000=197.000
,300.000=199.000
,304.000=202.000
,308.000=204.000
,312.000=206.000
,314.000=208.000
,319.000=210.000
,321.000=219.000
,323.000=225.000
,324.000=230.000
,325.000=240.000
,329.000=234.000
,330.000=230.000
,331.000=190.000
,331.333=176.000
,331.667=156.000
,332.000=140.000
,332.333=123.000
,332.667=102.000
,333.000=84.000
,333.333=65.000
,333.667=47.000
,334.000=75.000
;
#STOPS:76.000=0.353
,139.000=0.353
,266.000=0.353
;
#DISPLAYBPM:*;
#BGCHANGES:;
#FGCHANGES:;

//--------------- dance-single - EmeraldX ----------------
#NOTES:
     dance-single:
     EmeraldX:
     Beginner:
     3:
     0,0,0,0,0:
0000
0000
0000
0000
,
0000
0000
0000
0000
,
0000
0000
0000
0000
,
0000
0000
0000
0000
,
1000
0000
1000
0000
,
0001
0000
0001
0000
,
0010
0000
0010
0000
,
0100
0000
0100
0000
,
1000
0000
1000
0000
,
0001
0000
0001
0000
,
0100
0000
0100
0000
,
0010
0000
0010
0000
,
1000
0000
1000
0000
,
0100
0000
0100
0000
,
0010
0000
0010
0000
,
0001
0000
0001
0000
,
1000
0000
0001
0000
,
1000
0000
0001
0000
,
0100
0000
0010
0000
,
0100
0000
0000
0001
,
0000
0001
0000
0001
,
0000
0000
0000
1000
,
0000
1000
0000
1000
,
0000
0000
0000
0010
,
0000
0010
0000
0100
,
0000
0000
0000
0100
,
0000
0100
0000
0010
,
0000
0000
0000
1000
,
0000
0001
0000
1000
,
0000
0000
0000
0001
,
0000
1000
0000
0001
,
0000
0000
0000
0100
,
0000
0010
0000
0100
,
0000
0000
0000
0010
,
0000
0100
0000
0000
,
0000
0000
0010
0000
,
0000
0010
0010
0000
,
0000
1000
1000
0000
,
0000
0000
0000
0000
,
0001
0000
0001
0000
,
0000
0100
0100
0000
,
0000
0010
0010
0000
,
0000
0000
1000
0000
,
1000
0000
1000
0000
,
0000
0001
0001
0000
,
0000
0010
0010
0000
,
0000
0000
0000
0000
,
0100
0000
0100
0000
,
0000
0010
0010
0000
,
0000
0001
0001
0000
,
0000
0000
0000
0000
,
0000
0000
1000
0000
,
1000
0000
0010
0000
,
0000
0000
0100
0000
,
0100
0000
0001
0000
,
0000
0000
0010
0000
,
0010
0000
0001
0000
,
0000
0000
1000
0000
,
1000
0000
0100
0000
,
0000
0000
0010
0000
,
0001
0000
0010
0000
,
0000
0000
0100
0000
,
1000
0000
0100
0000
,
0000
0000
1000
0000
,
0001
0000
1000
0000
,
0000
0000
0010
0000
,
0100
0000
0000
0000
,
0000
0010
0000
0010
,
0000
0010
0000
0000
,
0000
1000
0000
1000
,
0000
1000
0000
0000
,
0000
0001
0000
0001
,
0000
0001
0000
0000
,
0000
0100
0000
0100
,
0000
0100
0000
0000
,
0000
0010
0000
0010
,
0000
0010
0000
0000
,
0000
1000
0000
1000
,
0000
1000
0000
0000
,
0000
0001
0000
0001
,
0000
0001
0000
0000
,
0000
0010
0000
0000
,
0000
0010
0000
0000
,
0000
0000
1001
0000
;

//--------------- dance-single - EmeraldX ----------------
#NOTES:
     dance-single:
     EmeraldX:
     Easy:
     7:
     0,0,0,0,0:
0000
0000
0000
0000
,
0000
0000
0000
0000
,
0000
0000
0000
0000
,
0000
0000
0000
0000
,
1001
1000
0100
0100
,
1000
1000
0010
0010
,
0100
0100
0001
0001
,
0010
0010
1000
0010
,
1001
0001
0100
0100
,
1000
1000
0100
0100
,
0001
0001
0010
0010
,
0100
0100
0001
0100
,
1001
1000
0001
1000
,
0001
0010
0001
1000
,
0001
0100
0010
0100
,
0001
1000
0100
1000
,
0001
0010
0100
1000
,
0010
0100
0001
1000
,
0010
0100
0010
1000
,
0000
0002
1003
0001
,
0010
0100
0100
1000
,
0010
0100
0100
0001
,
1000
0010
0010
1000
,
0100
0010
0001
1000
,
0001
0010
0010
0001
,
1000
0010
0010
1000
,
0001
0100
0100
0001
,
0010
0100
1000
0001
,
0100
0010
0100
0001
,
1000
0100
1000
0001
,
0010
0100
0010
0001
,
0100
0010
1000
0100
,
0100
1000
1000
0010
,
0010
0100
0100
0001
,
0010
0100
1000
0000
,
0010
0010
0020
1000
,
0000
0130
0002
0103
,
2000
3100
0002
0100
,
0000
1000
0000
0013
,
0002
0203
0320
0100
,
0000
1030
0002
0013
,
2000
3010
0200
0010
,
0000
0301
2000
3200
,
0320
0032
2003
0100
,
0000
3010
0002
0103
,
2000
3100
0002
0010
,
0000
1000
0000
0203
,
0302
2003
3200
0010
,
0000
1300
0002
0013
,
2000
3010
0001
0010
,
0100
1000
0000
0000
,
0200
0310
0001
0100
,
0010
0100
1000
0100
,
0010
0100
0001
0010
,
0100
0010
1000
0010
,
0001
0100
1000
0100
,
0001
0100
0001
0010
,
1000
0010
0001
1000
,
0010
1000
0001
0010
,
0100
1000
0001
0100
,
0010
0001
0010
1000
,
0100
0010
1000
0010
,
0100
0010
0001
0100
,
1000
0100
0001
0010
,
0100
1000
0010
1000
,
0100
0010
0001
1000
,
0010
0100
0000
0002
,
1003
1000
0010
0100
,
0100
0001
0010
0100
,
0100
1000
0001
0010
,
0010
0001
0100
0010
,
1000
0001
1000
0010
,
0010
1000
0001
0010
,
0010
0001
1000
0100
,
0100
1000
0010
0100
,
0001
1000
0100
0010
,
0100
0001
0100
0010
,
0001
1000
0010
0001
,
0010
1000
0100
0010
,
0001
0100
1000
0001
,
0010
0001
0010
1000
,
0010
0001
0100
0010
,
1000
0020
0000
0000
,
0000
0000
0000
0000
0000
0030
1001
0000
0000
0000
0000
0000
;

//--------------- dance-single - EmeraldX ----------------
#NOTES:
     dance-single:
     EmeraldX:
     Medium:
     11:
     0,0,0,0,0:
0000
0000
0000
0000
,
0000
0000
0000
0000
,
0000
0000
0000
0000
,
0000
0000
0000
0000
,
1001
0000
1000
0000
0100
0010
0001
0000
,
1000
0000
0001
0000
0100
0010
1000
0000
,
0001
0000
0010
0000
0001
0100
0010
0000
,
1000
0000
0010
0000
1000
0100
0010
0000
,
1001
0000
0001
0000
0100
0010
1000
0000
,
0001
0000
1000
0000
0100
0010
0001
0000
,
1000
0000
0010
0000
1000
0100
0010
0000
,
0001
0000
0010
0000
0001
0100
0010
0000
,
1001
0000
1000
0000
0010
0100
0001
0000
,
1000
0000
0001
0000
0010
0100
1000
0000
,
0001
0000
0100
0000
0001
0010
0100
0000
,
1000
0000
0100
0000
1000
0010
0100
0000
,
0001
0100
0001
0000
0010
0001
0010
0000
,
0100
1000
0100
0000
1000
0010
1000
0000
,
0001
0010
0100
0000
1000
0010
0100
0000
,
0000
0000
1000
0001
1000
0001
1000
0000
,
1000
0000
0010
1000
0100
0000
0010
0000
,
0001
0000
0100
0001
0010
0000
0100
0000
,
1000
0000
0001
0010
0100
0000
0010
0000
,
0001
0000
1000
0010
0100
0010
1000
0000
,
0001
0000
0010
0001
1000
0000
0010
0000
,
1000
0000
0001
1000
0100
0000
1000
0000
,
0010
0000
0100
0001
1000
0000
0100
0000
,
0010
0000
0100
1000
0001
1000
0010
0100
,
0010
0000
1000
0001
1000
0000
0001
0010
,
0001
0000
1000
0100
1000
0000
0010
1000
,
0001
0000
0100
0001
1000
0000
0100
1000
,
0001
1000
0100
0010
0001
1000
0001
0000
,
0100
0000
0010
1000
0100
0000
0001
0000
,
0100
0000
1000
0010
0100
0000
0001
0000
,
0010
0000
0100
1000
0001
0100
0000
0000
,
0010
0100
0010
0100
0020
0000
1000
0000
,
0100
0000
2030
0000
3001
0000
0010
0002
,
0000
0103
0020
0000
2030
0000
0100
0000
,
0001
0010
0001
3001
,
0001
0010
0100
1000
0002
0000
0100
0000
,
1000
0000
0023
0000
0032
0000
0103
0020
,
0000
1030
0100
0000
0200
0000
0001
0000
,
1000
0000
0301
0000
1000
0010
1000
0001
,
0010
0001
1000
0001
0200
0000
0010
0000
,
0001
0000
0320
0000
1030
0001
1000
0200
,
0000
0310
0002
0000
0203
0000
0010
0000
,
1000
0000
0010
0000
0001
0000
0310
0100
,
0010
1000
0001
0000
0020
0000
0001
0000
,
0100
0000
0031
0000
1000
0100
1000
0020
,
0000
0130
0002
0000
2003
0000
0100
0000
,
0001
3010
0000
0000
,
0001
1000
0001
1000
0001
0000
0010
0000
,
0001
0100
0010
0000
1000
0000
0100
0000
,
0001
0100
1000
0000
0010
0000
1000
0000
,
0100
0010
0001
0000
1000
0000
0010
0000
,
0100
0001
0100
0010
0100
0000
0001
0000
,
0010
0001
0100
0000
1000
0000
0100
0000
,
0001
0010
1000
0000
0010
0000
0100
0000
,
0010
0001
1000
0000
0100
0010
0001
0010
,
0100
0010
0001
0000
1000
0000
0010
0000
,
0100
0001
0010
0000
0001
0000
0010
0000
,
1000
0010
0001
0000
1000
0000
0001
0000
,
0100
0010
1000
0000
0001
0000
0010
0001
,
1000
0001
0010
0000
0001
0000
0100
0000
,
1000
0100
0010
0000
0100
0000
0001
0000
,
0010
0001
0100
0000
0001
0000
0010
0000
,
0001
1000
0010
0100
0000
0000
0010
0100
,
0010
0100
0010
0000
0010
0000
0100
0001
,
0010
0000
0100
0000
1000
0000
0010
1000
,
0100
0000
0010
0000
0001
0000
1000
0100
,
0010
0000
0100
0000
1000
0000
0001
0100
,
0010
0100
0001
0000
1000
0000
0100
1000
,
0001
0000
0100
0000
0001
0000
1000
0001
,
0010
0000
0001
0000
0100
0000
0010
1000
,
0001
0000
0010
0100
0010
0100
1000
0001
,
1000
0001
0100
0010
0100
0000
0001
1000
,
0001
0000
1000
0100
1000
0000
0001
0010
,
0001
0000
0100
0001
1000
0000
0010
1000
,
0001
0000
0010
0001
1000
0001
0010
0100
,
1000
0001
1000
0000
0010
0000
0100
0001
,
0010
0000
1000
0000
0010
0000
0001
0100
,
0010
1000
0100
0010
,
0001
2000
0000
0000
,
0000
0000
0000
0000
0000
3000
0110
0000
0000
0000
0000
0000
;

//--------------- dance-single - EmeraldX ----------------
#NOTES:
     dance-single:
     EmeraldX:
     Hard:
     15:
     0,0,0,0,0:
0000
0000
0000
0000
,
0000
0000
0000
0000
,
0000
0000
0000
0000
,
0000
0000
0000
0000
,
1000
0100
1000
0001
1000
0010
1000
0001
,
0010
0001
1000
0001
0100
0001
1000
0001
,
0010
0001
0100
0010
1000
0001
1000
0010
,
0100
0001
1000
0100
0010
0001
1000
0001
,
1000
0100
1000
0001
1000
0010
1000
0001
,
0010
0001
1000
0001
0100
0001
1000
0001
,
0100
0001
0010
0100
1000
0001
1000
0100
,
0010
0001
1000
0010
0100
0001
1000
0001
,
1000
0100
1000
0001
1000
0010
1000
0001
,
0010
0001
1000
0001
0100
0001
1000
0001
,
0010
0001
0010
0100
1000
0010
0100
0001
,
0010
0100
1000
0001
1000
0010
0100
0001
,
1000
0100
1000
0001
0010
0001
1000
0010
,
0100
0001
0100
0010
1000
0010
0100
0001
,
1000
0000
0100
0000
0010
0000
0001
0000
1000
0000
0010
0000
1000
0001
1000
0001
,
1000
0000
0000
0000
0010
0100
0000
0001
1000
0001
1000
0000
0001
0000
0010
0000
,
0001
0000
0001
0000
0100
0000
0010
0000
1000
0001
1000
0000
0100
0000
1000
0000
,
0010
0000
0010
0000
1000
0000
0001
0000
0010
0001
0010
0000
0100
0000
0010
0000
,
0100
0000
1000
0000
0001
0000
1000
0000
0010
1000
0010
0000
0100
0000
0001
0000
,
1000
0000
0100
0000
1000
0000
0001
0000
0010
0001
1000
0001
1000
0000
0001
0000
,
0100
0000
0100
0000
0001
0000
0010
0000
0100
1000
0100
0000
1000
0000
0001
0000
,
0010
0000
0010
0000
0001
0000
0100
0000
0001
0100
0001
0000
1000
0000
0100
0000
,
0010
0000
0001
0000
0100
0000
0010
0000
1000
0001
1000
0000
0010
0000
0100
0000
,
0001
0000
0100
0000
0010
0000
1000
0000
0001
0010
0001
0010
0100
0000
1000
0000
,
0100
0000
0001
0000
0100
0000
1000
0000
0010
0100
0010
0000
0001
0000
0010
0000
,
1000
0000
0010
0000
0001
0000
0010
0000
1000
0001
1000
0000
0001
0000
0100
0000
,
0001
0000
1000
0000
0100
0000
1000
0000
0010
0100
0010
0000
1000
0000
0001
0000
,
0010
0000
0001
0000
1000
0000
0010
0000
0100
0001
0100
0001
0100
0000
0010
0000
,
0100
0000
1000
0000
0100
0000
0001
0000
1000
0100
1000
0000
0001
0000
0010
0000
,
0100
0000
0010
0000
1000
0000
0010
0000
0001
0100
0001
0000
1000
0000
0100
0000
,
0010
0000
0001
0000
1000
0000
0010
0000
0100
0001
1000
0001
0000
0000
0000
0000
,
1000
0100
0000
0010
0001
0010
0001
0000
1000
0000
0010
0000
0100
0000
0010
0000
,
1000
0000
0010
0000
0100
0001
0100
0001
0100
0000
0010
0000
1000
0000
1000
0000
,
0001
0000
0010
0000
0001
0010
0001
0010
0001
0000
0100
0000
0001
0000
0010
0000
,
0001
1000
0010
1000
0100
1000
0010
0100
,
0001
0001
1000
1000
0010
0100
0001
0100
,
0010
0000
0100
0000
0001
1000
0001
1000
0001
0000
0010
0000
0001
0000
0001
0000
,
0100
0000
0010
0000
1000
0010
1000
0010
1000
0000
0100
0000
1000
0000
0010
0000
,
0100
0001
1000
0001
0011
0010
0110
0100
,
1100
1000
1001
0001
1000
0100
0001
0100
,
1000
0000
0001
0000
1000
0010
1000
0010
0100
0000
0001
0000
0010
0000
0010
0000
,
0001
0000
0100
0000
0010
1000
0010
0100
0010
0000
1000
0000
0001
0000
1000
0000
,
0010
1000
0001
1000
0100
0010
0011
0001
,
0101
0100
0110
0010
1000
0001
0010
0001
,
1000
0000
0010
0000
0100
0010
1000
0010
1000
0000
0100
0000
1000
0000
1000
0000
,
0001
0000
0010
0000
0001
1000
0010
1000
0010
0000
0100
0000
0001
0000
1000
0000
,
0001
0010
0100
1000
0010
0000
0010
0000
,
0010
0100
0000
0010
0100
0010
0100
0000
0001
0000
0010
0000
0001
0000
0001
0000
,
1000
0000
0010
0000
1000
0100
0010
0000
0100
0000
1000
0000
0001
0000
0001
0000
,
0100
0000
0010
0000
1000
0001
0010
0000
0001
0000
0100
0000
0010
0000
0010
0000
,
1000
0000
0001
0000
0100
0001
1000
0000
0100
0000
1000
0000
0010
0000
0010
0000
,
1000
0000
0001
0000
0010
0001
1000
0001
1000
0000
0001
0000
0100
0000
0100
0000
,
0001
0000
0010
0000
0100
1000
0001
0000
1000
0000
0010
0000
0100
0000
0100
0000
,
0010
0000
1000
0000
0001
0100
0010
0000
1000
0000
0001
0000
0100
0000
0100
0000
,
0001
0000
0010
0000
0100
1000
0001
0000
1001
0000
1000
0000
1010
0000
0010
0000
,
0110
0100
0101
0001
1000
0100
1000
0010
,
0100
0000
0001
0000
0010
0001
1000
0000
0001
0000
0100
0000
0001
0000
0010
0000
,
0001
0000
1000
0000
0010
1000
0001
0000
0100
0000
0010
0000
1000
0000
0010
0000
,
0100
0000
0001
0000
1000
0100
0010
0000
0100
0000
1000
0000
1001
0000
0001
0000
,
0101
0100
0110
0010
1000
0001
0100
0001
,
1000
0000
0010
0000
0100
0010
1000
0000
0001
0000
0010
0000
0100
0000
0010
0000
,
0001
0000
1000
0000
0010
0100
0001
0000
1000
0000
0100
0000
0010
0000
0001
0000
,
0100
0000
0010
0000
1000
0001
1000
0010
0000
0000
0000
0000
1000
0100
0000
0100
,
1000
0001
1000
0000
0001
0000
0100
0000
0001
0000
0001
0000
0010
0000
0100
0000
,
1000
0001
1000
0000
0010
0000
1000
0000
0100
0000
0100
0000
1000
0000
0001
0000
,
0100
0001
0100
0000
0010
0000
0100
0000
0010
0000
1000
0000
0001
0000
1000
0000
,
0100
1000
0100
0000
0010
0000
0001
0000
1000
0000
0010
0000
1000
0000
0001
0000
,
0100
0001
1000
0001
1000
0000
0001
0000
0010
0000
0010
0000
0001
0000
0100
0000
,
0010
1000
0010
0000
1000
0000
0001
0000
0100
0000
0100
0000
0001
0000
0010
0000
,
0001
0010
0001
0000
1000
0000
0010
0000
0100
0000
0001
0000
0010
0000
0100
0000
,
1000
0001
1000
0000
0100
0000
0010
0000
0001
0000
0010
0000
0100
0000
1000
0000
,
0001
0100
0001
0100
0001
0000
1000
0000
0100
0000
0001
0000
0100
0000
1000
0000
,
0010
0010
0100
0001
0100
1000
0100
0001
,
0010
0010
0001
1000
0010
0100
0010
1000
,
0001
0001
0010
0001
0100
0100
0010
0010
,
1000
0001
1000
0001
1000
0000
0100
0000
0010
0000
1000
0000
0010
0000
0001
0000
,
0100
1000
0100
0001
0010
0001
0010
1000
,
0010
0001
1000
0010
0100
0001
1000
0100
,
0010
0001
2000
0000
3020
0000
0230
0000
,
0302
0000
0000
0023
0000
0030
2002
0000
0000
3003
0000
0000
;

//--------------- dance-single - EmeraldX ----------------
#NOTES:
     dance-single:
     EmeraldX:
     Challenge:
     18:
     0,0,0,0,0:
0000
0000
0000
0000
,
0000
0000
0000
0000
,
0000
0000
0000
0000
,
0000
0000
0000
0000
,
1000
0100
1000
0100
0010
0001
0010
0001
1000
0010
1000
0010
0100
0001
0100
0001
,
1000
0100
0010
0001
0100
0010
1000
0100
0010
0001
0100
0010
1000
0100
0010
0001
,
1000
0001
0100
0001
1000
0100
1000
0001
0010
0001
1000
0010
0100
0010
1000
0001
,
0010
0001
0010
0001
0100
0001
1000
0100
1000
0010
1000
0010
0100
0001
1000
0001
,
1000
0100
1000
0100
0010
0001
0010
0001
1000
0010
1000
0010
0100
0001
0100
0001
,
1000
0100
0010
0001
0100
0010
1000
0100
0010
0001
0100
0010
1000
0100
0010
0001
,
1000
0001
0010
0001
1000
0010
1000
0001
0100
0001
1000
0100
0010
0100
1000
0001
,
0100
0001
0100
0001
0010
0001
1000
0010
1000
0100
1000
0100
0010
0001
1000
0001
,
1000
0100
1000
0100
0010
0001
0010
0001
1000
0010
1000
0010
0100
0001
0100
0001
,
1000
0100
0010
0001
0100
0010
1000
0100
0010
0001
0100
0010
1000
0100
0010
0001
,
0100
0010
1000
0100
1000
0100
1000
0001
0100
0001
1000
0100
0010
0100
1000
0001
,
0100
0001
0100
0010
1000
0001
0010
0001
0100
0001
0100
0010
1000
0001
1000
0010
,
1000
0001
0010
0100
1000
0001
0100
0001
1000
0100
0010
0001
1000
0010
1000
0001
,
0010
0100
0010
0001
0100
0010
0100
0001
1000
0100
1000
0001
1000
0010
1000
0001
,
0010
0100
1000
0001
1000
0100
0010
0001
1000
0010
0100
0001
1000
0001
0100
0010
,
1000
0000
0000
0000
1000
0001
0000
1000
0001
0010
0100
1000
0001
0100
0001
0100
,
0010
0000
1000
0001
1000
0000
0100
0010
0001
0010
0100
0000
1000
0100
1000
0100
,
0010
0000
0001
1000
0001
0000
0100
0010
1000
0010
0100
0000
0001
0010
0001
0010
,
0100
0000
1000
0100
1000
0000
0010
0100
0001
1000
0010
0000
0100
0001
0100
0001
,
1000
0100
1000
0000
0010
1000
0001
1000
0001
0010
0100
1000
0001
1000
0010
1000
,
0010
0000
0100
0001
1000
0000
0100
1000
0010
1000
0010
0000
0100
0001
0010
0001
,
0010
0000
0100
1000
0001
0000
0010
0001
1000
0001
1000
0000
0010
1000
0001
1000
,
0100
0000
0010
0001
0100
0000
0010
1000
0100
1000
0010
0000
0100
0001
0010
0001
,
1000
0010
0100
0000
0010
1000
0001
0010
0001
0100
0010
1000
0001
0010
0100
0010
,
1000
0000
0010
0001
1000
0000
0010
0100
1000
0100
0010
0000
1000
0001
0010
0100
,
1000
0000
0001
0100
1000
0000
0100
0001
0010
0100
0010
0000
0100
1000
0010
0100
,
0010
0000
0001
0010
0100
0000
0001
1000
0100
0010
1000
0000
0010
0001
1000
0001
,
0100
0010
1000
0000
0001
0010
0100
0001
0100
1000
0010
0100
0001
0010
0001
0100
,
1000
0000
0100
0001
0010
0000
0100
1000
0100
0010
0100
0000
1000
0010
0100
0001
,
0100
0000
1000
0100
0010
0000
1000
0001
0010
0100
0010
0000
0001
0010
0100
0010
,
0001
1000
0010
0100
0010
1000
0001
0010
0100
1000
0001
0100
0000
0000
0000
0000
,
0010
0100
0000
0001
1000
0100
0010
0000
0001
0010
0001
0000
0100
0000
1000
0000
,
0100
0000
0001
0000
0010
0100
1000
0000
2010
0000
0001
0000
3100
0000
0020
0000
,
0001
0130
1100
0000
0101
0001
0100
0001
,
1000
0010
1000
0100
0001
0100
1000
0010
,
1010
0000
0010
1000
0001
0010
0100
1000
0010
1000
0010
0000
0100
0000
0001
0000
,
1000
0000
0001
0000
0010
0100
0010
0000
0012
0000
1000
0000
0103
0000
0020
0000
,
1000
0130
0101
0001
1000
0100
0001
0100
,
1000
0001
0100
0001
2100
3001
2010
3001
,
0012
1003
0102
1003
1001
0001
0010
1000
,
0010
0000
0001
0000
1000
0010
1000
0000
0102
0000
1000
0000
0103
0000
2000
0000
,
0100
3001
1010
0000
0011
0010
0001
0100
,
0001
1000
0100
1000
0001
0010
0021
0130
,
0210
1300
1100
0000
0011
0001
0100
1000
,
0100
0000
0001
0000
1000
0100
1000
0000
1002
0000
0010
0000
0103
0000
2000
0000
,
0001
0000
3100
0000
0010
0100
0010
0100
1000
0000
0001
0000
0100
0000
0001
0000
,
1000
0001
0010
0100
1000
0000
1000
0000
,
1000
0100
0000
0010
0001
1000
0010
0100
0001
0010
0001
1000
0002
0000
0103
0010
,
2000
0000
3100
0010
0001
0010
0100
1000
0001
0100
0001
0100
0020
0000
1030
0001
,
0200
0000
0301
0010
0001
1000
0010
0100
0001
1000
0100
1000
0200
0000
0310
0001
,
2000
0000
3010
1000
0001
0010
0100
0010
0001
0100
0001
1000
0020
0000
1030
0001
,
0010
0001
1000
0010
0100
0001
1000
0100
1000
0010
0100
0001
0020
0000
0031
0100
,
0002
0000
1003
0100
1000
0010
0100
0001
0010
0001
0100
0001
2000
0000
3010
0100
,
0020
0000
1030
0001
1000
0100
0010
0001
0100
0001
1000
0100
0020
0000
0031
1000
,
0200
0000
1300
0010
0100
0001
1000
0001
0200
0000
0301
0010
0200
0000
1300
0001
,
0200
0000
0301
1000
0200
0000
0310
0001
1000
0010
0100
0010
2000
0000
3100
0001
,
0200
0000
0310
0100
1000
0001
0010
0001
0100
1000
0100
0001
0200
0000
0301
0010
,
0002
0000
1003
0010
1000
0100
0010
1000
0010
0001
1000
0001
0200
0000
0310
1000
,
0020
0000
0130
0001
1000
0001
0010
0100
0001
0100
1000
0100
0010
0000
0100
1000
,
0001
0100
0010
1000
0001
0010
0100
1000
0001
0100
0010
0100
2000
0000
3100
0001
,
0020
0000
0130
1000
0001
0010
1000
0010
0100
1000
0001
1000
0020
0000
0031
0010
,
2000
0000
3001
0010
0100
1000
0010
0100
0001
0100
0010
1000
0001
0010
0100
1000
,
0010
1000
0100
0010
0001
1000
0010
0100
0000
0000
0000
0000
1000
0001
0000
0001
,
1000
0010
0100
0001
1000
0100
1000
0100
0010
0000
0001
1000
0001
0000
0100
0010
,
1000
0010
0100
0000
0001
0100
0001
0100
0010
0000
1000
0001
1000
0000
0100
0010
,
0001
0010
0100
0000
1000
0010
1000
0010
0100
0000
0001
0100
0001
0000
0010
0100
,
1000
0001
0010
0000
0100
1000
0100
1000
0001
0100
0001
0000
0010
0001
1000
0001
,
1000
0010
0100
0001
1000
0001
0010
0001
0010
0000
0100
1000
0001
0000
0100
0001
,
0010
0001
0010
0000
0100
1000
0010
1000
0010
0000
0100
0001
1000
0000
0010
1000
,
0001
1000
0001
0000
0010
0001
1000
0001
0100
0000
0010
1000
0100
0000
0010
0001
,
0100
0001
0010
0000
0100
1000
0010
1000
0001
0010
0100
0000
0010
0001
1000
0010
,
1000
0100
0010
0001
1000
0010
1000
0001
1000
0000
0100
0010
0100
0000
1000
0010
,
1000
0001
1000
0100
0010
0001
0010
0100
0010
0000
0001
1000
0001
0000
0010
0100
,
0010
0001
1000
0001
0100
0010
1000
0100
0010
0000
0001
1000
0001
0000
0100
0010
,
1000
0100
0010
0000
0001
0010
0001
1000
0001
0100
0001
0000
1000
0010
1000
0001
,
1000
0100
0010
0001
1000
0010
1000
0010
1000
0000
0001
0010
0100
0000
1000
0001
,
1000
0001
0010
0000
0001
0100
0001
0100
0001
0000
1000
0010
0100
0000
0001
1000
,
0001
1000
0100
0000
0010
0001
0010
0001
0010
0001
0010
0001
1000
0001
1000
0001
,
1000
0000
0000
0001
0000
0000
1000
0000
0000
0001
0000
0000
1000
0000
0000
0000
0010
0000
0000
0000
0100
0000
0000
0000
0001
0000
0000
0000
0010
0000
0000
0000
0100
0000
0000
0000
1000
0000
0000
0000
0001
0000
0000
0000
0100
0000
0000
0000
,
0010
1000
0001
1000
0010
0110
2002
0000
0000
3003
0000
0000
;

//--------------- dance-single - EmeraldX ----------------
#NOTES:
     dance-single:
     EmeraldX:
     Edit:
     19:
     0,0,0,0,0:
0000
0000
0000
0000
,
0000
0000
0000
0000
,
0000
0000
0000
0000
,
0000
0000
0000
0000
,
1000
0100
1000
0001
0100
0001
1000
0010
0100
0001
1000
0001
0010
0001
1000
0010
,
0100
0001
1000
0001
0100
0010
1000
0001
0010
0001
1000
0010
1000
0001
0010
0100
,
1000
0001
0100
0001
1000
0100
0010
0100
1000
0001
0100
0001
1000
0010
0100
0010
,
1000
0001
0010
0001
1000
0010
0100
0001
1000
0001
0100
0010
1000
0001
0010
0001
,
1000
0100
1000
0010
1000
0001
0010
0001
0100
0001
1000
0001
0010
0001
0100
0010
,
1000
0100
1000
0010
0100
0001
0010
0001
1000
0001
0100
0010
1000
0001
1000
0100
,
1000
0010
0100
0001
0010
0001
1000
0010
1000
0001
0010
0100
1000
0001
0100
0001
,
1000
0100
0010
0001
1000
0010
1000
0001
0010
0100
1000
0001
0100
0001
1000
0010
,
1000
0001
1000
0100
0010
0001
1000
0010
1000
0001
0010
0001
1000
0001
0100
0010
,
1000
0001
1000
0010
0100
0001
1000
0100
0010
0001
1000
0001
0010
0100
1000
0001
,
0100
0010
0100
0001
1000
0100
0010
0001
1000
0010
1000
0001
0010
0100
1000
0001
,
0100
0001
1000
0100
0010
0001
1000
0010
1000
0001
0010
0100
0010
0001
1000
0010
,
0100
0010
1000
0001
0010
0001
1000
0001
0100
0010
1000
0001
1000
0100
0010
0001
,
1000
0010
1000
0001
0010
0100
1000
0001
0100
0001
1000
0100
0010
0100
1000
0001
,
0100
0010
1000
0001
0010
0001
1000
0100
0010
0001
1000
0001
0100
0010
1000
0001
,
0010
0000
0000
0000
0001
1000
0000
0001
1000
0001
1000
0001
0010
0001
1000
0001
,
0100
0010
1000
0100
1000
0001
0100
0001
1000
0100
0010
0001
1000
0001
0100
0001
,
1000
0100
1000
0010
1000
0001
1000
0010
0100
0001
1000
0001
0010
0001
1000
0010
,
1000
0001
0010
0100
1000
0001
0100
0001
1000
0100
0010
0100
1000
0001
0100
0010
,
0100
0001
1000
0010
1000
0001
0010
0001
0100
0001
1000
0100
1000
0010
0100
0010
,
1000
0001
0010
0100
1000
0001
0010
0001
1000
0010
1000
0001
0100
0010
1000
0100
,
1000
0001
0100
0001
1000
0010
0100
0010
1000
0001
0010
0100
1000
0001
0010
0100
,
0010
0001
1000
0010
0100
0001
1000
0100
1000
0001
0010
0100
1000
0001
0100
0010
,
1000
0001
0010
0001
1000
0100
1000
0001
0010
0100
1000
0001
1000
0100
0010
0001
,
0100
0001
1000
0010
1000
0001
0100
0001
1000
0100
1000
0001
0010
0100
0010
0001
,
1000
0010
0100
0001
1000
0100
0010
0100
1000
0001
0100
0001
1000
0010
0100
0010
,
1000
0001
0010
0100
0010
0001
0100
0001
1000
0010
1000
0001
1000
0100
0010
0001
,
1000
0001
0100
0001
0010
0001
1000
0001
0100
0010
1000
0001
0100
0010
1000
0010
,
0100
0001
1000
0001
0010
0001
1000
0001
0100
0010
1000
0010
0100
0001
0010
0001
,
1000
0010
1000
0001
0100
0001
1000
0100
1000
0001
0010
0100
0010
0001
1000
0010
,
0100
0001
1000
0010
0100
0010
1000
0001
0010
0100
1000
0001
0000
0000
0000
0000
,
1000
0001
0000
1000
0001
1000
0001
1000
0010
1000
0100
1000
0001
0100
0001
1000
,
0010
0100
0010
1000
0001
0010
0100
1000
0001
0010
0001
1000
0010
0100
0001
0010
,
0001
1000
0010
1000
0001
0100
0010
1000
0001
0100
0001
1000
0100
1000
0001
0010
,
0100
0010
0001
1000
0010
0100
0001
1000
0010
0100
0010
1000
0001
0100
0001
1000
,
0100
1000
0010
0100
0010
1000
0001
0010
0001
0100
0010
0100
0001
1000
0100
0010
,
0100
1000
0001
0100
0010
0100
0001
1000
0100
0010
0001
1000
0010
1000
0001
0100
,
0001
1000
0100
0010
0001
1000
0001
0010
0001
1000
0010
0100
0010
1000
0001
0100
,
0001
1000
0100
1000
0001
0010
0100
0010
0001
1000
0010
0100
0010
1000
0001
0100
,
0010
1000
0001
1000
0100
0010
0001
1000
0001
0100
0010
1000
0001
0100
0001
1000
,
0100
1000
0001
0010
0100
1000
0001
0100
0001
1000
0010
0100
0010
1000
0001
0010
,
0001
1000
0001
0100
0001
1000
0100
0010
0001
1000
0010
1000
0001
1000
0100
1000
,
0010
0100
0001
0100
0010
1000
0100
0010
0001
1000
0100
0010
0100
1000
0010
0100
,
0001
0010
0001
1000
0100
1000
0001
0100
0010
1000
0001
0100
0001
1000
0100
0010
,
0001
0010
0100
0010
0001
1000
0010
0100
0010
1000
0010
0100
0001
0010
0100
0010
,
0001
1000
0010
0100
0010
1000
0001
0010
0001
1000
0100
1000
0001
0100
0010
0100
,
0001
0100
0010
1000
0010
0100
0001
1000
0001
0000
0000
0000
0001
0000
0000
0000
,
0001
1000
0000
0001
1000
0001
1000
0001
1000
0010
1000
0001
0100
0010
1000
0001
,
0100
0001
1000
0100
0010
0001
1000
0010
1000
0001
1000
0100
1000
0001
0010
0001
,
1000
0001
0100
0010
1000
0010
0100
0001
0010
0100
0010
0001
1000
0100
1000
0001
,
0010
0001
0100
0001
1000
0010
0100
0010
1000
0001
0010
0100
1000
0001
0100
0001
,
1000
0100
0010
0001
1000
0010
0100
0010
1000
0001
0010
0100
0010
0001
0100
0010
,
0100
0001
1000
0100
0010
0100
1000
0001
0100
0010
1000
0010
0100
0001
0100
0010
,
1000
0001
0010
0001
1000
0100
1000
0001
0010
0100
1000
0001
0100
0001
1000
0010
,
0100
0001
1000
0100
1000
0010
0100
0010
1000
0001
0010
0001
1000
0001
0100
0001
,
1000
0100
0010
0001
0100
0010
0100
0001
1000
0100
1000
0001
0010
0001
1000
0010
,
0100
0001
1000
0100
1000
0001
0010
0001
1000
0010
1000
0001
0100
0010
0100
0001
,
1000
0100
0010
0100
1000
0001
0100
0010
1000
0001
0010
0001
1000
0100
0010
0001
,
1000
0010
1000
0001
0100
0010
1000
0100
1000
0010
0100
0001
1000
0001
0010
0001
,
1000
0100
1000
0001
0100
0001
0010
0100
1000
0001
1000
0010
0100
0001
1000
0100
,
0010
0001
1000
0010
0100
0010
1000
0001
0010
0100
0010
0001
1000
0100
0010
0001
,
1000
0010
0100
0001
1000
0001
0100
0001
1000
0010
1000
0001
0010
0100
1000
0001
,
0010
0001
1000
0010
0100
0010
1000
0001
0000
0000
0000
0000
0010
0100
0000
0010
,
0100
0010
0100
0010
0001
1000
0010
1000
0001
0100
0001
1000
0100
0010
0001
1000
,
0001
0100
0010
0100
0001
1000
0100
1000
0001
0010
0100
1000
0001
0010
0001
1000
,
0010
1000
0001
0100
0010
0100
0001
1000
0100
0010
0001
1000
0010
1000
0001
0100
,
0001
1000
0100
0010
0001
1000
0001
0010
0100
1000
0001
0100
0001
1000
0010
1000
,
0001
0010
0001
1000
0100
1000
0001
0010
0100
1000
0001
0100
0001
1000
0010
1000
,
0001
0010
0001
1000
0010
0100
0010
1000
0001
0010
0100
1000
0001
0100
0001
1000
,
0100
0010
0001
1000
0010
1000
0001
0010
0100
0010
0001
1000
0010
0100
0010
1000
,
0001
0100
0001
1000
0100
0010
0001
1000
0010
1000
0001
0010
0100
1000
0001
0100
,
0001
1000
0100
1000
0010
0100
0010
1000
0001
0010
0100
1000
0001
0100
0010
0100
,
0001
1000
0100
0010
0001
1000
0010
0100
0010
1000
0001
0010
0100
1000
0001
0100
,
0010
0100
0001
1000
0100
1000
0001
0100
0001
1000
0010
1000
0001
0010
0100
1000
,
0001
0100
0001
1000
0100
0010
0001
1000
0010
1000
0001
0010
0100
0010
0001
1000
,
0010
1000
0001
1000
0100
0010
0001
1000
0001
0100
0001
1000
0001
0010
0100
1000
,
0001
1000
0010
1000
0001
0100
0001
1000
0100
0010
0001
1000
0010
0100
0010
1000
,
0001
0010
0100
1000
0001
0100
0001
1000
0100
1000
0001
0010
0100
1000
0001
0100
,
0001
0000
0000
1000
0000
0000
0100
0000
0000
1000
0000
0000
0001
0000
0000
0000
1000
0000
0000
0000
0001
0000
0000
0000
1000
0000
0000
0000
0010
0000
0000
0000
1000
0000
0000
0000
0001
0000
0000
0000
0010
0000
0000
0000
0001
0000
0000
0000
,
1000
0100
0010
0001
1000
0010
1001
0000
0000
0000
0000
0000
;
