#TITLE:Hangover;
#SUBTITLE:;
#ARTIST:PSY feat. Snoop Dogg;
#TITLETRANSLIT:;
#SUBTITLETRANSLIT:;
#ARTISTTRANSLIT:;
#GENRE:;
#CREDIT:;
#MUSIC:Hangover.ogg;
#BANNER:Hangover-bn.png;
#BACKGROUND:Hangover-bg.png;
#CDTITLE:;
#SAMPLESTART:82.400;
#SAMPLELENGTH:12.800;
#SELECTABLE:YES;
#OFFSET:0.000;
#BPMS:0.000=150.000;
#STOPS:;
#ORIGIN:;
#PREVIEWVID:;
#JACKET:Hangover-jacket.png;
#CDIMAGE:;
#DISCIMAGE:;
#BGCHANGES:2.250=Hangover.avi=1.000=0=0=1,
400.000=Hangover-bg.png=1.000=0=0=1,
99999.000=-nosongbg-=1.000=0=0=0=StretchNoLoop====
;
#FGCHANGES:;

//--------------- dance-single - Highflyer ----------------
#NOTES:
     dance-single:
     Highflyer:
     Easy:
     5:
     0.281728,0.340014,0.038518,0.007704,0,256,251,5,1,0,0,0,0,0,0.281728,0.340014,0.038518,0.007704,0,256,251,5,1,0,0,0,0,0:
0000
0000
0000
0000
,
0000
0000
0000
0000
,
0000
0000
0000
0000
,
0000
0000
0000
0000
,
0000
0000
0000
0000
,
0000
0000
0000
0000
,
0000
0000
0000
0000
,
0000
0000
1000
0010
,
0010
0100
0000
0010
,
1000
0100
0010
0010
,
0001
1000
0010
0010
,
0010
0000
0100
0000
0010
0000
0000
1000
,
0000
0000
0100
0000
0000
0010
0000
0000
,
0001
0000
0001
0000
1000
0000
0000
0010
,
0000
0000
0100
0000
0000
0001
0000
0000
,
0010
0010
0100
1000
,
0010
0010
0000
0100
,
0010
0010
1000
0100
,
0010
0001
1000
0010
,
0100
0000
0010
1000
,
0010
0100
0001
0010
,
0100
0010
0000
0010
0100
0000
1000
0000
,
0001
0001
0100
0010
,
1000
0000
0001
0010
,
0100
1000
0010
0100
,
0001
1000
0000
1000
0001
0000
0010
0000
,
0100
0010
0001
0001
,
0001
0001
0001
1000
,
0010
0100
0010
1000
,
0001
0010
0000
0010
0001
0000
1000
0000
,
0010
0100
0001
0010
,
0100
0000
0010
0001
,
1000
0010
0100
0010
,
1000
0100
0000
0100
1000
0000
0000
0000
,
0010
0000
0100
0010
,
0100
0000
0001
0001
,
1000
1000
0100
0100
,
0010
0010
0001
1000
,
0010
0100
0010
1000
,
0100
0011
0100
1000
,
0010
0100
0001
0010
,
1000
0010
0001
0000
,
1000
0000
0010
0000
,
0100
0000
0010
0000
,
1000
0000
0001
0010
,
0100
0000
0010
0000
,
0010
0000
0100
1000
,
0001
0000
1000
0000
,
0010
0000
0100
0010
,
1000
0000
0001
0000
,
0010
0000
0100
0010
,
0001
0000
1000
0010
,
1000
1010
1000
0100
,
1000
0000
1100
0000
0001
0000
0000
0001
,
0000
0001
1000
1000
,
0010
1010
1000
0100
,
0010
0010
0100
1000
,
0001
0001
0100
0010
,
0100
0001
1000
0100
,
0010
0000
0100
1000
,
0001
0000
0100
0000
0010
0000
0000
0010
,
0000
0100
0010
1000
,
0100
0010
0001
1000
,
0010
0000
0100
0010
,
1000
0000
0100
0000
0010
0000
0000
0010
,
0000
0000
0100
1000
,
0001
0100
0020
0000
,
0000
0030
0000
0000
,
1000
0000
0000
0000
,
0001
0000
0000
0000
,
0010
0000
0000
0000
,
0100
0000
1000
0001
,
0100
0100
0000
0010
,
1000
1000
0001
0010
,
0100
0010
0001
1000
,
1000
0000
1000
0000
0010
0000
0000
0100
,
0000
0000
0001
0000
0000
0010
0000
0000
,
0100
0000
0100
0000
0010
0000
0000
0001
,
0000
0000
1000
0000
0000
0010
0000
0000
,
0100
0100
0010
1000
,
0100
0100
0000
0010
,
0100
0100
1000
0000
,
0010
0000
0100
0001
,
0010
1001
0000
0000
;

//--------------- dance-single - Highflyer ----------------
#NOTES:
     dance-single:
     Highflyer:
     Medium:
     7:
     0.364266,0.431396,0,0.015407,0,331,331,0,2,0,0,0,0,0,0.364266,0.431396,0,0.015407,0,331,331,0,2,0,0,0,0,0:
0000
0000
0000
0000
,
0000
0000
0000
0000
,
0000
0000
0000
0000
,
0000
0000
0000
0000
,
0000
0000
0000
0000
,
0000
0000
0000
0000
,
0000
0000
0000
0000
,
0000
0000
1000
0001
,
0100
0000
0010
1000
0010
0000
1000
0000
,
0001
0000
0010
0100
0010
0000
0001
0000
,
1000
0000
0010
0000
0100
0001
1000
0001
,
1000
0001
0100
0000
0010
1000
0000
0001
,
0010
0000
0100
1000
0000
0001
0100
0000
,
0010
0000
0010
0000
1000
0100
0000
0010
,
0001
0000
1000
0010
0000
0100
0001
0000
,
1000
1000
0100
0010
,
0100
0000
1000
0001
1000
0000
0010
0000
,
0100
0000
0010
1000
0010
0000
0100
0000
,
0001
0010
0100
0100
,
1000
0000
0001
0100
,
0010
0100
0010
0100
0001
0000
1000
0000
,
0100
0010
0000
0010
0100
0000
1000
0000
,
0001
1000
0001
1000
0010
0000
0100
0000
,
0002
0000
0013
0100
,
1000
0010
1000
0010
0100
0000
0010
0000
,
1000
0001
0000
0001
1000
0000
0100
0000
,
0010
0000
0001
0000
1000
0010
1000
0010
,
0100
0001
0100
0001
1000
0000
0100
0000
,
0010
0100
1000
0010
,
0100
0001
0000
0001
1000
0000
0100
0000
,
0010
0100
1000
0010
,
0100
0010
1000
0000
0001
0010
0000
0001
,
0010
0000
0100
1000
0000
0100
1000
0000
,
0010
0100
0010
0010
,
1000
1000
0100
0010
,
0001
0000
1000
0010
,
0100
0001
0100
0000
0010
0000
1000
0000
,
0100
0010
0100
0000
1000
0000
0001
0000
,
0100
0010
1000
1000
,
0001
0010
0001
0000
1000
0000
0010
0000
,
0100
0001
0010
0000
0100
1000
0010
0000
,
0100
0001
1000
0000
0100
0000
0100
0000
,
0010
0001
1000
0010
,
0100
0000
0010
0010
,
1000
1000
0001
0001
,
0010
0000
0100
0100
,
1000
1000
0001
0001
,
0100
0000
0010
0000
,
1000
0000
0100
0010
,
0001
0000
1000
0010
,
0000
0100
0010
1000
,
0100
0000
0010
0001
,
1000
0010
0100
0000
0001
0000
0010
0000
,
0001
0010
0100
0000
1000
0010
0000
0100
,
0000
0001
0010
0000
0100
0000
0010
0000
,
0001
1000
0010
0000
0100
0000
0001
0000
,
1000
0100
1000
0100
0010
0000
0001
0000
,
1000
0010
1000
0010
0100
0000
0010
0000
,
1000
0001
0010
0010
,
0100
0000
0010
0001
,
1000
0000
0010
0000
0100
0010
0000
0010
,
0000
0100
0001
1000
,
0100
0000
0010
0000
0100
0000
1000
0001
,
0100
0001
0010
0100
,
0010
0000
0001
0000
1000
0010
0000
0010
,
0000
0100
0001
1000
,
0100
0000
0010
0001
2000
0000
0000
0000
,
0000
3000
0000
0000
,
0001
0000
0000
0000
,
0100
0000
0000
0000
,
0010
0000
0000
0000
,
1000
0000
0001
0010
,
0100
0000
0010
0001
1000
0000
0010
0000
,
0100
0000
0010
1000
0001
0000
0010
0000
,
0100
0000
0010
0000
0001
1000
0100
1000
,
0100
1000
0001
0100
0010
0000
1000
0100
,
0000
1000
0001
0000
0100
0010
0000
0100
,
0001
0000
0001
0000
0010
0000
0100
1000
,
0000
0100
0010
0000
0001
1000
0000
0010
,
0100
0100
0010
1000
,
0001
0000
0010
0100
0010
0000
0001
0000
,
1000
0000
0010
0100
0010
0000
1000
0000
,
0001
0010
0100
0100
,
0010
0000
0000
0000
;

//--------------- dance-single - XO- ----------------
#NOTES:
     dance-single:
     XO-:
     Hard:
     12:
     0.52714,0.524657,0.061628,0.138663,0.026962,479,471,8,18,0,0,2,0,0,0.52714,0.524657,0.061628,0.138663,0.026962,479,471,8,18,0,0,2,0,0:
0000
0000
0000
0000
,
0000
0000
0000
0000
,
0000
0000
0000
0000
,
0000
0000
0000
0000
,
0000
0000
0000
0000
,
0000
0000
0000
0000
,
0000
0000
0000
0000
,
0000
0000
0000
0000
1000
0000
0010
1000
,
0100
0010
0001
0001
0000
1000
0010
0000
,
1000
0010
0100
0100
0001
1000
0001
0010
,
0001
1000
0010
0100
0001
0010
0010
0100
,
1000
1000
0001
0001
1000
0010
1000
0001
,
0010
0001
1000
0100
1000
0001
0100
0001
,
1000
0100
0001
0100
1000
0001
1000
0010
,
0100
0010
1000
0100
1000
0001
0100
0001
,
1000
0010
0001
0010
1000
0000
0001
0000
,
0010
0100
0010
0010
0000
0100
1000
0000
,
0001
0001
1000
1000
0010
0000
0100
0000
,
0001
0000
0010
0100
0010
0000
0001
0000
,
1000
0000
1001
0000
0001
0100
0001
0100
,
0010
1000
0100
0010
0001
1000
0001
1000
,
0010
0100
0000
0001
1000
0100
1000
0100
,
0010
0001
1000
0010
0100
0001
0100
0001
,
0020
0000
0000
0000
0130
1000
0100
1000
,
0001
0100
0010
1000
0001
0010
0001
0010
,
0100
1000
0000
1000
0001
0100
0001
0100
,
0010
1000
0100
0010
0001
0100
1000
0100
,
0010
0100
0002
0000
1003
0100
1000
0001
,
0100
0001
0010
0100
0010
0001
1000
0001
,
0100
0100
0010
0010
1000
0001
1000
0100
,
0010
0100
1000
0010
1000
0001
0100
0001
,
0010
0100
0020
0000
0031
0100
0001
1000
,
0010
1000
0001
0010
0001
1000
0100
1000
,
0010
0010
0100
0100
0001
0000
0010
0000
,
0400
0300
0400
0300
1000
0100
0001
0100
,
1000
0000
0000
0000
0001
0100
0010
1000
,
0001
0100
1000
0000
0100
0001
0010
0001
,
1000
0100
0001
0000
0100
1000
0001
1000
,
0010
0100
0001
0010
0100
0000
0100
0000
,
1000
0000
0001
0000
1000
0000
0000
0000
0001
0000
0000
0010
0001
0000
0000
0000
,
1000
0000
0000
0010
1000
0000
0000
0000
0001
0000
0100
0000
1000
0000
0100
0000
,
0001
0000
0010
0000
1000
0000
0000
0000
0010
0000
0000
0001
0000
0000
1000
0000
,
0000
0000
0010
0000
0100
0000
0001
0000
0000
0000
1000
0000
0000
0100
0000
0000
,
0010
0001
0100
0000
0010
1000
0001
0000
,
0010
0100
1000
0000
0010
0100
0001
0000
,
2000
0002
3003
0000
1000
1000
0001
0100
,
0010
1000
0001
0000
0010
0000
0100
0000
,
2000
0000
0002
0000
3003
0000
0000
0000
0001
0000
0000
1000
0000
0000
0001
0000
,
0000
0100
0000
0010
0000
0100
0001
0000
,
0010
0000
0100
1000
0000
0001
0100
0000
,
0010
0000
0000
0000
0100
0000
0001
0000
1000
0000
0000
0100
0000
0000
0010
0000
,
0000
0001
0000
0000
1000
0000
0000
0000
0010
0000
1000
0000
0001
0000
0010
0000
,
0100
1000
1001
0000
0001
1000
0001
0100
,
0010
1000
1001
0000
0001
0010
0100
0010
,
0001
0100
0010
0100
0001
0000
1000
0000
,
0100
0010
1001
0000
1000
0010
0100
0010
,
1000
1000
0001
0001
0010
0100
0010
0001
,
1000
1000
0001
0001
0100
0010
1000
0001
,
0010
0100
0010
0001
1000
0100
0001
0100
,
1000
1001
0002
0203
,
0320
0000
2030
0000
3001
0100
0000
0100
,
0000
0000
1001
0000
1000
0100
0010
0100
,
1000
1000
0001
0100
0010
0000
2000
0002
,
3003
1001
2000
3200
,
0320
0000
0032
0000
1003
0010
0000
0010
,
0000
0000
1001
0000
1000
0100
0001
0100
,
1000
0010
0001
0010
2000
0000
0000
0000
,
0000
3000
0000
0000
,
0001
0000
0000
0000
,
1000
0000
0000
0000
,
0010
0000
0000
0000
,
0100
0000
0000
0000
0001
0000
1000
0100
,
0010
0001
1000
0000
0010
0100
0010
0000
,
1000
0001
0010
0010
0100
0000
0010
0000
,
0001
1000
0001
0000
1000
0010
0100
0000
,
0001
0010
0100
0100
1000
0010
1000
0001
,
0010
0001
1000
0100
1000
0001
0100
0001
,
1000
0100
0001
0100
1000
0001
1000
0010
,
0100
0010
1000
0100
1000
0001
0100
0001
,
1000
0010
0001
0010
1000
0000
0001
0010
,
0100
0000
0010
0010
0001
1000
0010
0000
,
0100
0010
1000
1000
0001
0010
0001
1000
,
0010
0100
0001
0010
0001
0100
1000
0100
,
0001
1000
0000
0000
0000
0000
0000
0000
;

//--------------- dance-single - DS+ FS XO MS- ----------------
#NOTES:
     dance-single:
     DS+ FS XO MS-:
     Challenge:
     15:
     0.638291,0.76958,0.046221,0.377472,0.327399,580,574,6,49,31,0,13,0,0,0.638291,0.76958,0.046221,0.377472,0.327399,580,574,6,49,31,0,13,0,0:
0000
0000
0000
0000
,
0000
0000
0000
0000
,
0000
0000
0000
0000
,
0000
0000
0000
0000
,
0000
0000
0000
0000
,
0000
0000
0000
0000
,
0000
0000
0000
0000
,
0000
0000
0000
0000
0000
0000
0000
0000
0000
0000
0000
0000
0000
0000
0000
0000
0000
0000
0000
0000
0000
0000
0000
0000
4000
0000
0000
3000
0000
0000
0000
0000
0000
0000
0000
0000
0001
0000
0000
0000
0000
0000
0000
0000
0100
0000
0000
0000
,
0010
0000
1000
0000
0100
00M0
0100
0000
0004
0003
1000
0000
0100
0000
0000
0000
,
1000
0000
0001
0000
0010
0M00
0010
0000
1000
0000
0001
0000
0100
0000
0010
0000
,
1000
0001
0010
0100
0010
0001
1000
0001
,
1000
0000
0001
0000
0010
0M00
0010
0000
2000
0000
0100
0000
3001
0000
2000
0000
,
0010
3001
2000
0001
3100
2000
0001
3020
,
0100
0000
1030
0000
0010
0M00
0010
0000
0002
0000
0100
0000
1003
0000
0002
0000
,
0010
1003
0002
1000
0103
0002
1000
0023
,
0100
0000
0000
0000
0000
0000
0031
0000
0000
0000
0000
0000
0100
0000
0000
00M0
0000
0000
0100
0000
0000
0000
0000
0000
4000
0000
0000
3000
0000
0000
0000
0000
0000
0000
0000
0000
0010
0000
0000
0000
0000
0000
0000
0000
0100
0000
0000
0000
,
0001
0000
1000
0000
0010
0M00
0010
0000
0004
0003
0010
0000
0001
0000
0000
0000
,
0100
0000
0001
0000
0010
0M00
0010
0000
1000
0000
0001
0000
1000
0000
0100
0000
,
0040
0000
0000
0000
0034
0000
0000
0000
1003
0010
1000
0010
0100
0001
0100
0001
,
1000
0000
MMMM
0000
1000
0001
0100
0010
,
0001
0000
0010
1000
0100
0000
0010
0000
0001
0000
0010
0000
0100
0000
1000
0000
,
0200
0001
0000
1300
0001
1000
0010
0100
,
1000
0000
0100
0001
0010
0000
0100
0000
1000
0000
0001
0000
0010
0000
0100
0000
,
0001
0000
0100
0000
0010
0100
0010
0000
0001
0000
1000
0000
0100
0000
0010
0000
,
1000
0000
0010
0001
0100
0000
0010
0000
1000
0000
0010
0000
0100
0000
0001
0000
,
0200
1000
0000
0301
1000
0001
0010
0100
,
0001
0000
0100
1000
0010
0000
0100
0000
0001
0100
0001
0100
0010
1000
0010
1000
,
0100
0010
0100
0010
0001
0000
0100
0000
0001
0000
1000
0000
0100
0000
0010
0000
,
1000
0000
0010
0100
1000
0000
0010
0000
0100
0000
0001
0000
1000
0000
0001
0000
,
0100
1000
0100
0001
1000
0010
0100
0010
,
0001
0000
0010
0100
0001
0000
1000
0000
0100
0000
0010
0000
0100
0000
1000
0000
,
0001
0000
0100
0000
0010
0100
0010
0000
2000
0000
0100
0000
3001
0000
2000
0000
,
0010
0000
3001
0100
0002
0000
0100
0000
1003
0000
0002
0000
0010
0000
2003
0000
,
0100
3002
0100
1003
0010
0100
0010
1000
,
0004
0000
0000
0000
0043
0000
0000
0000
0130
1000
0100
1000
0001
0100
0001
0100
,
0010
0000
0000
0000
MMMM
0000
0000
0000
0010
0000
1000
0200
0010
0000
1300
0000
,
0001
0000
1000
0010
0200
0000
0000
0000
0301
0000
1000
0020
0100
0000
1030
0000
,
0001
0000
0010
0100
2000
0000
0000
0000
3001
0000
0001
0000
0010
0000
0100
0000
,
1000
1000
0010
0100
0002
0000
0203
0000
,
0310
0000
1000
0000
0020
0000
0000
0000
1030
0000
0001
0020
0100
0000
0031
0000
,
0010
0000
0100
1000
0002
0000
0000
0000
0103
0000
0010
1000
0100
0000
1000
0010
,
0100
0000
0010
1000
0100
0000
0000
0000
1000
0000
0000
0001
0000
0000
0010
0100
,
0000
0010
0100
0000
1000
0000
0001
0000
0100
0010
0000
1000
0002
0000
0000
0000
,
0013
0000
0100
1000
0000
0000
0000
0000
0001
0000
1000
0000
0100
00M0
0100
0000
,
0001
0000
1000
0000
0010
0M00
0010
0000
0001
0000
1000
0000
0002
0000
0000
0000
,
0103
0010
0000
0000
1000
1000
0001
0010
,
0001
0001
1000
0010
1000
1000
0100
0000
,
0010
0000
0002
0000
0000
0000
0003
0000
1000
0000
0000
0001
0000
0000
0100
0000
,
0000
0010
0000
1000
0000
0001
0010
0000
,
0200
0300
0010
0001
0000
1000
0010
0000
,
1000
0000
0001
0000
0010
0000
0100
0000
1000
0000
0000
0001
0000
0000
0100
0000
,
0000
0010
0000
0000
2000
0000
3000
0000
0001
0000
0010
0000
0100
0000
1000
0000
,
0010
0100
0101
0000
0001
1000
0001
0010
,
0100
0000
1000
0000
1100
0000
0000
0000
1000
0000
0001
0100
0001
0000
0010
0000
,
0001
0100
0001
1000
0100
0000
0010
0001
1000
0010
0000
0000
0200
0000
0300
0010
,
1000
0000
0100
1000
0010
0000
0000
0000
0100
0000
0001
1000
0100
0000
0010
0000
,
0001
0000
0001
0000
0010
0M00
0010
0000
1000
0001
1000
0001
1000
0000
0010
0000
,
1000
0000
1000
0000
0100
00M0
0100
0000
0001
0000
0010
0200
1000
0000
0310
0000
,
0001
0000
1000
0020
0100
0000
1030
0000
0001
0010
0100
1000
0001
0100
0001
1000
,
0100
0000
0100
0000
1001
0000
0000
0000
1000
0000
0001
0100
0001
0000
1000
0000
,
0200
0000
0000
0000
0320
0000
0031
1000
0001
0000
0100
0000
0010
0000
1000
0000
,
0100
0000
0011
0001
0001
1000
0010
0100
,
0001
0000
0010
0000
0100
0000
0010
0000
0001
1000
0001
0000
0100
0000
0010
0000
,
1000
0000
0000
0000
1001
0000
0001
0000
0001
0000
1000
0010
1000
0000
0001
0000
,
0020
0000
0130
1000
0001
0100
0010
1000
,
0001
0000
0011
0010
0100
0100
1000
1000
,
0001
0001
0100
0100
0020
0000
0000
0000
,
0000
0030
MMMM
0000
0000
0000
0000
0000
,
1000
0000
0000
0000
,
0001
1000
0100
0001
0000
0000
0000
0000
,
0100
0000
0000
0000
,
1000
0000
0000
0001
0000
0000
0100
0000
0000
1000
0000
0000
0100
0000
0000
0000
0000
0000
0001
0000
0000
0000
1000
0000
,
0100
00M0
0100
0000
0001
0000
0001
0000
0400
0300
0001
0000
1000
0000
0000
0000
,
0010
0M00
0010
0000
0001
0000
0001
0000
0100
0000
0010
0000
1000
0000
0100
0000
,
0010
0001
1000
0010
0100
0001
0010
0001
,
0010
0001
1000
1000
0020
0100
1030
0200
,
0010
1300
0020
0100
1030
0200
0010
2300
,
0001
3010
0100
0001
0020
0100
0031
0200
,
0010
0301
0020
0100
0031
0200
0010
0302
,
0010
0000
0000
0000
0000
0000
1003
0000
0000
0000
0000
0000
0010
0000
0000
0000
0000
0000
0100
0000
0000
0000
0000
0000
0004
0000
0000
0003
0000
0000
0000
0000
0000
0000
0000
0000
1000
0000
0000
0000
0000
0000
0000
0000
0001
0000
0000
0000
,
0010
0M00
0010
0000
1000
0000
1000
0000
0400
0300
0010
0000
0001
0000
0000
0000
,
0100
00M0
0100
0000
1000
0000
1000
0000
0001
0000
1000
0000
0001
0000
0100
0000
,
0040
0000
0000
0000
4030
0000
0000
0000
3001
0010
0001
0010
0100
1000
0100
1000
,
0001
MMMM
0000
0000
;
