#TITLE:華陽炎-Hana Kagerou-;
#SUBTITLE:;
#ARTIST:源屋 feat.Kuroa*;
#TITLETRANSLIT:Hana Kagerou;
#SUBTITLETRANSLIT:;
#ARTISTTRANSLIT:Minamotoya feat.Kuroa*;
#GENRE:;
#CREDIT:;
#MUSIC:Hana Kagerou.ogg;
#BANNER:Hana Kagerou.png;
#BACKGROUND:Hana Kagerou-bg.png;
#CDTITLE:;
#SAMPLESTART:48.215;
#SAMPLELENGTH:15.000;
#SELECTABLE:YES;
#OFFSET:-0.009;
#BPMS:0.000=170.000
,20.000=145.000
,24.000=125.000
,28.000=110.000
,30.000=85.000
,32.000=90.000
,34.000=176.000
,230.000=88.000
,244.000=176.000
,312.000=155.000
,316.000=145.000
,320.000=140.000
,324.000=110.000
;
#STOPS:;
#BGCHANGES:;
#FGCHANGES:;

//--------------- dance-single - パメラ姫 -Princess Pamela- ----------------
#NOTES:
     dance-single:
     パメラ姫 -Princess Pamela-:
     Beginner:
     3:
     0,0,0,0,0:
0000
0000
0000
0000
,
0000
0000
0000
0000
,
0000
0000
0000
0000
,
0000
0000
0000
0000
,
0000
0000
0000
0000
,
1000
0000
0000
0000
,
0001
0000
0000
0000
,
0100
0000
0000
0000
,
0010
0000
2002
0000
,
3003
0000
1000
0000
,
0000
0000
1000
0000
,
0000
0000
0010
0000
,
0000
0000
0100
0000
,
0000
0000
0001
0000
,
0000
0000
0001
0000
,
0000
0000
0010
0000
,
0000
0000
0001
0000
,
0000
0000
0100
0000
,
0000
0000
0000
0000
,
0000
0000
0100
0000
,
0000
0000
0010
0000
,
0000
0000
1000
0000
,
0000
0000
0001
0000
,
0000
0000
0001
0000
,
0000
0000
1000
0000
,
0000
0000
0100
0000
,
0000
0000
0000
0000
,
0000
0000
0010
0000
,
0000
0000
0001
0000
,
0000
0000
0100
0000
,
0000
0000
0010
0000
,
0000
0000
1000
0000
,
1000
0000
0001
0000
,
0000
0000
1001
0000
,
0000
0000
0110
0000
,
0000
0000
0001
0000
,
0000
0000
1000
0000
,
0000
0000
0010
0000
,
0010
0000
0100
0000
,
0000
0000
0001
0000
,
0000
0000
1000
0000
,
0000
0000
1001
0000
,
0000
0000
0110
0000
,
0000
0000
0001
0000
,
0000
0000
1000
0000
,
1000
0000
0100
0000
,
0000
0000
1000
0000
,
0000
0000
0010
0000
,
0010
0000
0200
0000
,
0300
0000
1001
0000
,
0000
0000
0001
0000
,
0000
0000
0010
0000
,
0010
0000
0001
0000
,
0000
0000
0100
0000
,
0000
0000
0010
0000
,
0000
0000
1000
0000
,
0000
0000
0002
0000
,
0003
0000
1000
0000
,
0000
0000
0100
0000
,
0000
0000
1000
0000
,
1000
0000
0001
0000
,
0100
0000
0000
0000
,
1001
0000
0000
0000
,
0110
0000
0000
0000
,
0001
0000
0000
0000
,
1000
0000
1000
0000
,
0010
0000
0000
0000
,
0100
0000
0000
0000
,
0001
0000
0001
0000
,
1000
0000
0000
0000
,
1001
0000
0000
0000
,
0001
0000
0000
0000
,
0010
0000
0001
0000
,
0010
0000
0000
0000
,
0100
0000
0000
0000
,
1000
0000
0000
0000
,
0010
0000
1000
0000
,
0010
0000
0000
0000
,
1001
0000
0000
0000
,
1000
0000
0000
0000
,
0001
0000
0000
0000
,
0100
0000
0010
0000
;

//--------------- dance-single - パメラ姫 -Princess Pamela- ----------------
#NOTES:
     dance-single:
     パメラ姫 -Princess Pamela-:
     Easy:
     7:
     0,0,0,0,0:
0000
0000
0000
0000
,
0000
0000
0000
0000
,
0000
0000
0000
0000
,
0000
0000
0000
0000
,
0000
0000
0000
0000
,
1000
1000
0001
0000
,
0001
0001
1000
0000
,
0010
0100
0001
0100
,
0010
1000
2002
0000
,
0000
3003
0001
0010
,
0100
0010
0001
1000
,
0001
0000
0100
0010
,
1000
0100
0010
0100
,
0010
0000
0001
1000
,
0010
1000
0001
0010
,
0001
0000
0000
0000
0100
0000
0000
0100
,
0000
0010
0000
2000
,
3002
0000
0003
0010
,
0100
0000
0100
0010
,
0001
0000
1000
0010
,
1000
0000
0001
0001
,
0000
1000
1001
0000
,
0001
0010
0100
0010
,
0001
0000
1000
0100
,
1000
0001
0100
0100
,
0100
0000
1001
0000
,
1000
0000
0010
0100
,
0010
0000
1000
0100
,
1000
0000
0001
0010
,
0100
0000
0110
0000
,
0010
0001
0010
0000
,
0001
0000
0100
0000
0001
0000
0000
0001
,
0000
1000
0000
0020
,
0230
0300
1001
1000
,
0100
0000
1001
0001
,
0100
0000
0010
1000
,
0001
0010
0001
1000
,
0100
0000
1001
0001
,
0100
0000
1001
1000
,
0100
0000
1000
0001
,
0010
0001
1000
0010
,
1000
0000
1100
0001
,
0100
0000
0101
1000
,
0100
0000
0010
0001
,
1000
0010
0100
0100
,
0010
0000
0110
1000
,
0100
0000
0110
0001
,
0100
0000
0010
1000
,
0001
0010
0001
0001
,
2000
0000
3010
0000
,
0010
1000
0001
0000
,
0001
1000
0100
0010
,
0000
0010
0000
0001
,
1000
0001
1001
0000
,
1000
0010
0100
0000
,
0001
0010
0100
0000
,
0100
0100
0000
2000
,
3002
0003
2002
3003
,
2000
3000
0020
0030
,
0200
0300
0001
0001
,
0100
0000
0001
0000
0010
0000
0100
0010
,
0200
0000
0000
0300
,
1100
0001
1001
0000
,
0101
1000
1001
0000
,
0001
0010
0100
0010
,
0100
1000
0001
0000
,
0011
1000
1010
0000
,
1010
0001
0011
0000
,
1000
0100
1000
0001
,
0200
0000
0020
0330
,
0010
1000
0001
1000
,
0010
0100
0001
1000
,
0100
0010
0100
1000
,
0001
0010
0100
0000
,
1001
1000
0001
0010
,
0100
1000
0001
0100
,
0010
0000
0000
0010
0000
0000
0010
0000
,
0000
2000
3002
0003
,
2002
0000
3003
0000
,
2000
0000
3000
0000
,
0010
0000
0100
0000
,
0001
1000
0020
0000
,
0030
0000
0000
0000
;

//--------------- dance-single - パメラ姫 -Princess Pamela- ----------------
#NOTES:
     dance-single:
     パメラ姫 -Princess Pamela-:
     Medium:
     11:
     0,0,0,0,0:
0000
0000
0000
0000
,
0000
0000
0000
0000
,
0000
0000
0000
0000
,
0000
0000
0000
0000
,
0000
0000
0000
0000
,
1000
0000
0001
1000
0001
0000
0000
0000
,
0100
0000
0001
0100
0001
0000
0000
0000
,
0010
0001
0010
0100
,
1000
0001
1000
0000
2002
0000
0000
0000
,
0000
0000
3003
0000
1000
0100
0010
0000
,
0001
0000
0100
0000
0001
0010
0100
0000
,
1000
0001
0100
0000
0010
1000
0001
0000
,
0010
0000
0100
0000
0010
0001
0100
0000
,
0010
1000
0001
0000
0010
0100
1000
0000
,
0001
0000
0100
0000
0010
1000
0001
0000
,
0010
0000
0100
0000
1000
1000
0000
0001
,
0001
0000
0100
0010
0000
1000
0001
1000
,
0002
0000
0000
0000
0013
0000
0100
0010
,
0001
0000
0010
0000
0100
0000
1000
0001
,
0100
0000
0000
0000
0010
0000
1000
0010
,
0100
0000
0000
0000
0001
0000
1000
0000
1000
0000
0000
1000
0000
0000
0001
0000
,
0000
0010
0200
0000
1300
0000
1100
0000
,
0001
0010
0100
0000
0010
0000
0011
0000
,
1000
0100
0010
0000
0001
0000
0101
0000
,
1000
0010
0000
0100
0000
0110
0000
0101
,
0000
0001
2000
0000
3100
0000
0100
1000
,
0200
0000
0300
0000
0010
0000
0010
0001
,
0020
0000
0030
0000
0001
0000
1000
0001
,
1000
0000
0010
0100
0000
0110
0000
1010
,
0000
1000
0001
0000
1001
0000
1000
0100
,
1000
0000
0010
0000
1001
0000
0001
0100
,
0001
0000
0010
0000
0100
1000
0000
0010
,
0100
0000
0001
0010
0000
0001
2000
0000
,
3002
0000
0003
0000
1001
0000
1000
0100
,
0001
0100
1000
0000
0001
0000
1000
0010
,
0001
0010
1000
0000
0001
0000
0100
0001
,
0100
0000
0010
0000
1000
0001
1000
0000
,
0100
0000
0110
0000
1001
0000
0001
0100
,
1000
0100
0001
0000
1000
0000
0001
0010
,
1000
0010
0001
0000
1000
0000
0010
0000
,
0100
0010
0100
0001
0000
0011
0000
1001
,
0000
1000
0200
0000
0310
0000
0001
0100
,
1000
0100
0001
0000
1000
0000
0001
0010
,
1000
0010
0001
0000
1000
0000
0010
0000
,
0100
0010
0100
0001
0000
0101
0000
1001
,
0000
1000
0100
0000
1001
0000
1000
0010
,
0001
0010
1000
0000
1001
0000
0001
0010
,
1000
0010
0001
0000
1001
0000
1000
0100
,
0000
1000
1000
0001
0020
0000
0000
0000
,
0000
0030
1001
0000
,
0002
0023
0230
2300
,
3020
0000
0230
0000
0301
0100
0001
0000
,
1000
0000
1000
0001
0000
0101
0000
0110
,
0000
1000
0001
0000
0010
0001
0010
0000
,
0200
0000
1300
0000
0010
1000
0010
0000
,
0200
0301
1001
0000
,
1000
0001
1000
0001
0000
0100
0020
0000
,
0230
0000
0300
0000
1001
0000
0001
0001
,
0010
0000
0001
0001
0100
0000
0010
1000
,
0001
0000
1000
0001
1000
0000
0000
0000
1001
0000
0000
0000
1000
0100
1000
0000
,
0010
0000
0000
0000
1000
0001
1000
0000
0001
0000
0010
0000
0100
0000
1000
0000
,
0020
0000
0000
0030
,
1001
0000
1000
0100
0001
0100
1000
0000
,
0001
0000
1000
0010
0001
0010
1000
0000
,
1001
0000
0001
0010
0000
0100
0010
0100
,
0000
1000
0010
0100
0002
0000
0003
0000
,
1001
0000
1000
0010
0001
0010
1000
0000
,
0001
0000
1000
0100
0001
0100
1000
0000
,
0001
0100
0000
0010
1000
0000
0100
0010
,
0000
0001
2000
0000
3002
0000
0003
0000
,
1000
0010
0100
0000
0001
0000
0010
0000
,
0100
0010
0001
0000
0100
0010
1000
0000
,
0001
0010
0100
0000
1000
0000
0001
0100
,
0000
0110
0000
1010
0000
0001
1000
0000
,
0100
1000
0001
0000
0010
0000
0100
0000
,
0010
0001
1000
0000
0010
0000
0100
0000
,
0001
0010
0000
0100
1000
0000
0010
0100
,
0000
0001
2000
0000
3002
0000
0003
0000
,
1001
0000
1000
0100
,
0020
0030
0001
0100
,
0010
1000
0001
0010
,
0100
1000
0020
0000
,
0030
0000
0000
0000
;

//--------------- dance-single - パメラ姫 -Princess Pamela- ----------------
#NOTES:
     dance-single:
     パメラ姫 -Princess Pamela-:
     Hard:
     15:
     0,0,0,0,0:
0000
0000
0000
0000
,
0000
0000
0000
0000
,
0000
0000
0000
0000
,
0000
0000
0000
0000
,
0000
0000
0000
0000
,
1000
0001
1000
0001
2000
0000
0010
0000
,
3001
1000
0001
1000
0002
0000
0010
0000
,
2003
0100
3002
0100
,
0013
0100
0010
0000
2002
0000
0000
0000
,
0000
0000
0000
0000
3003
0000
0000
0000
1000
0000
0001
1000
0001
0000
0010
0000
,
0100
0000
1000
0000
0010
0000
0100
0000
0001
0000
1000
0001
1000
0000
0010
0000
,
0100
0000
0001
0100
0001
0000
0010
0000
0100
0000
1000
0100
1000
0000
0001
0000
,
1000
0000
0010
0000
0100
0010
0100
0000
0001
0000
0010
0001
0010
0000
0001
0000
,
1000
0000
0000
1000
0001
0000
1000
0000
0001
0000
0010
0001
0010
0000
0100
0000
,
1000
0000
0001
0000
0100
0000
0001
0000
1000
0000
0100
1000
0100
0000
0010
0000
,
0001
0100
0001
1000
0100
0110
0000
1000
,
1001
0000
0010
0110
0000
1000
0100
0010
,
0002
0000
0103
0000
1001
0000
1000
0100
,
1000
0010
0000
0100
0010
0100
0000
0001
,
0100
0001
0000
0010
0001
0000
1000
0010
,
0000
0000
0100
0000
0000
0000
0001
0000
0100
0000
0000
0101
0000
0000
1001
0000
,
0000
0000
1000
0000
0001
1000
0001
1000
0001
0000
0100
0000
0010
0000
1000
0000
,
0001
0010
0100
1000
0001
0010
1000
0010
,
0001
1000
0100
1000
0020
0000
0130
0001
,
0000
0010
0000
0011
0000
1010
0000
1001
,
0000
0000
0001
0000
1000
0001
1000
0001
0010
0000
0000
0000
0100
0000
0010
0000
,
0110
0000
0000
0000
0000
0000
1000
0000
0001
0000
1000
0001
1000
0000
0010
0000
,
0100
0000
1000
0100
0002
0000
0103
0010
,
1000
0001
1000
0100
0000
1100
0000
0101
,
0000
0001
1001
0000
0001
0100
0001
0100
,
1000
0100
0001
1000
0001
0010
0001
0010
,
1000
0010
0001
1000
0001
0101
0000
1000
,
1100
0000
0010
1001
0000
0002
0023
0230
,
2300
0000
0000
0000
3001
0000
1000
0000
0010
0000
0100
0001
0100
0000
0001
0000
,
0011
0000
0000
0000
1000
0000
0001
0000
0010
0000
0100
1000
0100
0000
1000
0000
,
1010
0000
0001
0100
2000
0000
3100
0010
,
0100
0000
0001
0100
0001
0000
1000
0000
0100
0000
0010
0000
0001
0000
0100
0000
,
0010
0000
0000
0000
1000
0000
0001
0000
0100
0000
0001
0010
0100
0000
1000
0000
,
1100
0000
0000
0000
0001
0000
1000
0000
0100
0000
1000
0010
0100
0000
0001
0000
,
0101
0000
1000
0010
0001
0000
0010
1000
,
0010
0000
0100
0010
0100
0000
0001
0000
0000
0000
0011
0000
0000
0000
1010
0000
,
0000
0000
1000
0000
0001
1000
0001
1000
0001
0000
0010
0001
1000
0000
0010
0000
,
1010
0000
0000
0000
1000
0000
0001
0000
1000
0000
0010
1000
0001
0000
0010
0000
,
0002
0203
0320
2030
3200
0000
0301
0100
,
1000
0000
0100
0010
0001
0000
0010
0000
0000
0000
0011
0000
0000
0000
1010
0000
,
0000
0000
1000
0000
0001
1000
0001
1000
0001
0000
0100
0000
1000
0000
0100
0000
,
0001
0000
0012
0000
1003
0100
0001
0100
,
1000
0000
2010
0000
3100
0000
0100
0010
,
0000
0000
0001
1000
0001
0000
1000
0000
0002
0000
0023
0000
0230
0000
2300
0000
,
3020
0000
0030
0000
1002
0000
1003
1000
,
0001
1000
0200
0000
0302
0000
0103
1000
,
0001
0000
0010
0001
0010
0000
0100
0000
1000
0000
0010
1000
0001
0000
0100
0000
,
0001
0000
0010
0000
0100
1000
0010
0000
0000
0000
0110
0000
0000
0000
0101
0000
,
0000
0000
0001
0000
1000
0001
1000
0001
1000
0000
0001
1000
0001
0000
0100
0000
,
2000
0000
0000
0000
3100
0000
0010
0000
0100
0000
0001
1000
0001
0000
0010
0000
,
2000
0000
0000
0000
3010
0000
0001
0010
0001
0000
0000
0000
0100
0000
0001
0100
,
0001
0000
1000
0001
1000
0001
1000
0000
0000
0000
0002
0000
0023
0000
0230
0000
,
2300
0000
0000
0000
3010
0000
0000
0000
1000
1000
1000
0000
0001
0000
0000
0000
,
0001
0001
0001
0000
1000
0010
1000
0000
0010
0000
0000
0000
0100
0100
0100
0000
,
0001
1000
0010
0100
0001
0000
0100
0000
0110
0000
0001
1000
0001
0000
0100
0000
,
0010
0000
0000
0000
1000
0000
0001
0000
1000
0000
0000
0000
0100
0000
0000
0000
0110
0000
0000
0000
1000
0000
0001
0000
0100
0000
0010
0000
1000
0000
0001
1000
,
0002
0000
0000
0000
0000
0000
0000
0000
0003
0000
0000
0000
1000
0001
1000
0001
,
1000
0000
0010
0100
0001
0000
0010
0000
0011
0000
0000
0000
0100
0000
1000
0000
,
0001
0000
0100
0010
1000
0000
0100
0000
2000
0000
3020
0000
0230
0000
0302
0000
,
0013
0000
0000
0000
0001
0000
1001
0000
0000
0000
0001
0010
0100
0000
0110
0000
,
0000
0000
1001
0000
0000
0000
0001
0000
1000
0001
1000
0001
1000
0000
0010
0000
,
1000
0000
0100
0010
0001
0000
0100
0000
0110
0000
0000
0000
0001
0000
0100
0000
,
0001
0000
0010
0100
1000
0000
0010
0000
0110
0000
0000
0000
1000
0000
0001
0000
,
0100
0101
0000
0010
1010
0000
0001
1000
,
0002
0023
0230
2300
3020
0000
0030
0000
,
1000
0000
0001
0100
0001
0000
1000
0000
0200
0000
0302
0000
0203
0000
2300
0000
,
3001
0000
1000
0100
1000
0000
0001
0000
0200
0000
2300
0000
3200
0000
0302
0000
,
1003
0000
0100
0010
0001
0000
1000
0000
0010
0000
0100
0001
0010
0000
0100
0000
,
0000
1100
0000
0011
0000
1001
1001
0000
,
0001
0000
0010
0100
1000
0000
0001
0000
0200
0000
2300
0000
3200
0000
0302
0000
,
1003
0000
0010
0100
0001
0000
1000
0000
0200
0000
0302
0000
0203
0000
2300
0000
,
3001
0011
0000
1000
1010
0000
0100
1001
,
0000
0002
0023
0230
2300
0000
3010
0000
,
1001
0000
0000
0000
0001
0100
0010
1000
,
0002
0000
0003
0000
0001
0100
0010
1000
,
0200
0000
0000
0000
0320
0000
0000
0000
0130
0000
1000
0100
0010
0000
0001
0000
,
0100
0010
1000
0001
0020
0000
0000
0000
,
0030
0000
0000
0000
;

//--------------- dance-double - パメラ姫 -Princess Pamela- ----------------
#NOTES:
     dance-double:
     パメラ姫 -Princess Pamela-:
     Easy:
     7:
     0,0,0,0,0:
00000000
00000000
00000000
00000000
,
00000000
00000000
00000000
00000000
,
00000000
00000000
00000000
00000000
,
00000000
00000000
00000000
00000000
,
00000000
00000000
00000000
00000000
,
00001000
00001000
00010000
00000000
,
00000100
00000100
00010000
00000000
,
00001000
00000000
00100000
00010000
,
01000000
00100000
20020000
00000000
,
00000000
30030000
00010000
00100000
,
01000000
00000000
00100000
00001000
,
00010000
00000000
00000100
00001000
,
00000001
00000100
00000010
00000100
,
00000010
00000000
00001000
00000100
,
00010000
00000000
00001000
00100000
,
00010000
00000000
00000000
00000000
01000000
00000000
00000000
01000000
,
00000000
00100000
00000000
20000000
,
30020000
00000000
00030000
00100000
,
01000000
00000000
01000000
00100000
,
00010000
00000000
00100000
00001000
,
00010000
00000000
00000100
00000100
,
00000000
00000100
00001000
00000000
,
00001000
00000010
00001000
00000001
,
00000100
00000000
00000010
00001000
,
00000010
00000000
00010000
00010000
,
00001000
00000000
00011000
00000000
,
00100000
00000000
00010000
01000000
,
00010000
00000000
10000000
01000000
,
00100000
00000000
00010000
01000000
,
00001000
00000000
00011000
00000000
,
00010000
00000100
00001000
00000000
,
00000010
00000000
00001000
00000000
00000001
00000000
00000000
00000001
,
00000000
00000001
00000000
00000020
,
00000230
00000300
00001001
00001000
,
00000100
00000000
00001001
00000001
,
00000100
00000000
00001000
00010000
,
00001000
00100000
00010000
00100000
,
01000000
00000000
10010000
00010000
,
01000000
00000000
10010000
10000000
,
01000000
00000000
00100000
01000000
,
00100000
00001000
00010000
00000100
,
00010000
00000000
00011000
00001000
,
01000000
00000000
00011000
00010000
,
00000100
00000000
00001000
00000001
,
00000100
00000001
00000010
00000010
,
00000001
00000000
00001001
00000000
,
00001000
00000100
00001100
00000000
,
00010000
00001000
00011000
00000000
,
00100000
00010000
01000000
01000000
,
00200000
00000000
10300000
00000000
,
00100000
01000000
00010000
00000000
,
00010000
00100000
00001000
00010000
,
00000000
00010000
00000000
00001000
,
00001000
00010000
00011000
00000000
,
00001000
00000010
00000001
00000000
,
00000001
00000010
00000100
00000000
,
00000100
00000010
00000000
00000002
,
00002003
00003000
00002002
00003003
,
00002000
00003000
00000200
00000300
,
00020000
00030000
00001000
00001000
,
01000000
00000000
00010000
00000000
00100000
00000000
01000000
00100000
,
02000000
00000000
00000000
03000000
,
10000000
01000000
01100000
00000000
,
00100000
00001000
00011000
00000000
,
00010000
00000010
00001000
00000010
,
00000100
00000001
00001000
00000000
,
00000100
00010000
00011000
00000000
,
01000000
00001000
00011000
00000000
,
00010000
00001000
00100000
00010000
,
00200000
00000000
02000000
03300000
,
00100000
01000000
00100000
00001000
,
00010000
00000100
00000010
00000100
,
00001000
00000001
00000100
00000001
,
00000010
00000100
00001000
00000000
,
00001001
00000001
00000100
00000001
,
00001000
00000100
00010000
00001000
,
00100000
00000000
00000000
00100000
00000000
00000000
00100000
00000000
,
00000000
00020000
20030000
30000000
,
20020000
00000000
30030000
00000000
,
00020000
00000000
00030000
00000000
,
00100000
00000000
00001000
00010000
,
00000100
00001000
00000020
00000000
,
00000030
00000000
00000000
00000000
;

//--------------- dance-double - パメラ姫 -Princess Pamela- ----------------
#NOTES:
     dance-double:
     パメラ姫 -Princess Pamela-:
     Medium:
     11:
     0,0,0,0,0:
00000000
00000000
00000000
00000000
,
00000000
00000000
00000000
00000000
,
00000000
00000000
00000000
00000000
,
00000000
00000000
00000000
00000000
,
00000000
00000000
00000000
00000000
,
00001000
00000000
00010000
00001000
00010000
00000000
00000000
00000000
,
00000100
00000000
00001000
00000100
00001000
00000000
00000000
00000000
,
00000001
00000010
00001000
00010000
,
01000000
00100000
20020000
00000000
,
00000000
00000000
30030000
00000000
00010000
00100000
01000000
00000000
,
10000000
00000000
01000000
00000000
10000000
00010000
01000000
00000000
,
00001000
00010000
00001000
00000000
00010000
00000100
00001000
00000000
,
00000001
00000000
00000010
00000000
00000100
00000010
00001000
00000000
,
00010000
00000000
00011000
00000000
00001000
00100000
00010000
00000000
,
01000000
00000000
00010000
00000000
10000000
00100000
01000000
00000000
,
00010000
00000000
00100000
00000000
00001000
00001000
00000000
00010000
,
00010000
00000000
00000100
00001000
00000000
00000001
00001000
00000001
,
00002000
00000000
00000000
00000000
00003010
00000000
00001000
00000001
,
00001000
00000000
00000100
00000000
00010000
00000000
00001000
00010000
,
00001000
00000000
00000000
00000000
00100000
00000000
00010000
00100000
,
00010000
00000000
00000000
00000000
01000000
00000000
00010000
00000000
00010000
00000000
00000000
00010000
00000000
00000000
10000000
00000000
,
00000000
00100000
02000000
00000000
03010000
00000000
01010000
00000000
,
01000000
00100000
00010000
00011000
,
00001000
00000100
00000001
00000101
,
00000100
00000010
00000000
00001000
00000000
00001100
00000000
00010100
,
00000000
00010000
00002000
00000000
01003000
00000000
01000000
00010000
,
02000000
00000000
03000000
00000000
00100000
00000000
00100000
10000000
,
00200000
00000000
00300000
00000000
00010000
00000000
00001000
00010000
,
00001000
00000000
00001000
00000100
00000000
00000110
00000000
00001010
,
00000000
00001000
00000001
00000000
00001001
00000000
00001000
00000100
,
00001000
00000000
00000010
00000000
00011000
00000000
00001000
00010000
,
00001000
00000000
00100000
00000000
00010000
01000000
00000000
01000000
,
00100000
00000000
00100000
10000000
00000000
01000000
00200000
00000000
,
02300000
00000000
03000000
00000000
10010000
00000000
10000000
01000000
,
00010000
00000000
00001000
00000000
00010000
00000000
00001000
00000010
,
00000001
00000000
00000100
00000000
00001000
00000000
00000100
00000001
,
00000100
00000000
00000010
00000000
00001000
00000100
00010000
00000000
,
00001000
00000000
00000010
00000000
00001001
00000000
00000001
00000100
,
00001000
00000000
00010000
00000000
00001000
00000000
00010000
00100000
,
10000000
00010000
01000000
00100000
,
10000000
01000000
10000000
00010000
00000000
00110000
00000000
00101000
,
00000000
00001000
00020000
00000000
01030000
00000000
10000000
01000000
,
00010000
00000000
00001000
00000000
00010000
00000000
00001000
00000100
,
00000001
00000100
00000010
00001000
,
00000100
00010000
00001000
00010000
00000000
00011000
00000000
00101000
,
00000000
00100000
00010000
00000000
10010000
00000000
10000000
00100000
,
00020000
00000000
00030000
00000000
00011000
00000000
00001000
00000010
,
00000002
00000000
00000003
00000000
00001001
00000000
00001000
00000100
,
00000000
00010000
00010000
00001000
00200000
00000000
00000000
00000000
,
00000000
00300000
00011000
00000000
,
00020000
00230000
02300000
03200000
,
20300000
00000000
30020000
00000000
01030000
00010000
01000000
00000000
,
00001000
00000000
00001000
00010000
00000000
00011000
00000000
00010100
,
00000000
00000100
00001000
00000000
00000010
00001000
00000010
00000000
,
00000200
00000000
00000301
00000000
00000100
00000010
00001000
00000000
,
00000200
00010300
00011000
00000000
,
00001000
00010000
00001000
00010000
00000000
00001000
00200000
00000000
,
00302000
00000000
00003000
00000000
00011000
00000000
00010000
00010000
,
01000000
00000000
10000000
10000000
01000000
00000000
00100000
01000000
,
00010000
00000000
00001000
00010000
00001000
00000000
00000000
00000000
00011000
00000000
00000000
00000000
00001000
00000100
00000010
00000000
,
00000100
00000000
00000000
00000000
00001000
00000100
00000001
00000000
00000100
00000000
00001000
00000000
00010000
00000000
00100000
00000000
,
02200000
00000000
00000000
03300000
,
10010000
00000000
10000000
00100000
00010000
00000000
00001000
00000000
,
00011000
00000000
00001000
00000010
00000001
00000000
00001000
00000000
,
00001001
00000000
00000001
00000100
00000000
00000010
00000100
00000010
,
00000000
00001000
00000010
00001000
00000200
00000000
00000300
00000000
,
00001001
00000000
00000001
00000010
00001000
00000000
00010000
00000000
,
00011000
00000000
00010000
00100000
10000000
00000000
10010000
00000000
,
00010000
01000000
00000000
01000000
00100000
00000000
00100000
10000000
,
00020000
20030000
30020000
00030000
,
00100000
01000000
10000000
00000000
01000000
00000000
00010000
00000000
,
00001000
00010000
00001000
00000000
00100000
00010000
00100000
00000000
,
00001000
00010000
00000100
00000000
00001000
00000000
00000010
00000100
,
00000000
00000110
00000000
00000101
00000000
00000001
00000010
00000000
,
00001000
00000010
00000001
00000000
00000010
00000000
00000100
00000000
,
00001000
00000100
00010000
00000000
00001000
00000000
01000000
00000000
,
00010000
00100000
00000000
00100000
01000000
00000000
01000000
10000000
,
00000000
00100000
20000000
00000000
30020000
00000000
00030000
00000000
,
10010000
00000000
10000000
01000000
,
00020000
00030000
00001000
00000100
,
00000001
00000100
00000010
00001000
,
00000100
00010000
00002000
00000000
,
00003000
00000000
00000000
00000000
;

//--------------- dance-double - パメラ姫 -Princess Pamela- ----------------
#NOTES:
     dance-double:
     パメラ姫 -Princess Pamela-:
     Hard:
     15:
     0,0,0,0,0:
00000000
00000000
00000000
00000000
,
00000000
00000000
00000000
00000000
,
00000000
00000000
00000000
00000000
,
00000000
00000000
00000000
00000000
,
00000000
00000000
00000000
00000000
,
00001000
00010000
00001000
00010000
00002000
00000000
00003200
00000000
,
00000301
00001000
00000001
00001000
00000002
00000000
00000023
00000000
,
00002030
00023000
02030000
23000000
,
30100000
01000000
00100000
00010000
00002000
00000000
00000000
00000000
,
00000000
00000000
00000000
00000000
00003000
00000000
00000000
00000000
00010000
00000000
00001000
00010000
00000100
00000000
00001000
00000000
,
00000001
00000000
00000010
00000000
00000100
00000000
00000010
00000000
00000001
00000000
00000100
00000001
00001000
00000000
00000010
00000000
,
00000100
00000000
00001000
00000100
00001000
00000000
00010000
00000000
00001000
00000000
00010000
00001000
00100000
00000000
00010000
00000000
,
01000000
00000000
00100000
00000000
10000000
00100000
10000000
00000000
00010000
00000000
00100000
01000000
10000000
00000000
01000000
00000000
,
00010000
00000000
00000000
00010000
00001000
00000000
00010000
00000000
00001000
00000000
00010000
00001000
01000000
00000000
00010000
00000000
,
00100000
00000000
01000000
00000000
10000000
00000000
01000000
00000000
00010000
00000000
00001000
00100000
00010000
00000000
00100000
00000000
,
00010000
01000000
00100000
00010000
00001000
00001000
00000000
00000100
,
00000100
00000000
00000001
00000001
00000000
00000010
00000010
00000100
,
00002000
00000000
00003001
00000000
00001001
00000000
00001000
00000100
,
00000010
00000100
00000000
00000010
00001000
00000010
00000000
00001000
,
00010000
00001000
00000000
00010000
01000000
00000000
10000000
01000000
,
00000000
00000000
00010000
00000000
00000000
00000000
00001000
00000000
00001000
00000000
00000000
00010000
00000000
00000000
00011000
00000000
,
00000000
00000000
00001000
00000000
00010000
00001000
00010000
00001000
00010000
00000000
00001000
00000000
00100000
00000000
00001000
00000000
,
00010000
01000000
00100000
01000000
10000000
00010000
00100000
01000000
,
00100000
00001000
00010000
00000100
00000020
00000000
00000031
00000100
,
00000000
00001000
00000000
00011000
00000000
00101000
00000000
01100000
,
00000000
00000000
01000000
00000000
10000000
00010000
10000000
00010000
10000000
00000000
00000000
00000000
00100000
00000000
01000000
00000000
,
00100000
00000000
00000000
00000000
00010000
00000000
00001000
00000000
00010000
00000000
00000100
00010000
00000100
00000000
00001000
00000000
,
00000010
00000000
00000001
00000010
00002000
00000000
00003010
00000100
,
00000001
00000100
00001000
00010000
00000000
00011000
00000000
00101000
,
00000000
00100000
01000000
00000000
10000000
00100000
01000000
00100000
,
00010000
00001000
00000100
00000010
00001000
00000001
00000010
00000100
,
00000010
00001000
00010000
01000000
00100000
00100000
00000000
00001000
,
00001000
00000000
00010000
00010000
00000000
00002000
00003020
00000032
,
00000203
00000000
00000000
00000000
00000301
00000000
00001000
00000000
00000010
00000000
00001000
00000010
00010000
00000000
00001000
00000000
,
00011000
00000000
00000000
00000000
00010000
00000000
00001000
00000000
00100000
00000000
00010000
00100000
00010000
00000000
10000000
00000000
,
10010000
00000000
00010000
01000000
20000000
00000000
31000000
00010000
,
01000000
00000000
00100000
01000000
00100000
00000000
10000000
00000000
01000000
00000000
00010000
00000000
00001000
00000000
00100000
00000000
,
00010000
00000000
00000000
00000000
00100000
00000000
00001000
00000000
00010000
00000000
00001000
00010000
00000100
00000000
00001000
00000000
,
00001100
00000000
00000000
00000000
00000010
00000000
00010000
00000000
00001000
00000000
00010000
00001000
01000000
00000000
00010000
00000000
,
01010000
00000000
01000000
00100000
00010000
00000000
00001000
00000100
,
00000001
00000000
00000100
00000001
00000100
00000000
00000010
00000000
00000000
00000000
00000110
00000000
00000000
00000000
00001010
00000000
,
00000000
00000000
00010000
00000000
00001000
00010000
00001000
00010000
00001000
00000000
00010000
00001000
01000000
00000000
00010000
00000000
,
00110000
00000000
00000000
00000000
00100000
00000000
01000000
00000000
10000000
00000000
01000000
10000000
00010000
00000000
01000000
00000000
,
00200000
02300000
03200000
00320000
00032000
00000000
00013000
00001000
,
00000100
00000000
00000010
00000100
00000001
00000000
00000010
00000000
00000000
00000000
00000011
00000000
00000000
00000000
00001010
00000000
,
00000000
00000000
00001000
00000000
00000001
00001000
00000001
00001000
00000001
00000000
00000010
00000000
00000100
00000000
00001000
00000000
,
00010000
00000000
00000000
00000000
10000000
00100000
01000000
00010000
,
00001000
00000000
00000000
00000000
00001001
00000000
00001000
00000100
,
00000000
00000000
00010000
00001000
00010000
00000000
00001000
00000000
02000000
00000000
03200000
00000000
00320000
00000000
00032000
00000000
,
00003200
00000000
00000300
00000000
00000120
00000000
00001030
00001000
,
00000010
00001000
00000200
00000000
00000302
00000000
00000103
00010000
,
00001000
00000000
00010000
00001000
00100000
00000000
00010000
00000000
01000000
00000000
00100000
10000000
00010000
00000000
00100000
00000000
,
01000000
00000000
00100000
00000000
00001000
00010000
00000100
00000000
00000000
00000000
00001100
00000000
00000000
00000000
00001010
00000000
,
00000000
00000000
00000010
00000000
00001000
00000001
00001000
00000001
00001000
00000000
00000010
00001000
00000001
00000000
00000100
00000000
,
00002000
00000000
00000000
00000000
00013000
00000000
00001000
00000000
01000000
00000000
00010000
10000000
01000000
00000000
00100000
00000000
,
02000000
00000000
00000000
00000000
03100000
00000000
00010000
00100000
00001000
00000000
00000000
00000000
00010000
00000000
00001000
00010000
,
00001000
00000000
00010000
00000100
00010000
00000100
00010000
00000000
00000000
00000000
00000020
00000000
00000230
00000000
00002300
00000000
,
00023000
00000000
00000000
00000000
00031000
00000000
00000000
00000000
00100000
00100000
00100000
00000000
00010000
00000000
01000000
00000000
,
00010000
00010000
00010000
00000000
10000000
00100000
10000000
00000000
00100000
00000000
00000000
00000000
01000000
01000000
00001000
00000000
,
00010000
00001000
00010000
00000010
00001000
00000000
00000100
00000000
00000110
00000000
00000010
00000001
00000010
00000000
00001000
00000000
,
00010000
00000000
00000000
00000000
00001000
00000000
00010000
00000000
00001000
00000000
00000000
00000000
00100000
00000000
00000000
00000000
01100000
00000000
00000000
00000000
01000000
00000000
10000000
00000000
00100000
00000000
01000000
00000000
00010000
00000000
10000000
00010000
,
20000000
00000000
00000000
00000000
00000000
00000000
00000000
00000000
30000000
00000000
00000000
00000000
00010000
10000000
00010000
10000000
,
00010000
00000000
10000000
01000000
00100000
00000000
00001000
00000000
00011000
00000000
00000000
00000000
00010000
00000000
00000010
00000000
,
00001000
00000000
00000100
00001000
00000001
00000000
00001000
00000000
00000200
00000000
00000320
00000000
00002030
00000000
00023000
00000000
,
01030000
00000000
00000000
00000000
00100000
00000000
10010000
00000000
00000000
00000000
00010000
00100000
00001000
00000000
00011000
00000000
,
00000000
00000000
00010100
00000000
00000000
00000000
00000100
00000000
00001000
00000100
00001000
00000100
00001000
00000000
00000001
00000000
,
00000100
00000000
00000010
00001000
00000001
00000000
00000010
00000000
00000110
00000000
00000000
00000000
00000100
00000000
00010000
00000000
,
00001000
00000000
00010000
00001000
00100000
00000000
00010000
00000000
00110000
00000000
00000000
00000000
00100000
00000000
01000000
00000000
,
10000000
10000000
00000000
00100000
00100000
00000000
00010000
00010000
,
00002000
00023000
00032000
00003200
00000320
00000000
00000030
00000000
,
00000100
00000000
00000001
00000100
00000001
00000000
00000010
00000000
00000200
00000000
00000320
00000000
00002030
00000000
00023000
00000000
,
00031000
00000000
00010000
00001000
00100000
00000000
00010000
00000000
02000000
00000000
23000000
00000000
32000000
00000000
03020000
00000000
,
01030000
00000000
00100000
10000000
00010000
00000000
00100000
00000000
01000000
00000000
00010000
00001000
00010000
00000000
00001000
00000000
,
00000000
00011000
00000000
00010010
00000000
00001010
00001010
00000000
,
00000010
00000000
00000100
00000001
00001000
00000000
00000100
00000000
00000002
00000000
00000203
00000000
00000320
00000000
00002030
00000000
,
00013000
00000000
00001000
00010000
00001000
00000000
01000000
00000000
20000000
00000000
32000000
00000000
03200000
00000000
00320000
00000000
,
00031000
00001000
00000000
00000100
00000100
00000000
00000001
00000001
,
00000000
00000020
00002030
00023000
02030000
00000000
03100000
00000000
,
10010000
00000000
00000000
00000000
10000000
01000000
00100000
00010000
,
00001000
00000000
00000000
00000000
00000001
00000100
00000010
00001000
,
00010000
00000000
00000000
00000000
01000000
00000000
00000000
00000000
00010000
00000000
00100000
01000000
10000000
00000000
01000000
00000000
,
00100000
00010000
00001000
00000100
00000020
00000000
00000000
00000000
,
00000030
00000000
00000000
00000000
;
