#TITLE:Halloween Party;
#SUBTITLE:~Multiverse~;
#ARTIST:SHK;
#TITLETRANSLIT:;
#SUBTITLETRANSLIT:;
#ARTISTTRANSLIT:;
#GENRE:;
#CREDIT:;
#BANNER:banner.png;
#BACKGROUND:;
#LYRICSPATH:;
#CDTITLE:;
#MUSIC:Halloween Party ~Multiverse~.mp3;
#OFFSET:-0.040000;
#SAMPLESTART:99.975304;
#SAMPLELENGTH:12.000000;
#SELECTABLE:YES;
#DISPLAYBPM:80.000000:160.000000;
#BPMS:0.000000=160.000000
,55.000000=320.000000
,55.666668=80.000000
,56.000000=160.000000
,71.000000=320.000000
,71.666664=80.000000
,72.000000=160.000000
,118.000000=80.000000
,119.000000=160.000000
,196.000000=320.000000
,197.000000=160.000000
,198.000000=80.000000
,198.250000=60.000000
,199.000000=80.000000
,217.000000=160.000000
,289.000000=80.000000
,291.000000=160.000000
;
#STOPS:191.000000=-1.875000
;
#BGCHANGES:;
#KEYSOUNDS:;
#ATTACKS:;

//---------------dance-single - ----------------
#NOTES:
     dance-single:
     :
     Challenge:
     17:
     0.853854,1.011228,0.426341,0.918274,0.791191,729.000000,677.000000,52.000000,112.000000,0.000000,0.000000,0.853854,1.011228,0.426341,0.918274,0.791191,729.000000,677.000000,52.000000,112.000000,0.000000,0.000000:
0000
0000
0000
0000
,
0000
0000
0000
0000
,
1001
0002
1003
0002
0103
0002
0013
0002
,
1003
2000
3010
2000
3100
2000
3010
2000
,
3100
0200
0310
0200
0301
0200
1300
0200
,
0310
0020
0031
0020
0130
0020
1030
0020
,
0031
0000
0002
0000
0103
0000
0020
0000
0130
0000
2000
0000
3100
0010
0100
0010
,
0100
0000
0001
0000
1000
0000
1001
0000
1000
0000
0010
0000
0100
0010
0100
0010
,
1000
0000
0001
0000
1000
0000
1100
0000
0100
0000
0010
0000
0010
0001
0010
0001
,
0100
0110
0110
0110
0110
0110
0110
0110
,
0000
0000
2002
0000
0000
0000
0000
3003
,
1000
0001
1000
0001
1000
0001
1000
0001
1000
0001
1000
0001
1000
0001
1000
0001
,
0200
0320
0032
2003
3200
0320
2030
3200
,
0320
0031
0101
1001
0000
0110
1001
0000
,
2000
3200
0320
0032
0203
2300
3002
0023
,
2030
0000
3100
0000
1100
0000
0110
0000
0000
0000
0010
0000
0001
0100
0010
1000
,
0200
0320
0032
0203
2300
3002
0023
0230
,
0302
1003
1100
1001
0000
0101
0110
0000
,
2000
3002
0203
2300
3002
0023
0230
1300
,
1000
0100
0001
0000
0001
0010
0100
0000
1000
0100
0010
0001
1000
0010
0100
0010
,
2000
0000
0010
0000
3100
0000
2001
3000
,
0002
0000
0000
0000
0013
0000
0010
0100
0020
0000
0000
0000
0130
0000
0100
1000
,
0002
0000
0100
1000
1000
0000
0023
0000
,
0230
0000
0000
0000
1300
0000
1000
0010
0001
0000
0010
0000
0100
0000
0010
0000
,
1020
0000
0100
0000
1030
0000
1002
0003
,
0200
0000
0000
0000
0310
0000
0010
0100
0002
0000
0000
0000
0013
0000
0010
0100
,
2000
0100
3001
1010
,
0102
0000
0000
0000
0013
0000
0010
0100
1000
0000
0010
0000
0100
0000
0010
0000
,
1000
0000
1000
0001
0010
0000
0010
0100
1000
0000
1000
0100
0010
0000
0010
0001
,
0100
0000
0000
0000
0000
0000
0000
0000
0110
0000
0000
0000
0000
0000
0000
0000
0101
0000
0000
0000
0000
0000
0000
0000
1001
0000
0000
0000
0000
0000
0000
0000
2020
3030
0000
0000
0000
0000
0000
0000
0000
0000
0000
0000
0000
0000
0000
0000
1100
0000
0000
0000
0000
0000
0000
0000
0100
0000
0000
0000
0010
0000
0000
0000
,
0001
0000
0001
0100
0010
0000
0010
0100
1000
0000
1000
0100
0001
0000
0011
0000
,
0101
0000
0000
0000
0000
0000
0000
0000
1001
0000
0000
0000
0000
0000
0000
0000
1100
0000
0000
0000
0000
0000
0000
0000
0000
0000
0000
0000
0000
0000
0000
0000
1000
0000
0000
0000
0001
0000
0000
0000
0010
0000
0000
0000
0100
0000
0000
0000
1000
0000
0000
0000
0000
0000
0000
0000
0200
0300
0000
0000
0200
0300
0000
0000
,
0001
0000
0000
0000
0000
0000
0000
0000
0010
0000
0000
0000
0000
0000
0000
0000
0100
0000
0000
0000
0000
0000
0000
0000
0010
0000
0000
0000
0000
0000
0000
0000
0001
0000
0000
0000
0000
0000
0000
0000
0100
0000
0000
0000
0000
0000
0000
0000
0110
0000
0000
0000
0000
0000
0000
0000
0020
0030
0000
0000
0020
0030
0000
0000
,
0001
0000
0000
0000
0000
0000
0000
0000
1000
0000
0000
0000
0000
0000
0000
0000
0100
0000
0000
0000
0000
0000
0000
0000
1000
0000
0000
0000
0000
0000
0000
0000
0010
0000
0000
0000
0000
0000
0000
0000
0100
0000
0000
0000
0000
0000
0000
0000
0101
0000
0000
0000
0000
0000
0000
0000
0200
0300
0000
0000
0200
0300
0000
0000
,
1000
0000
0010
0000
0100
0000
0001
0000
0010
0000
0100
0000
0010
0001
0100
0010
,
1000
0000
0000
0000
0010
0000
0000
0000
0100
0000
0000
0000
0001
0000
0000
0000
0010
0000
0000
0000
0100
0000
0000
0000
0010
0000
0000
0000
1000
0000
0000
0000
0010
0000
0000
0000
0100
0000
0000
0000
1000
0000
0000
0000
0001
0000
0000
0000
0100
0000
0000
0000
0000
0000
0000
0000
0020
0030
0000
0000
0020
0030
0000
0000
,
1000
0000
0000
0000
0000
0000
0000
0000
0010
0000
0000
0000
0000
0000
0000
0000
0001
0000
0000
0000
0000
0000
0000
0000
1000
0000
0000
0000
0000
0000
0000
0000
0100
0000
0000
0000
0000
0000
0000
0000
0001
0000
0000
0000
0000
0000
0000
0000
0101
0000
0000
0000
0000
0000
0000
0000
0200
0300
0000
0000
0200
0300
0000
0000
,
1000
0000
0000
0000
0000
0000
0000
0000
0100
0000
0000
0000
0000
0000
0000
0000
0010
0000
0000
0000
0000
0000
0000
0000
0100
0000
0000
0000
0000
0000
0000
0000
0001
0000
0000
0000
0000
0000
0000
0000
0010
0000
0000
0000
0000
0000
0000
0000
0110
0000
0000
0000
0000
0000
0000
0000
0020
0030
0000
0000
0020
0030
0000
0000
,
1000
0000
0100
0000
0001
0000
0100
0000
0010
0000
0001
0000
0100
0010
0100
0001
,
0010
0100
1000
0100
0010
1000
0010
0001
0100
0010
0001
0010
2000
0000
0000
0000
,
0100
3010
0110
0102
,
0013
0000
0010
0100
2000
0000
0000
0000
3001
0000
0001
0100
0020
0000
0000
0000
,
0001
1030
1010
1200
,
0310
0000
0100
0010
0002
0000
0003
0000
0100
0000
0010
0000
2010
0000
0000
0000
,
0100
3001
0110
0102
,
0013
0000
0010
0100
2000
0000
0000
0000
3010
0000
0010
0100
2000
0000
3100
0000
,
0010
1000
0001
0100
0002
0013
0020
0130
,
1000
0000
0010
1000
0200
0000
0310
0000
0001
0000
1001
0000
MMMM
0000
0000
0000
,
0000
0000
0000
0000
,
0000
0000
0000
0000
0000
0000
0000
0000
0000
0000
0000
0000
0000
1000
0010
0100
,
0000
0001
0010
1000
0000
0010
0001
0100
0000
1000
0100
0010
0000
1000
0010
0100
,
0000
0001
0100
0010
0000
1000
0100
0001
0000
1000
0010
0001
2000
0100
0001
0100
,
0000
0010
3001
0010
0020
1000
0100
1000
0000
0100
0031
0100
0200
1000
0010
1000
,
0000
0001
0310
0001
0001
0010
0100
1000
0010
0001
1000
0100
0010
1000
0010
1000
,
0001
0100
0001
0100
0110
0000
0010
0000
1000
0000
0100
0000
0010
0000
0001
0000
,
0100
0000
0010
0000
1000
0100
1000
0001
0100
0010
0100
0001
0010
0100
0001
0100
,
1000
0000
0000
0000
0010
0000
0000
0000
0100
0000
0000
0000
0001
0000
0000
0000
1000
0000
0000
0000
0000
0000
0000
0000
0002
0003
0000
0000
0002
0003
0000
0000
0010
0000
0000
0000
0000
0000
0000
0000
0100
0000
0000
0000
0000
0000
0000
0000
0010
0000
0000
0000
0000
0000
0000
0000
0001
0000
0000
0000
0000
0000
0000
0000
,
0010
0000
0000
0000
0000
0000
0000
0000
1000
0000
0000
0000
0000
0000
0000
0000
1100
0000
0000
0000
0000
0000
0000
0000
2000
3000
0000
0000
2000
3000
0000
0000
0010
0000
0000
0000
0000
0000
0000
0000
0100
0000
0000
0000
0000
0000
0000
0000
0010
0000
0000
0000
0000
0000
0000
0000
0001
0000
0000
0000
0000
0000
0000
0000
,
0100
0000
0000
0000
0000
0000
0000
0000
0010
0000
0000
0000
0000
0000
0000
0000
0110
0000
0000
0000
0000
0000
0000
0000
0200
0300
0000
0000
0200
0300
0000
0000
1000
0000
0000
0000
0000
0000
0000
0000
0010
0000
0000
0000
0000
0000
0000
0000
0001
0000
0000
0000
0000
0000
0000
0000
0010
0000
0000
0000
0000
0000
0000
0000
,
0100
0000
0010
0000
1000
0100
0010
0001
0100
0010
0100
1000
0100
0001
0010
0100
,
1000
0000
0000
0000
0001
0000
0000
0000
0100
0000
0000
0000
0010
0000
0000
0000
1000
0000
0000
0000
0000
0000
0000
0000
0020
0030
0000
0000
0020
0030
0000
0000
0001
0000
0000
0000
0000
0000
0000
0000
0010
0000
0000
0000
0000
0000
0000
0000
1000
0000
0000
0000
0000
0000
0000
0000
0001
0000
0000
0000
0000
0000
0000
0000
,
0100
0000
0000
0000
0000
0000
0000
0000
1000
0000
0000
0000
0000
0000
0000
0000
1010
0000
0000
0000
0000
0000
0000
0000
2000
3000
0000
0000
2000
3000
0000
0000
0010
0000
0000
0000
0000
0000
0000
0000
0100
0000
0000
0000
0000
0000
0000
0000
1000
0000
0000
0000
0000
0000
0000
0000
0001
0000
0000
0000
0000
0000
0000
0000
,
0100
0000
0000
0000
0000
0000
0000
0000
0001
0000
0000
0000
0000
0000
0000
0000
0101
0000
0000
0000
0000
0000
0000
0000
0002
0003
0000
0000
0002
0003
0000
0000
0010
0000
0000
0000
0000
0000
0000
0000
1000
0000
0000
0000
0000
0000
0000
0000
0100
0000
0000
0000
0000
0000
0000
0000
0001
0000
0000
0000
0000
0000
0000
0000
,
1000
0000
0010
0000
0001
0010
0100
1000
0010
0100
0001
1000
0100
0010
0001
0100
,
0010
1000
0100
0010
0001
0000
1000
0010
0100
0001
0100
0010
1000
0100
0010
0001
,
0100
0001
1000
0001
0100
0000
0010
0100
0001
0100
0010
1000
0010
0100
0001
1000
,
0100
0010
0100
1000
0001
0000
1000
0010
0001
0010
0001
0010
1000
0100
1000
0001
,
0100
0001
0010
0100
1000
0001
0010
0100
1000
0001
1000
0010
0100
0010
1000
0010
,
0100
1000
0100
0001
0010
0100
0010
0001
1000
0010
0100
0001
0010
0100
0010
0001
,
1000
0010
0100
0001
1000
0100
0010
1000
0010
0001
0100
0010
0001
0010
0100
0010
,
1000
0100
1000
0001
0010
0100
1000
0001
0100
0010
1000
0010
0100
0001
0010
1000
,
0010
0001
0100
0010
1000
0100
1000
0100
0001
0100
0001
0100
1000
0010
1000
0010
,
0001
0010
0001
0010
0200
0000
0000
0000
0000
0000
0000
0000
2000
0000
0000
0000
,
0000
0000
0000
0000
,
0000
0000
3300
MMMM
;

//---------------dance-single - ----------------
#NOTES:
     dance-single:
     :
     Hard:
     15:
     0.694562,0.980585,0.122983,0.295159,0.528827,593.000000,578.000000,15.000000,36.000000,0.000000,0.000000,0.694562,0.980585,0.122983,0.295159,0.528827,593.000000,578.000000,15.000000,36.000000,0.000000,0.000000:
// measure 0
0000
0000
0000
0000
,  // measure 1
0000
0000
0000
0000
,  // measure 2
1000
0001
0000
0001
0000
0010
0000
0010
,  // measure 3
0000
0100
0000
0100
0000
0010
0000
0010
,  // measure 4
0000
0001
0000
0001
0000
1000
0000
1000
,  // measure 5
0000
0100
0000
0100
0000
0010
0000
0001
,  // measure 6
1000
0100
1000
0010
1000
0001
1000
0010
,  // measure 7
0100
0001
0010
0100
0000
1000
0100
0010
,  // measure 8
0000
0010
0001
0100
0000
0010
0100
1000
,  // measure 9
0000
1000
0100
0001
0010
0100
1000
0010
,  // measure 10
0100
0000
0220
0000
0000
0000
0000
0330
,  // measure 11
0100
0010
0100
0000
0010
0100
0010
0000
0100
0010
0100
0000
0010
0100
0010
0100
,  // measure 12
0010
1000
0100
0001
0100
1000
0010
0100
,  // measure 13
0001
1000
0001
0010
0000
0100
1001
0000
,  // measure 14
1000
0100
0010
0001
0100
0010
1000
0010
,  // measure 15
0001
0000
0010
0000
0100
0000
0001
0000
0000
0000
1000
0000
0100
1000
0100
1000
,  // measure 16
0010
0100
0010
0001
0010
1000
0100
1000
,  // measure 17
0001
0010
0100
1000
0000
0010
1001
0000
,  // measure 18
0001
1000
0100
0010
0100
0001
1000
0010
,  // measure 19
0001
0010
0001
0000
0100
0001
0100
0000
0010
1000
0001
0000
0100
0010
0100
0010
,  // measure 20
2000
0100
0100
3002
,  // measure 21
0023
0000
0000
0000
0130
0000
1000
0100
2000
0000
0000
0000
3100
0000
0000
0000
,  // measure 22
2000
0010
3001
1001
,  // measure 23
0201
0000
0000
0000
0310
0000
0010
1000
0002
0000
0000
0000
0103
0000
0000
0000
,  // measure 24
2010
0100
0100
3200
,  // measure 25
0320
0000
0000
0000
0031
0000
0001
0100
0020
0000
0000
0000
1030
0000
0000
0000
,  // measure 26
0210
0001
0001
0320
,  // measure 27
0032
1000
0023
0130
,  // measure 28
0010
0010
1000
1000
0001
0001
0100
0100
,  // measure 29
0010
1000
0001
0100
0110
0000
0100
0100
,  // measure 30
0001
0001
0010
0010
0100
0100
1000
0010
,  // measure 31
0001
0000
0010
0000
1000
0000
0000
0000
1000
0001
1000
0001
0100
0000
0010
1000
,  // measure 32
0010
0000
0100
0000
0001
0000
0100
0000
0010
0000
1000
0000
0001
0000
0010
0100
,  // measure 33
0010
0000
0001
0000
0100
0000
0010
0000
1000
0000
0001
0000
0100
0000
0010
0100
,  // measure 34
0010
0000
1000
0000
0100
0000
1000
0000
0100
0000
0010
0000
0001
0100
0001
0000
,  // measure 35
1000
0000
0010
0000
0100
0010
0100
0000
0001
1000
0001
1000
0100
0000
1000
0001
,  // measure 36
1000
0000
0010
0000
0100
0000
0010
0000
0001
0000
0010
0000
1000
0000
0001
1000
,  // measure 37
0001
0000
0010
0000
0100
0000
1000
0000
0100
0000
0001
0000
0100
0000
1000
0001
,  // measure 38
1000
0000
0010
0000
0100
0000
0001
0000
0100
0000
0010
0000
1000
0100
1000
0000
,  // measure 39
0001
0010
0001
0000
1000
0010
1000
0010
0100
0001
0100
0001
0020
0000
0000
0000
,  // measure 40
0100
1000
0230
2300
,  // measure 41
3001
0000
0001
0100
0020
0000
0000
0000
1030
0000
1000
0100
0020
0000
0000
0000
,  // measure 42
0100
0031
0011
2100
,  // measure 43
3010
0000
0010
0100
0002
0000
0000
0000
1003
0000
0000
0000
0210
0000
0000
0000
,  // measure 44
1000
0310
0020
2030
,  // measure 45
3100
0000
0100
0010
0002
0000
0000
0000
0100
0000
0000
0000
0023
0000
0000
0000
,  // measure 46
0100
0000
1000
0000
0032
0000
0103
0010
,  // measure 47
1000
0100
0010
0100
1000
0010
0001
0000
,  // measure 48
0000
0000
0000
0000
,  // measure 49
0000
0000
0000
2000
,  // measure 50
3010
0002
0103
2000
,  // measure 51
3100
0000
0000
0000
0002
0000
0000
0000
0013
0000
0000
0000
1000
0001
0100
0010
,  // measure 52
0000
0100
0001
0010
0000
0100
1000
0001
0000
0100
0010
0001
0000
0010
1000
0100
,  // measure 53
0000
0010
1000
0010
0001
0100
0001
0100
0010
1000
0010
1000
0100
0010
0100
0010
,  // measure 54
0100
0010
0100
0010
0110
0000
0100
0000
1000
0000
0010
0000
0100
0000
0001
0000
,  // measure 55
0010
0000
0001
0000
0100
0001
0100
0000
0010
1000
0010
0000
1000
0100
1000
0100
,  // measure 56
0010
0001
0010
0001
0100
0000
0010
1000
0001
0000
0100
0000
1000
0000
0100
0000
,  // measure 57
0010
0000
1000
0000
1001
0000
0001
0010
0100
0000
0010
0000
1000
0000
0010
0000
,  // measure 58
0001
0000
0100
0000
0110
0000
0010
0100
1000
0000
0100
0000
0001
0000
0010
0000
,  // measure 59
0001
0000
0100
0000
0010
1000
0010
0000
0100
0001
0100
0000
0010
0100
0010
0100
,  // measure 60
0001
1000
0001
1000
0100
0000
0010
0001
0100
0000
0010
0000
0001
0000
0010
0000
,  // measure 61
1000
0000
0100
0000
0010
0000
0100
1000
0010
0000
0100
0000
0001
0000
0100
0000
,  // measure 62
1000
0000
0100
0000
0010
0000
1000
0001
1000
0000
0100
0000
0001
0000
1000
0000
,  // measure 63
0010
0000
0001
0000
1000
0100
0010
0000
0001
0100
0010
0000
1000
0010
0100
0001
,  // measure 64
0010
0100
1000
0010
0100
0000
0010
1000
0010
0000
0100
0001
0010
0000
0100
0010
,  // measure 65
0001
0010
0001
0010
0100
0000
1000
0010
0100
0000
0001
0100
0010
0000
1000
0001
,  // measure 66
0100
0001
0100
0001
1000
0000
0010
0100
0010
0000
1000
0100
0010
0000
0100
0010
,  // measure 67
0001
0100
0010
1000
0001
0010
0001
0000
1000
0100
1000
0000
0010
0100
0001
0100
,  // measure 68
0010
1000
0100
0000
0010
0001
0010
0001
0100
0010
0100
0000
0010
1000
0010
1000
,  // measure 69
0100
0010
0100
0000
1000
0001
0100
0010
1000
0001
0100
0000
0001
1000
0010
0100
,  // measure 70
0001
0010
0100
0000
1000
0100
0010
0100
1000
0010
0100
0001
0100
0010
1000
0001
,  // measure 71
0010
0100
1000
0010
1000
0100
0010
0001
1000
0100
0010
0001
1000
0010
0100
0001
,  // measure 72
1000
0010
0100
0001
0000
0000
0000
0000
0000
0000
0000
0000
2002
0000
0000
0000
,  // measure 73
0000
0000
0000
0000
,  // measure 74
0000
0000
3003
MMMM
;

//---------------dance-single - ----------------
#NOTES:
     dance-single:
     :
     Medium:
     13:
     0.559866,0.856577,0.065591,0.311557,0.168077,478.000000,470.000000,8.000000,38.000000,0.000000,0.000000,0.559866,0.856577,0.065591,0.311557,0.168077,478.000000,470.000000,8.000000,38.000000,0.000000,0.000000:
0000
0000
0000
0000
,
0000
0000
0000
0000
,
1000
1000
0010
0010
,
0100
0100
0001
0001
,
0010
0010
1000
1000
,
0010
0010
0001
0001
,
0100
0010
0000
1000
0000
0001
0000
0010
,
0000
0100
1000
0100
0000
1000
0010
1000
,
0000
0010
0100
0001
0000
0010
0100
1000
,
0000
1000
0100
0010
0001
0100
0010
1000
,
0000
2002
0000
3003
,
1000
0010
0001
0010
1000
0010
0001
0010
,
0100
0100
0001
0001
0010
0100
1000
0010
,
0100
0010
1000
0001
0000
0001
1000
0000
,
0010
1000
0100
0010
1000
0010
0100
1000
,
0001
0000
0100
0000
0010
0000
0100
0000
0000
0000
0001
0000
0100
0010
0100
0000
,
0001
0100
0010
1000
0100
1000
0010
0100
,
0010
0001
0010
1000
0000
0100
0010
0000
,
0001
0100
1000
0100
0001
0010
0100
1000
,
0001
0100
0001
0000
1000
0010
1000
0000
0100
0000
0100
0000
1000
0000
0001
0000
,
1002
0100
1000
0010
,
0203
0000
0010
0000
0302
0000
1000
0003
,
2000
0100
0010
3020
,
0032
0023
0230
0301
,
2001
0100
0010
3002
,
0023
0100
2030
0010
,
3002
0100
1000
0203
,
2300
3010
0020
0130
,
0001
0001
1000
1000
0010
0010
0100
0100
,
0010
1000
0001
0100
0010
0000
1000
1000
,
0010
0010
0100
0100
0001
0001
0010
1000
,
0010
0000
0001
0000
0100
0000
0000
0000
0010
1000
0010
1000
0001
0000
0001
0000
,
0100
0010
1000
0001
0010
0100
1000
1000
,
0100
0010
0001
0100
0010
1000
0100
0100
,
1000
0000
0010
0000
0100
0000
0001
0000
0010
0000
0100
0000
1000
0001
1000
0000
,
0010
0000
0100
0000
0001
0010
0001
0000
1000
0100
1000
0000
0010
0000
0010
0000
,
0100
0001
1000
0100
0010
0001
1000
1000
,
0001
0010
0100
1000
0010
0100
0001
0001
,
0100
0010
0001
0010
1000
0100
0010
0010
,
0001
0000
0001
0000
1000
0000
1000
0000
0100
0010
0100
0000
0020
0000
0000
0000
,
0100
0100
0230
2300
,
0001
3020
0100
0032
,
0010
1000
0023
0230
,
0001
0000
0320
0000
1000
0030
2010
0000
,
0100
0001
3020
0230
,
0001
0320
0001
0230
,
1000
0010
0001
0320
,
2030
3200
0302
0013
,
0000
0000
0000
0000
,
0000
0000
0000
0001
,
0100
1000
0010
0100
,
0001
0000
0000
0000
0010
0000
0000
0000
0100
0000
0000
0000
1000
0100
1000
0100
,
0000
1000
0100
1000
0000
0001
0100
0001
0000
0100
0001
0100
0000
0010
0100
0010
,
0000
1000
0001
1000
0100
0010
0100
0010
0001
0100
0001
0100
0020
0000
0000
0000
,
0000
0030
1001
1000
0001
0001
1000
1000
,
0001
0001
0010
0100
0001
0100
1000
0010
,
0100
0010
0100
0010
1000
0000
1000
0000
0001
0000
0100
0000
0010
0000
1000
0000
,
0100
0010
0001
0001
0100
0010
0001
0010
,
1000
0100
0010
0010
0100
1000
0001
0100
,
1000
0000
0100
0000
0010
0100
0010
0000
1000
0000
0100
0000
0010
0001
0010
0000
,
0001
0100
0001
0000
1001
0000
1000
0000
0010
0000
0100
0000
0001
0000
0010
0000
,
0100
1000
0001
0001
0010
0001
0100
0010
,
1000
0100
0010
0010
0100
0001
0100
1000
,
0010
1000
0001
0001
0100
0100
0010
0010
,
0100
0001
1000
0000
0110
0000
0100
0000
0001
0000
1000
0000
0100
0000
0100
0000
,
0010
0001
0001
0100
0010
1000
0100
1000
,
0010
0100
0001
0100
1000
0001
0010
1000
,
0100
0010
0100
0001
0100
1000
0010
0100
,
0001
0010
0100
1000
0010
0001
1000
0100
,
0001
0010
1000
0010
0100
1000
0001
0100
,
1000
0000
0100
0000
0010
1000
0010
0000
0100
0001
0100
0000
0001
1000
0001
0000
,
1000
0001
0010
0000
0100
1000
0100
1000
0100
1000
0100
0000
0010
0001
0010
0001
,
0010
0001
0010
0000
0000
0000
0000
0000
0000
0000
0000
0000
2002
0000
0000
0000
,
0000
0000
0000
0000
,
0000
0000
0000
0000
0000
3003
0000
0000
;

//---------------dance-single - ----------------
#NOTES:
     dance-single:
     :
     Easy:
     9:
     0.339668,0.488653,0.049193,0.459137,0.000000,290.000000,284.000000,6.000000,56.000000,0.000000,0.000000,0.339668,0.488653,0.049193,0.459137,0.000000,290.000000,284.000000,6.000000,56.000000,0.000000,0.000000:
0000
0000
0000
0000
,
0000
0000
0000
0000
,
1000
1000
1000
1000
,
0001
0001
0001
0001
,
0010
0010
0010
0010
,
0100
0100
0100
0100
,
1000
0010
1000
0010
,
0100
0001
0010
0001
0000
1000
0100
1000
,
0000
0010
0100
0010
0000
0100
0010
1000
,
0000
2002
0000
0000
0000
0000
0000
3003
,
0000
0220
0000
0000
,
0000
0000
0000
0330
,
0100
0000
0001
0000
1000
0100
1000
0000
,
0010
0000
0100
0001
0000
0000
1001
0000
,
1000
0000
0010
0000
0100
0010
0100
0000
,
0001
0000
0100
0010
0000
1000
0001
0000
,
0010
0000
0100
0000
1000
0100
1000
0000
,
0010
0000
0100
0001
0000
0000
1001
0000
,
1000
0000
0001
0000
0100
0010
0100
0000
,
0001
0000
1000
0000
0010
0100
0010
0100
,
0002
0000
0000
0023
,
0230
0000
2300
0000
,
3020
0000
0000
0230
,
0302
0000
0023
0030
,
0012
0000
0000
2003
,
3200
0000
0320
0000
,
2030
0000
0000
3020
,
0032
0000
0000
0000
0203
0000
0000
0300
,
0010
0010
1000
1000
,
0001
0100
0001
0100
0001
0000
1000
0000
,
1000
0000
0100
0000
0100
0000
0010
0001
,
0010
0001
0100
0000
0000
0000
0010
0000
,
0010
0000
1000
0100
1000
0000
0001
0000
,
0001
0000
0100
0010
0100
0000
0010
0000
,
0010
0000
1000
0001
1000
0000
0200
0000
,
0320
0230
0320
0031
,
0001
0000
1000
0100
1000
0000
0010
0000
,
0010
0000
0100
0001
0100
0000
0010
0000
,
1000
0000
0100
1000
0100
0000
2000
0000
,
3020
0230
0302
2003
,
0000
0000
3020
0230
,
0000
0302
0000
0023
,
0000
0000
2030
3020
,
0000
0032
0003
2001
,
0000
0000
3020
0230
,
0000
2300
0000
3200
,
0000
0000
0302
0023
,
0000
0200
0000
0330
,
0000
0000
0000
0000
,
0000
0000
0000
1000
,
0001
1000
0001
0010
,
0100
0000
0010
0000
0100
0000
1000
0010
,
1000
0000
0001
0010
0001
0000
1000
0100
,
1000
0000
0001
0100
0001
0000
0020
0000
,
0230
1300
1000
0001
,
0001
0000
1000
0001
1000
0001
0200
0000
,
0000
0300
0010
0000
0010
0000
1000
0001
,
0100
0000
0001
0000
0001
0000
0010
0100
,
1000
0000
0001
0000
0001
0000
1000
0001
,
0100
0020
2030
3002
,
0203
0000
0310
0000
0010
0000
1000
0100
,
0010
0000
0001
0000
0001
0000
0010
0100
,
1000
0000
0010
0000
0010
0000
0100
0001
,
0100
0000
0010
1000
0010
0000
1000
0001
,
1000
0000
0001
0000
0010
0100
1000
0000
,
0001
0100
0010
0000
1000
0010
0100
0000
,
0001
1000
0010
0100
0010
0000
1000
0010
,
1000
0002
2003
3002
,
2003
0000
3010
0100
0010
0000
1000
0010
,
1000
0000
0001
0100
0001
0000
0010
0001
,
0010
0000
0001
1000
0001
1000
0010
0100
,
0010
0000
1000
0100
1000
0100
0010
0001
,
0010
0001
0100
0000
0000
0000
0020
0000
,
0000
0000
0000
0000
,
0000
0000
0030
0000
;
