#VERSION:0.83;
#TITLE:HULA HOOP;
#SUBTITLE:;
#ARTIST:LOONA;
#TITLETRANSLIT:;
#SUBTITLETRANSLIT:;
#ARTISTTRANSLIT:;
#GENRE:;
#ORIGIN:;
#CREDIT:;
#BANNER:HULA HOOP.png;
#BACKGROUND:HULA HOOP-bg.png;
#PREVIEWVID:;
#JACKET:HULA HOOP-jacket.png;
#CDIMAGE:;
#DISCIMAGE:;
#LYRICSPATH:;
#CDTITLE:;
#MUSIC:HULA HOOP.ogg;
#OFFSET:0.000000;
#SAMPLESTART:50.001255;
#SAMPLELENGTH:15.999996;
#SELECTABLE:YES;
#BPMS:0.000=120.000;
#STOPS:;
#DELAYS:;
#WARPS:;
#TIMESIGNATURES:0.000=4=4;
#TICKCOUNTS:0.000=4;
#COMBOS:0.000=1;
#SPEEDS:0.000=1.000=0.000=0;
#SCROLLS:0.000=1.000;
#FAKES:;
#LABELS:0.000=Song Start;
#BGCHANGES:2.625=HULA HOOP.mp4=1.000=1=0=1===CrossFade==,
99999=-nosongbg-=1.000=0=0=0 // don't automatically add -songbackground-
;
#KEYSOUNDS:;
#ATTACKS:
;

//---------------dance-single - ----------------
#NOTEDATA:;
#CHARTNAME:;
#STEPSTYPE:dance-single;
#DESCRIPTION:;
#CHARTSTYLE:;
#DIFFICULTY:Beginner;
#METER:1;
#RADARVALUES:0.076519,0.120889,0.029757,0.022318,0.000000,72.000000,68.000000,4.000000,3.000000,0.000000,0.000000,0.000000,0.000000,0.000000,0.076519,0.120889,0.029757,0.022318,0.000000,72.000000,68.000000,4.000000,3.000000,0.000000,0.000000,0.000000,0.000000,0.000000;
#CREDIT:;
#NOTES:
// measure 0
0000
0000
0000
0000
,  // measure 1
0000
0000
0000
0000
,  // measure 2
0000
0000
0000
0000
,  // measure 3
0000
0000
0000
0000
,  // measure 4
0000
0000
0000
0000
,  // measure 5
1000
0000
0000
0000
,  // measure 6
0001
0000
0000
0000
,  // measure 7
0010
0000
0000
0000
,  // measure 8
0200
0000
0300
0000
,  // measure 9
1000
0000
0000
0000
,  // measure 10
0001
0000
0000
0000
,  // measure 11
0001
0000
0001
0000
,  // measure 12
0001
0000
0000
0000
,  // measure 13
0010
0000
0000
0000
,  // measure 14
0100
0000
0000
0000
,  // measure 15
0100
0000
0100
0000
,  // measure 16
0100
0000
0000
0000
,  // measure 17
1000
0000
0000
0000
,  // measure 18
0001
0000
0000
0000
,  // measure 19
1000
0000
1000
0000
,  // measure 20
1000
0000
0000
0000
,  // measure 21
0000
0000
0001
0000
,  // measure 22
0000
0000
1000
0000
,  // measure 23
0000
0000
0100
0000
,  // measure 24
0000
0000
0000
0000
,  // measure 25
1001
0000
0000
0000
,  // measure 26
1000
0000
0000
0000
,  // measure 27
0100
0000
0000
0000
,  // measure 28
0001
0000
0000
0000
,  // measure 29
0010
0000
0000
0000
,  // measure 30
1000
0000
0000
0000
,  // measure 31
1000
0000
1000
0000
,  // measure 32
1000
0000
0000
0000
,  // measure 33
1001
0000
0000
0000
,  // measure 34
0001
0000
0000
0000
,  // measure 35
0100
0000
0000
0000
,  // measure 36
0100
0000
0000
0000
,  // measure 37
0001
0000
0000
0000
,  // measure 38
1000
0000
0000
0000
,  // measure 39
0100
0000
0000
0000
,  // measure 40
0100
0000
0100
0000
,  // measure 41
0100
0000
0000
0000
,  // measure 42
0001
0000
0000
0000
,  // measure 43
0010
0000
0000
0000
,  // measure 44
1000
0000
0000
0000
,  // measure 45
0100
0000
0000
0000
,  // measure 46
0001
0000
0000
0000
,  // measure 47
0010
0000
0000
0000
,  // measure 48
2000
0000
3000
0000
,  // measure 49
1001
0000
0000
0000
,  // measure 50
1000
0000
0000
0000
,  // measure 51
0010
0000
0010
0000
,  // measure 52
0010
0000
0000
0000
,  // measure 53
0100
0000
0000
0000
,  // measure 54
0001
0000
0000
0000
,  // measure 55
0010
0000
0010
0000
,  // measure 56
0010
0000
0000
0000
,  // measure 57
1001
0000
0000
0000
,  // measure 58
1000
0000
0000
0000
,  // measure 59
0010
0000
0000
0000
,  // measure 60
0100
0000
0100
0000
,  // measure 61
0100
0000
0000
0000
,  // measure 62
0001
0000
0000
0000
,  // measure 63
0010
0000
0000
0000
,  // measure 64
0100
0000
0200
0000
,  // measure 65
0300
0000
0000
0000
;

//---------------dance-single - ----------------
#NOTEDATA:;
#CHARTNAME:;
#STEPSTYPE:dance-single;
#DESCRIPTION:;
#CHARTSTYLE:;
#DIFFICULTY:Medium;
#METER:11;
#RADARVALUES:0.390033,0.409441,0.081832,0.371966,0.316171,367.000000,356.000000,11.000000,50.000000,0.000000,0.000000,0.000000,0.000000,0.000000,0.390033,0.409441,0.081832,0.371966,0.316171,367.000000,356.000000,11.000000,50.000000,0.000000,0.000000,0.000000,0.000000,0.000000;
#CREDIT:;
#NOTES:
0000
0000
0000
0000
,
0000
0000
0000
0000
,
0000
0000
0000
0000
,
0000
0000
0000
0000
,
0000
0000
0000
0000
,
0000
0000
0000
1000
0100
1000
0100
0000
0000
0010
0001
0010
,
0001
0000
0000
0000
0000
0000
1000
0000
0001
0000
1000
0000
0001
0000
0000
1000
0000
0000
0002
0000
0000
0000
0000
0000
,
0003
0000
0000
0001
0100
0001
0100
0000
0000
0010
1000
0010
,
2000
0010
0002
3003
,
1002
0000
0000
0000
0003
0000
0000
0000
0001
0000
0000
0010
0000
0001
0000
0000
,
2000
0000
0000
0000
3000
0000
0000
0000
1000
0000
0000
0010
0000
1000
0000
0000
,
0001
0001
0010
0010
0001
0010
0200
0000
,
1300
0000
0000
0010
0000
0000
1000
0000
0010
0000
0100
0000
0002
0000
0000
0000
,
1003
0000
0100
0000
0010
0000
0100
0000
1000
0000
0000
1000
0000
0000
1000
0000
,
0001
0000
0100
0000
0010
0000
0100
0000
0001
0000
0000
0001
0000
0000
1000
0000
,
0001
0000
0000
0000
0011
0000
0000
0000
1000
0000
0000
1010
0000
0000
0001
0000
,
1000
0000
0100
0000
0001
0000
0000
0100
0000
0000
2000
0000
0000
0000
0000
0000
,
3001
0100
0020
0000
0001
0000
0130
0001
,
1000
0100
0020
0000
1000
0000
0130
1000
,
0001
0100
0001
0100
0010
1000
0100
0010
,
0002
0000
0000
0000
2003
0000
0000
0000
3001
0000
0000
0100
0000
0000
0010
0000
,
2010
0000
0000
0000
3100
0000
0000
0010
0000
0000
0100
0000
0100
0000
0010
0000
,
0012
0000
0000
0000
0103
0000
0000
0010
0000
0000
0100
0000
0010
0000
0010
0000
,
1000
0000
0001
0000
1000
0000
0200
0000
0000
0000
0310
0000
0000
0010
0000
0000
,
0001
1000
0001
0200
0000
0010
0310
0000
,
1001
0000
1000
0100
0010
0100
0001
0100
,
1000
0000
0001
0100
1000
0100
0001
0000
,
2000
0000
0000
0010
0000
0010
0000
0000
3002
0000
0000
0100
0000
0100
0000
0000
,
1003
0100
1000
0200
0010
0000
1300
0000
,
1001
0000
1000
0010
0100
0001
0010
0100
,
1000
1000
0010
0010
0001
0010
1000
0000
,
2000
0000
0000
0010
0000
0010
0000
0000
3002
0000
0000
0013
0000
0020
0000
0030
,
2000
3020
0032
0203
,
0320
0000
0000
0030
0000
0000
1000
0000
0010
0000
1000
0000
0010
0000
0000
0000
0000
0000
0001
0000
0010
0000
0001
0000
,
0010
0000
0000
0000
0000
0000
1000
0000
0010
0000
0100
0000
0001
0000
0000
1000
0000
0000
0002
0000
0000
0000
0000
0000
,
1003
0000
0000
0001
0010
0001
0010
0000
0000
0001
0010
0100
,
1000
0000
0000
0000
1000
0000
0001
0000
0000
0000
0001
0000
0010
0000
0000
0001
0000
0000
0100
0000
0000
0000
0000
0000
,
1001
0000
0000
0001
0010
0001
0010
0000
0000
1000
0010
1000
,
0010
0000
0000
0000
0000
0000
0001
0000
0010
0000
0100
0000
1000
0000
0000
0001
0000
0000
2000
0000
0000
0000
0000
0000
,
3001
0000
0000
1000
0010
1000
0010
0000
0000
1000
0010
0200
,
0001
0000
0010
0000
1000
0000
0310
0100
,
0002
0000
0000
0000
,
0023
0000
0000
0000
,
2030
0000
0000
0000
,
3200
0000
0302
0000
,
1003
0100
0100
0010
,
0010
0001
0100
0001
,
0010
0100
0100
0100
0000
0010
0010
0220
,
0000
0000
0330
0110
,
1001
0000
0001
0100
0010
0100
1000
0100
,
0001
0000
1000
0100
0001
0100
1000
0000
,
2000
0000
0000
0100
0000
0100
0000
0000
3002
0000
0000
0010
0000
0010
0000
0000
,
0013
1000
0010
0001
0100
1000
0100
0010
,
1000
0000
0001
0100
1000
0100
0001
1000
,
0001
0001
0010
0010
1000
0010
0001
0000
,
2000
0000
0000
0100
0000
0100
0000
0000
3002
0000
0000
0100
0003
0200
0000
0300
,
2000
3200
0302
0023
,
0230
0000
0000
0300
0000
0000
1000
0000
0010
0000
1000
0000
0010
0000
0000
0000
0000
0000
0001
0000
0010
0000
0001
0000
,
0010
0000
0000
0000
0000
0000
1000
0000
0010
0000
0100
0000
0001
0000
0000
1000
0000
0000
0002
0000
0000
0000
0000
0000
,
1003
0000
0000
0001
0010
0001
1000
0000
0000
1000
0001
1000
,
0010
0000
0000
0000
0010
0000
0100
0000
0000
0000
0100
0000
0010
0000
0000
1000
0000
0000
0001
0000
0000
0001
0000
0000
,
1000
0000
0000
0001
0010
0001
0010
0000
0000
1000
0010
1000
,
0010
0000
0000
0000
0000
0000
0001
0000
0010
0000
0100
0000
1000
0000
0000
0001
0000
0000
2000
0000
0000
0000
0000
0000
,
3001
0000
0000
1000
0010
0100
0001
0000
0000
0001
1000
0100
,
0010
0000
0010
0100
0000
0100
0020
0000
0000
0030
0000
0000
;

//---------------dance-single - ----------------
#NOTEDATA:;
#CHARTNAME:;
#STEPSTYPE:dance-single;
#DESCRIPTION:;
#CHARTSTYLE:;
#DIFFICULTY:Hard;
#METER:14;
#RADARVALUES:0.540944,0.628622,0.163665,1.108458,0.621183,509.000000,487.000000,22.000000,149.000000,0.000000,0.000000,0.000000,0.000000,0.000000,0.540944,0.628622,0.163665,1.108458,0.621183,509.000000,487.000000,22.000000,149.000000,0.000000,0.000000,0.000000,0.000000,0.000000;
#CREDIT:;
#NOTES:
0000
0000
0000
0000
,
0000
0000
0000
0000
,
0000
0000
0000
0000
,
0000
0000
0000
0000
,
0000
0000
0000
0000
,
0000
0000
0000
0000
0000
0000
0000
0000
0000
0000
0000
0000
1000
0000
0000
0000
0020
0030
0000
0000
0020
0030
0000
0000
0001
0000
0000
0000
0000
0000
0000
0000
0000
0000
0000
0000
0001
0000
0000
0000
0020
0030
0000
0000
0020
0030
0000
0000
,
1000
0000
0000
0000
0000
0000
0000
0000
0000
0000
0000
0000
1000
0000
0000
0000
0200
0300
0000
0000
0200
0300
0000
0000
0001
0000
0000
0000
0000
0000
0200
0300
0000
0000
0000
0000
0200
0000
0000
0000
0000
0000
0000
0000
0000
0000
0000
0000
,
1300
0000
0000
0000
0000
0000
0000
0000
0000
0000
0000
0000
1000
0000
0000
0000
0200
0300
0000
0000
0200
0300
0000
0000
0001
0000
0000
0000
0000
0000
0000
0000
0000
0000
0000
0000
0001
0000
0000
0000
0200
0300
0000
0000
0200
0000
0000
0000
,
1000
0000
0000
0000
0000
0000
0000
0000
0320
0000
0000
0000
0001
0000
0000
0000
0000
0000
0000
0000
0130
0000
0000
0000
1200
0000
0000
0000
0000
0000
0000
0000
0000
1300
0000
0000
0000
0000
0000
0001
0000
0000
1000
0000
0000
0001
0000
0000
,
2000
0000
0000
0000
3000
0000
0000
0000
0010
1000
0000
0010
0000
0010
0000
0100
,
0002
0000
0000
0000
0003
0000
0000
0000
0010
0001
0000
0010
0000
0010
0000
0000
,
0001
0010
0001
0000
1000
0010
1000
0000
0001
0010
0001
0000
0200
0010
0300
0010
,
1000
0010
0000
1000
0000
0100
0010
0000
0002
0000
0010
0000
2000
0000
3003
0000
,
0001
0100
0001
0100
0010
0000
1000
0000
0100
0000
0100
2000
0000
3000
0001
0000
,
1000
0100
1000
0100
0010
0000
0001
0000
0100
0000
0100
0002
0000
0003
1000
0000
,
1010
0000
0000
0010
0001
0000
0000
0001
0010
0000
0010
2000
0000
3000
0010
0000
,
1000
0001
1000
0000
0100
0000
0010
1000
0000
0010
0002
0000
0000
0000
0003
0000
,
0001
0000
0100
0000
1000
0000
0100
0010
0000
0100
0001
1000
0000
1000
0001
0000
,
1000
0000
0100
0000
0001
0000
0100
0010
0000
0100
0010
0000
0001
0000
1000
0000
,
0010
0000
2000
0010
0000
0010
0000
0001
0000
3100
0010
0000
0100
0000
1000
0000
,
0100
0000
0001
0000
1000
0000
0010
0000
0001
1000
0000
1000
0100
0000
0010
0000
,
0011
0000
0000
0000
2000
0010
0000
0010
3000
0001
0100
0000
0010
0000
0010
0000
,
1010
0000
0000
0000
0002
0010
0000
0010
0003
1000
0100
1000
0100
0000
0010
0000
,
1000
0000
0001
0000
0100
0000
2000
0000
0000
0000
3010
0100
0000
0100
0010
0000
,
0001
0000
1000
0000
0100
0000
0002
0000
0000
0000
0103
0000
0010
1000
0001
0000
,
1001
0000
0000
0000
1001
0000
0001
0000
0010
0000
0100
0001
0000
0100
0000
2000
,
0000
0000
3001
0000
0001
0000
1000
0000
0010
0000
0100
1000
0000
0100
0000
0001
,
1000
0000
0000
0000
0000
0000
0001
0000
0000
0020
0030
0000
0000
0000
0000
0020
0030
0000
0100
0000
0000
0000
0000
0000
0001
0000
0000
0000
0000
0000
1000
0000
0000
0020
0030
0000
0000
0000
0000
0020
0030
0000
0001
0000
0000
0000
0000
0000
,
1000
0100
1000
0100
1000
0100
1000
0200
1000
0000
0000
0000
0310
0000
0000
0000
,
1001
0000
0000
0000
1001
0000
1000
0000
0010
0000
0100
0001
0000
0001
0000
0010
,
0100
0000
0000
1000
0000
0000
0020
0030
0000
0000
0000
0000
0020
0030
0000
0001
0000
0000
0200
0300
0000
0000
0000
0000
0200
0300
0000
1000
0000
0000
0020
0030
0000
0000
0000
0000
0021
0030
0000
0000
0000
0000
0000
0000
0000
0000
0000
0000
,
0001
0000
0000
0000
0000
0000
1000
0000
0000
0020
0030
0000
0000
0000
0000
0020
0030
0000
0100
0000
0000
0000
0000
0000
1000
0000
0000
0000
0000
0000
0001
0000
0000
0020
0030
0000
0000
0000
0000
0020
0030
0000
1000
0000
0000
0000
0000
0000
,
0002
0203
2300
3020
,
0032
0000
0000
0000
0000
0000
0003
0000
0000
0000
0000
0000
0001
0000
0000
0000
0020
0030
0000
0000
0020
0030
0000
0000
1000
0000
0000
0000
0000
0000
0001
0000
0000
0000
0000
0000
1000
0000
0000
0000
0020
0030
0000
0000
0020
0030
0000
0000
,
0001
0000
0000
0000
0000
0000
1000
0000
0000
0000
0000
0000
0001
0000
0000
0000
0200
0300
0000
0000
0200
0300
0000
0000
1000
0000
0000
0000
0000
0000
0200
0300
0000
0000
0000
0000
0200
0000
0000
0000
0000
0000
0000
0000
0000
0000
0000
0000
,
0301
0000
0000
0000
0000
0000
0000
0000
0000
0000
0000
0000
1000
0000
0000
0000
0020
0030
0000
0000
0020
0030
0000
0000
0001
0000
0000
0000
0000
0000
1000
0000
0000
0000
0000
0000
0001
0000
0000
0000
0020
0030
0000
0000
0020
0000
0000
0000
,
1000
0000
0000
0000
0000
0000
0000
0000
0230
0000
0000
0000
0001
0000
0000
0000
0000
0000
0000
0000
0310
0000
0000
0000
1000
0000
0000
0000
0000
0000
0010
0000
0000
0000
0000
0000
0001
0000
0000
0000
0000
0000
0010
0000
0000
1000
0000
0000
,
0000
0000
0000
0000
0000
0000
0000
0000
0000
0000
0000
0000
1000
0000
0000
0000
0200
0300
0000
0000
0200
0300
0000
0000
0001
0000
0000
0000
0000
0000
1000
0000
0000
0000
0000
0000
0001
0000
0000
0000
0200
0300
0000
0000
0200
0300
0000
0000
,
1000
0000
0000
0000
0000
0000
0001
0000
0000
0000
0000
0000
1000
0000
0000
0000
0020
0030
0000
0000
0020
0030
0000
0000
0001
0000
0000
0000
0000
0000
0020
0030
0000
0000
0000
0000
0020
0000
0000
0000
0000
0000
0000
0000
0000
0000
0000
0000
,
1030
0000
0000
0000
0000
0000
0000
0000
0000
0000
0000
0000
0001
0000
0000
0000
0020
0030
0000
0000
0020
0030
0000
0000
1000
0000
0000
0000
0000
0000
0001
0000
0000
0000
0000
0000
1000
0000
0000
0000
0020
0030
0000
0000
0020
0000
0000
0000
,
0001
0000
0000
0000
0000
0000
0000
0000
0230
0000
0000
0000
1000
0000
0000
0000
0000
0000
0000
0000
0310
0000
0000
0000
0021
0000
0000
0000
0000
0000
0000
0000
0000
0031
0000
0000
0000
0000
0000
1000
0000
0000
0001
0000
0000
1000
0000
0000
,
0200
0000
0000
0302
0203
2300
3020
0000
,
0032
0000
0000
0023
2030
3200
0320
0000
,
0230
0000
0000
0302
0203
2300
3002
0000
,
2000
3000
0200
0300
0020
0033
0002
0003
,
2002
3003
1000
0010
0010
0100
0001
1000
,
1000
0100
0010
0001
0001
1000
0010
0100
,
0100
0001
0101
0101
0000
1000
1001
2002
,
0000
0000
3003
0110
,
1001
0000
0000
0000
1001
0000
1000
0000
0100
0000
0010
1000
0000
0010
0000
0002
,
0000
0000
1003
0000
1000
0000
0001
0000
0100
0000
0010
0001
0000
0010
0000
1000
,
0001
0000
0000
0000
0000
0000
0010
0000
0000
2000
3000
0000
0000
0000
0000
2000
3000
0000
0100
0000
0000
0000
0000
0000
1000
0000
0000
0000
0000
0000
0100
0000
0000
0002
0003
0000
0000
0000
0000
0002
0003
0000
0010
0000
0000
0000
0000
0000
,
0001
0100
0001
0100
0001
0100
0001
0200
0001
0300
0010
0100
0001
0010
0100
0000
,
1001
0000
0000
0000
1001
0000
0001
0000
0010
0000
0100
1000
0000
1000
0000
0010
,
0100
0000
0000
0001
0000
0000
0020
0030
0000
0000
0000
0000
0020
0030
0000
1000
0000
0000
0200
0300
0000
0000
0000
0000
0200
0300
0000
0001
0000
0000
0020
0030
0000
0000
0000
0000
1020
0030
0000
0000
0000
0000
0000
0000
0000
0000
0000
0000
,
1000
0000
0000
0000
0000
0000
0010
0000
0000
0002
0003
0000
0000
0000
0000
0002
0003
0000
0100
0000
0000
0000
0000
0000
0001
0000
0000
0000
0000
0000
0100
0000
0000
2000
3000
0000
0000
0000
0000
2000
3000
0000
0010
0000
0000
0000
0000
0000
,
2000
3200
0302
0023
,
2030
0000
0000
0000
0000
0000
3000
0000
0000
0000
0000
0000
1000
0000
0000
0000
0020
0030
0000
0000
0020
0030
0000
0000
0100
0000
0000
0000
0000
0000
1000
0000
0000
0000
0000
0000
0001
0000
0000
0000
0020
0030
0000
0000
0020
0030
0000
0000
,
0100
0000
0000
0000
0000
0000
0001
0000
0000
0000
0000
0000
1000
0000
0000
0000
0200
0300
0000
0000
0200
0300
0000
0000
0001
0000
0000
0000
0000
0000
0020
0030
0000
0000
0000
0000
0020
0000
0000
0000
0000
0000
1000
0000
0000
0000
0000
0000
,
1030
0000
0000
0000
0000
0000
0000
0000
0000
0000
0000
0000
0001
0000
0000
0000
0020
0030
0000
0000
0020
0030
0000
0000
0100
0000
0000
0000
0000
0000
0001
0000
0000
0000
0000
0000
1000
0000
0000
0000
0020
0030
0000
0000
0020
0000
0000
0000
,
0001
0000
0000
0000
0000
0000
0000
0000
0230
0000
0000
0000
1000
0000
0000
0000
0000
0000
0000
0000
0310
0000
0000
0000
0001
0000
0000
0000
0000
0000
0010
0000
0000
0000
0000
0000
1000
0000
0000
0000
0000
0000
0010
0000
0000
0001
0000
0000
,
2000
0000
0000
0000
0000
0000
0000
0000
0000
0000
0000
0000
3001
0000
0000
0000
0200
0300
0000
0000
0200
0300
0000
0000
0010
0000
0000
0000
0000
0000
0001
0000
0000
0000
0000
0000
1000
0000
0000
0000
0200
0300
0000
0000
0200
0300
0000
0000
,
0010
0000
0000
0000
0000
0000
1000
0000
0000
0000
0000
0000
0001
0000
0000
0000
0020
0030
0000
0000
0020
0030
0000
0000
1000
0000
0000
0000
0000
0000
0200
0300
0000
0000
0000
0000
0200
0000
0000
0000
0000
0000
0001
0000
0000
0000
0000
0000
,
0301
0000
0000
0000
0000
0000
0000
0000
0000
0000
0000
0000
1000
0000
0000
0000
0020
0030
0000
0000
0020
0030
0000
0000
0100
0000
0000
0000
0000
0000
1000
0000
0000
0000
0000
0000
0001
0000
0000
0000
0020
0030
0000
0000
0020
0000
0000
0000
,
1000
0000
0230
0001
0000
0310
2020
0000
0000
0000
0000
0000
,
3030
0000
0000
0000
;

//---------------dance-single - ----------------
#NOTEDATA:;
#CHARTNAME:;
#STEPSTYPE:dance-single;
#DESCRIPTION:;
#CHARTSTYLE:;
#DIFFICULTY:Easy;
#METER:6;
#RADARVALUES:0.247623,0.265955,0.126468,0.528191,0.000000,233.000000,216.000000,17.000000,71.000000,0.000000,0.000000,0.000000,0.000000,0.000000,0.247623,0.265955,0.126468,0.528191,0.000000,233.000000,216.000000,17.000000,71.000000,0.000000,0.000000,0.000000,0.000000,0.000000;
#CREDIT:;
#NOTES:
0000
0000
0000
0000
,
0000
0000
0000
0000
,
0000
0000
0000
0000
,
0000
0000
0000
0000
,
0000
0000
0000
0000
,
0000
2000
3100
0200
,
0310
0020
0032
2003
,
3000
0002
0103
0200
,
0310
0010
2002
3003
,
0002
0003
0011
0000
,
2000
3000
1010
0000
,
0001
0001
0001
0010
,
0001
0100
0020
0030
,
1000
0010
0100
0100
,
0001
0010
0100
0100
,
1000
1100
0001
0101
,
1000
0010
0200
0300
,
0001
0010
0002
0000
0003
0000
0001
0000
,
1000
0010
2000
0000
3000
0000
1000
0000
,
0100
0010
0001
0100
,
0020
0230
0310
1000
,
1001
0000
0100
0010
,
1001
0000
0001
0010
,
0100
1000
0001
0100
,
0020
0000
0000
0030
,
1001
0001
0010
0001
,
1001
0001
0100
0001
,
2000
0010
3002
0100
,
1003
0001
1000
0000
0200
0000
0300
0000
,
1001
1000
0010
1000
,
0100
0001
0010
1000
,
0002
0010
2003
0100
,
3002
0203
0320
2030
,
3001
2000
3100
0200
,
0310
0000
0020
0000
0031
1000
0002
0000
,
1003
0002
0103
0200
,
0310
0000
0010
0000
1000
0001
1000
0000
,
1000
0002
0013
0020
,
0130
0000
0200
0000
1300
0001
2000
0000
,
3001
2000
3010
0020
,
0130
0100
2002
3003
,
0002
0000
0003
0000
,
0020
0000
0030
0000
,
2000
0000
3000
0000
,
0200
0300
0002
0003
,
1000
0100
0100
0010
,
0010
0001
0100
0010
,
1000
0001
1000
0000
0000
0000
1001
0000
,
2002
0000
0000
3003
,
1001
0010
1000
0100
,
1001
0010
0001
0100
,
0002
0010
2003
0100
,
3001
1000
0001
0000
0200
0000
0300
0000
,
1001
0001
0010
0001
,
0100
1000
0010
0001
,
2000
0010
3002
0100
,
2003
3200
0320
0032
,
1003
0002
0100
2003
,
0010
0000
3002
0000
0103
0001
0200
0000
,
0301
2000
0100
3002
,
0013
0000
0010
0000
0001
1000
0001
0000
,
0001
2000
0010
3002
,
0100
0000
2003
0000
3010
1000
0020
0000
,
1030
0002
0010
2003
,
3100
0100
2002
0000
,
3003
0000
0000
0000
;
