#VERSION:0.83;
#TITLE:HONEまで♥トゥナイト;
#SUBTITLE:;
#ARTIST:good-cool feat.Mickin' Tackin';
#TITLETRANSLIT:HONE made tonight;
#SUBTITLETRANSLIT:;
#ARTISTTRANSLIT:;
#GENRE:;
#CREDIT:;
#MUSIC:HONE made tonight.ogg;
#BANNER:;
#BACKGROUND:;
#CDTITLE:;
#SAMPLESTART:61.256;
#SAMPLELENGTH:15.000;
#SELECTABLE:YES;
#OFFSET:-0.333;
#BPMS:0.000=130.000;
#STOPS:176.000=0.462;
#BGCHANGES:;
#FGCHANGES:;

//--------------- dance-single - eataninja ----------------
#NOTEDATA:;
#STEPSTYPE:dance-single;
#DESCRIPTION:eataninja ;
#DIFFICULTY:Beginner;
#METER:2;
#RADARVALUES:0,0,0,0,0;
#NOTES:
0000
0000
0000
0000
,
0000
0000
0000
0000
,
0000
0000
0000
0000
,
0000
0000
0000
0000
,
0000
0000
0000
0000
,
0001
0000
1000
0000
,
0010
0000
0000
0000
,
1000
0000
0001
0000
,
0010
0000
0000
0000
,
1001
0000
0000
0000
,
0100
0000
0000
0000
,
0010
0000
0000
0000
,
0001
0000
0000
0000
,
1000
0000
0000
0000
,
0010
0000
0000
0000
,
0100
0000
0001
0000
,
0100
0000
0000
0000
,
1001
0000
0001
0000
,
0010
0000
0000
0000
,
0100
0000
0010
0000
,
0001
0000
0000
0000
,
1000
0000
0010
0000
,
1000
0000
0000
0000
,
0001
0000
0010
0000
,
0100
0000
0000
0000
,
1001
0000
0000
0000
,
1000
0000
0000
0000
,
0100
0000
0010
0000
,
0001
0000
0000
0000
,
1001
0000
0000
0000
,
1000
0000
0000
0000
,
0010
0000
0000
0000
,
0100
0000
0001
0001
,
0001
0000
0000
0000
,
1000
0000
0100
0000
,
0010
0000
0000
0000
,
0001
0000
0100
0000
,
0001
0000
0000
0000
,
1000
0000
0010
0000
,
0100
0000
0000
0000
,
0001
0000
1000
0000
,
0001
0000
0000
0000
,
0010
0000
0000
0000
,
0100
0000
0000
0000
,
1001
0000
0000
1000
,
0000
0001
0000
0100
,
0000
0000
0000
0001
,
0000
1000
0000
0100
,
0000
0000
0000
2002
,
0000
0000
3003
0000
;

//--------------- dance-single - eataninja ----------------
#NOTEDATA:;
#STEPSTYPE:dance-single;
#DESCRIPTION:eataninja;
#DIFFICULTY:Easy;
#METER:4;
#RADARVALUES:0,0,0,0,0;
#NOTES:
0000
0000
0000
0000
,
0000
0000
0000
0000
,
0000
0000
0000
0000
,
0000
0000
0000
0000
,
0000
0000
0000
0000
,
1000
0100
1000
0100
,
0000
0010
0000
0001
,
1000
0010
1000
0010
,
0000
0100
0000
0001
,
1001
0000
1000
0100
,
0010
0000
0001
0000
,
0100
0000
0000
0000
,
0010
0010
0010
0000
,
0100
0001
1000
0001
,
0010
0000
0100
0000
,
2001
0000
0000
0000
,
3010
0000
0010
0100
,
1001
0000
0001
0000
,
0100
0010
0000
0000
,
0100
0001
0010
0100
,
1000
0000
0000
0000
,
0001
1000
0001
0000
,
0010
1000
0010
0000
,
0100
1000
0001
0100
,
0020
0000
0000
0030
,
0110
0000
0100
0000
,
0001
1000
0000
0000
,
0100
0000
0010
0000
,
0200
2300
3002
0203
,
0310
0000
0010
0000
,
1000
0001
0000
0000
,
0010
0000
0100
0000
,
1001
0000
0110
0000
,
0200
0302
1003
0100
,
0010
0001
1000
0000
,
0020
2030
3001
0010
,
0100
0100
1000
0000
,
0002
2003
3010
1000
,
0001
0010
0100
0000
,
0020
0032
1003
0001
,
0100
0100
0100
0000
,
0100
0000
1000
0000
,
0100
0000
0001
0000
,
0010
0100
1000
0010
,
0000
0100
0100
0001
,
1000
0001
0100
2000
,
3000
0200
0300
0001
,
1000
0001
0010
2000
,
3000
0020
0030
2002
,
0000
0000
3003
0000
;

//--------------- dance-single - eataninja ----------------
#NOTEDATA:;
#STEPSTYPE:dance-single;
#DESCRIPTION:eataninja;
#DIFFICULTY:Medium;
#METER:8;
#RADARVALUES:0,0,0,0,0;
#NOTES:
0000
0000
0000
0000
,
0000
0000
0000
0000
,
0000
0000
0000
0000
,
0000
0000
0000
0000
,
0000
0000
0000
0000
,
1000
1001
0001
0100
,
1000
0100
0001
0000
0010
0100
1000
0000
,
0001
1001
1000
0010
,
0001
0010
1000
0000
0100
0010
0001
0000
,
1000
0000
1010
0000
0001
1000
0001
0000
,
0100
0000
0010
0000
0100
0001
1000
0000
,
0100
0110
0001
1001
,
1000
0010
0001
0010
1000
0000
0001
0000
,
1000
0000
1100
0000
0001
1000
0001
0000
,
0010
0000
0100
0000
0010
0001
1000
0000
,
0020
1000
0001
0130
,
0010
0000
1000
0000
0001
0010
0000
0100
,
1000
0000
1000
0010
0100
0001
1000
0000
,
0010
0000
0100
0010
0100
0001
1000
0000
,
0200
0301
0200
1300
,
0001
0000
1000
0000
0010
0100
0100
0000
,
0001
1000
0100
0000
0010
0001
0000
1001
,
0000
1000
0010
0000
0100
0010
0000
0001
,
0000
0010
1000
0010
0100
0000
1001
0000
,
1000
0100
1000
0000
0001
0010
0001
0000
,
1001
0000
1000
0010
0100
0000
0010
0000
,
1000
0001
0010
0000
0100
0000
0010
0000
,
0001
1000
0001
1000
0010
0000
0100
0000
,
0002
2003
3200
0310
,
1001
0000
0001
0100
0010
1000
0100
0000
,
0010
0001
1000
0000
0010
0000
0100
0000
,
0001
1000
0001
0000
0100
0010
1000
0000
,
0100
0100
0000
0000
1100
0000
0011
0000
,
2001
0000
0010
0000
3001
0010
0100
1000
,
0000
0010
0000
0001
0000
0010
1000
0000
,
1002
0000
0010
0000
1003
0010
0100
0001
,
0000
0010
1000
0010
0000
0100
0100
0000
,
2001
0000
0100
0000
3001
0100
0010
1000
,
0000
0100
0000
0001
0000
0100
1000
0000
,
1002
0000
0100
0000
1003
0100
0010
0001
,
0000
0100
1000
0100
0000
0010
0010
0000
,
1000
0000
0001
0000
0010
0001
0010
0000
,
0001
0000
1000
0000
0010
1000
0010
0000
,
1000
0100
0001
0000
0100
1000
0010
0000
,
2002
3003
0000
0000
0001
0000
0000
0000
0010
0000
0000
0000
0100
0000
0000
0000
,
0010
0011
1010
0002
,
1003
2000
3001
0010
,
0100
1100
0101
2000
,
3001
0002
1003
0220
,
0000
0000
0330
0000
;

//--------------- dance-single - eataninja ----------------
#NOTEDATA:;
#STEPSTYPE:dance-single;
#DESCRIPTION:eataninja;
#DIFFICULTY:Hard;
#METER:11;
#RADARVALUES:0,0,0,0,0;
#NOTES:
0000
0000
0000
0000
,
0000
0000
0000
0000
,
0000
0000
0000
0000
,
0000
0000
0000
0000
,
0000
0000
0000
0000
,
1000
0000
0001
0000
0100
0000
0001
0000
1000
0100
0000
0010
0000
0010
0001
0000
,
1000
1001
0101
0000
0100
0010
1000
1000
,
0001
0000
1000
0000
0100
0000
1000
0000
0001
0100
0000
0010
0000
0010
1000
0000
,
0001
0000
1001
0000
1100
0000
0000
0000
0100
0010
0000
0001
0000
1000
0010
0000
,
0100
0000
0001
1000
0010
0010
1000
0001
,
0010
0100
0001
0100
0010
0001
1000
0010
,
0100
0000
0001
0000
0001
0000
0000
0000
1000
0001
0000
1000
0001
0000
0010
0000
,
0100
0100
1000
1000
0002
0000
0203
0000
,
0310
0000
1000
0001
0100
0100
0001
1000
,
0100
0010
1000
0010
0100
1000
0001
0000
,
0201
0000
0310
1000
0001
0010
0100
0001
,
0100
1000
2000
0000
3001
0101
0000
1010
,
1100
0000
0100
0010
0001
0001
1000
0010
,
0001
0010
1000
0001
0010
0100
0100
0001
,
0100
1000
0001
1000
0010
0100
0010
1000
,
0001
0010
0100
1000
0001
0100
0100
2001
,
0000
3100
0001
0100
1000
0001
0100
0120
,
0000
0031
1000
0100
0010
1000
0001
0021
,
0000
0130
0001
1000
0010
0000
0100
1000
,
0001
0000
0100
0000
0100
0000
0000
0000
0010
0000
0100
0001
0100
0000
0010
0000
,
1001
0000
0001
0010
1000
0010
0100
1000
,
0001
0000
0100
0000
0010
0000
1000
0001
0000
1000
0100
0000
0010
0000
0001
0000
,
0100
0000
1000
0100
0001
0100
0010
0000
,
1000
0001
0110
0000
0001
1000
0110
0000
,
1001
0000
1000
0100
0010
0001
1000
0010
,
0001
0000
0010
0000
0100
0000
0010
1000
0000
0010
0100
0000
0001
0000
1000
0000
,
0100
0010
0001
1000
0010
0100
0001
1000
,
1100
1100
0000
0000
0011
0000
0101
0000
,
1020
0000
0000
0000
0031
0000
0000
0000
0010
0100
0000
0010
0000
1000
0001
0000
,
0000
0000
0010
0000
0100
0010
0100
0000
1000
0000
0001
0000
0010
0000
0100
0000
,
1200
0000
0000
0000
0301
0000
0000
0000
0100
0010
0000
0100
0000
1000
0001
0000
,
0000
0000
0100
0010
0100
0000
0001
0000
1000
0000
0100
0000
0010
0000
0001
0000
,
0021
0000
0000
0000
1030
0000
0000
0000
0010
0100
0000
0010
0000
0001
1000
0000
,
0000
0000
0010
0000
0100
0001
0100
0000
0010
0000
1000
0000
0001
0000
0100
0000
,
0201
0000
0000
0000
1300
0000
0000
0000
0100
0010
0000
0100
0000
0001
1000
0000
,
0000
0000
0100
0010
0100
0000
0010
0000
0001
1000
0000
0010
0000
0100
0001
0000
,
0010
0000
0000
0110
0000
0000
0100
0000
1000
0000
0000
1001
0000
0101
0000
0000
,
0100
0000
0010
1000
0000
0001
0000
1000
0100
1000
0000
0001
0000
0011
0000
0000
,
0010
1000
0001
1000
0010
0001
0100
0010
,
2002
3003
0000
0000
0001
0100
0001
0000
1000
0010
1000
0010
0100
0000
0000
0000
,
0101
0000
1010
0000
1100
0000
0100
0001
,
0200
0000
0310
0001
0200
0000
0310
0000
,
1010
0000
0101
0000
0011
0000
0010
1000
,
0010
0000
0001
0000
1000
0000
0010
0000
0100
0000
0001
1000
0200
0000
0000
0000
,
0000
0000
0000
0300
;
