#TITLE:HIT'N'SLAP;
#SUBTITLE:;
#ARTIST:ASLETICS;
#TITLETRANSLIT:;
#SUBTITLETRANSLIT:;
#ARTISTTRANSLIT:;
#GENRE:;
#CREDIT:;
#MUSIC:HIT'N'SLAP.ogg;
#BANNER:HIT'N'SLAP.png;
#BACKGROUND:HIT'N'SLAP-bg.png;
#CDTITLE:;
#SAMPLESTART:47.047;
#SAMPLELENGTH:11.214;
#SELECTABLE:YES;
#OFFSET:1.885;
#BPMS:0.000=103.000;
#STOPS:;
#BGCHANGES:4.750=Hit 'n' Slap.avi=1.000=1=0=0=StretchNoLoop==CrossFade==,
135.750=Hit 'n' Slap-bg.png=1.000=0=0=1
;
#FGCHANGES:;

//--------------- dance-single - ----------------
#NOTES:
     dance-single:
     :
     Hard:
     12:
     0,0,0,0,0:
0000
0000
0000
0000
,
0000
0000
0000
0000
,
0000
0000
0000
0000
,
1000
0000
0100
0000
0000
0000
0100
0000
1000
0000
1000
0000
0001
1000
0001
0000
,
0010
0000
0001
0000
0000
0000
0000
0000
1001
0000
1001
0000
1001
0000
1000
0001
,
1000
0000
0010
1000
0010
0000
0000
0000
0101
0000
0101
0000
1000
0000
0001
1000
,
0001
0000
0010
0001
0010
0000
0000
0000
1100
0000
1100
0000
0001
0000
0100
0001
,
0100
0000
0010
1000
0010
0000
0000
0000
1010
0000
1010
0000
0001
0000
0000
0000
,
0011
0000
1000
0100
1000
0000
0001
1000
0001
0000
0101
0000
1100
0000
0101
0000
,
0002
0000
0010
0000
0010
0000
0000
0010
0013
0000
0001
0000
0101
0000
0000
0000
,
2000
0000
0010
0000
0010
0000
0000
0010
3010
0000
1000
0001
0100
0000
0110
0000
,
0002
0000
0100
0000
0100
0000
0000
0100
0103
0000
0001
1000
0000
1000
0001
0000
,
0010
0000
0100
1000
0010
0000
0010
0100
0001
0000
0101
0000
0100
0001
0100
0001
,
1000
0000
1000
0100
0001
0000
0001
0100
0010
0000
0010
0100
0000
1000
0100
0000
,
0010
0000
0001
1000
0001
0000
0100
0000
0001
0010
0100
1000
0010
0000
1001
0000
,
0001
0000
0001
0100
1000
0000
1000
0100
0010
0000
0010
0100
0000
0001
1000
0001
,
1000
0000
0100
1000
0001
0000
0100
0001
1000
0000
0010
0100
0010
0000
0110
0000
,
2001
0000
0000
0000
0010
0000
0000
0010
3010
0000
1000
0000
0100
0000
0010
0000
,
0002
0000
0000
0000
0100
0000
0000
0100
0103
0000
0001
0000
0010
0000
0100
0000
,
2000
0000
0000
0000
0001
0000
0000
0001
3001
0000
1000
0000
0010
0000
0100
0000
,
0002
0000
0000
0000
1000
0000
0000
1000
1000
0000
1003
0000
0000
0000
0000
0000
,
0011
0000
0001
0010
0100
0000
1000
0000
1100
0000
0001
0000
0101
0000
0000
0000
,
1010
0000
1000
0010
0100
0000
0001
0000
0101
0000
1000
0000
1100
0000
0000
0000
,
0011
0000
0001
0100
0010
0000
1000
0000
1100
0000
0001
0000
0101
0000
1000
0000
,
2001
0000
0010
0010
0002
0000
3003
0000
,
1001
0000
1000
0100
1100
0000
0001
0100
0001
0000
0001
0010
0000
0100
0010
0000
,
1001
0000
1000
0100
0010
0000
0001
0100
0010
0100
0001
1000
0010
0000
0110
0000
,
1001
0000
0001
0100
0101
0000
1000
0100
1000
0000
0100
0010
0000
0001
1000
0001
,
0100
0000
0010
1000
0100
0000
0010
0001
1000
0000
0010
0100
0010
0000
0110
0000
,
1001
0000
1000
0100
1100
0000
0001
0100
0001
0000
0001
0010
0000
0100
0010
0000
,
1001
0000
1000
0010
0100
0000
0001
0000
1000
0100
0001
0100
1000
0100
0001
0100
,
1000
0000
0001
0010
0011
0000
0001
1000
0001
0000
0100
0010
0000
1000
0010
1000
,
0001
0100
1000
0100
0001
0010
1000
0010
0001
0100
1000
0100
0001
0010
1000
0010
,
0001
0000
1000
0001
0200
0000
0000
0000
0310
1000
0010
0000
0100
0001
0010
0000
,
2002
3003
0000
0000
;
