#TITLE:HEAVENLY MOON;
#SUBTITLE:;
#ARTIST:Tatsh;
#TITLETRANSLIT:;
#SUBTITLETRANSLIT:;
#ARTISTTRANSLIT:;
#GENRE:;
#CREDIT:;
#MUSIC:HEAVENLY MOON.ogg;
#BANNER:HEAVENLY MOON.png;
#BACKGROUND:HEAVENLY MOON-bg.png;
#CDTITLE:;
#SAMPLESTART:69.761;
#SAMPLELENGTH:17.000;
#SELECTABLE:YES;
#OFFSET:0.293;
#BPMS:0.000=185.000
,36.000=92.500
,54.000=185.000
;
#STOPS:54.000=0.973
,191.000=0.973
;
#BGCHANGES:;
#FGCHANGES:;

//--------------- dance-single - Princess Pamela ----------------
#NOTES:
     dance-single:
     Princess Pamela:
     Beginner:
     3:
     0,0,0,0,0:
0000
0000
0000
0000
,
0000
0000
0000
0000
,
0000
0000
0000
0000
,
0000
0000
0000
0000
,
0000
0000
0000
0000
,
1001
0000
0000
0000
,
0000
0000
0000
0000
,
0001
0000
0000
0000
,
1000
0000
1000
0000
,
0100
0000
0000
0000
,
0020
0000
0030
0000
,
0002
0000
0003
0000
,
2000
0000
3000
0000
,
0020
0000
0030
0000
,
0000
1000
0000
0000
,
0000
1000
0000
0000
,
0000
0100
0000
0000
,
0000
1000
0000
0000
,
0000
0001
0000
0000
,
0000
0001
0000
0000
,
0000
0100
0000
0100
,
0000
0010
0000
1000
,
0000
0000
0000
0001
,
0000
0000
0000
0010
,
0000
0000
0000
0100
,
0000
0010
0000
0001
,
0000
0000
0000
1000
,
0000
0000
0000
1001
,
0000
0000
0000
0001
,
0000
0100
0000
0000
,
0000
0000
0000
0010
,
0000
0000
0000
0010
,
0000
0000
0000
0010
,
0000
0000
0000
1000
,
0000
0000
0000
0100
,
0000
0000
0000
0100
,
0000
0000
0000
1000
,
0000
0000
0000
0001
,
0000
0000
0000
1001
,
0000
0000
0000
0000
,
0000
0000
0000
1000
,
0000
0000
0000
0010
,
0000
0000
0000
0100
,
0000
0000
0000
0001
,
0000
0000
0000
0010
,
0000
0000
0000
0001
,
0000
0000
0000
1000
,
0000
1000
0000
0001
,
0000
0000
0010
0000
,
0010
0000
0001
0000
,
0000
0000
0100
0000
,
0100
0000
0001
0000
,
0000
0000
1000
0000
,
1000
0000
0001
0000
,
0000
0000
1000
0000
,
0100
0000
0010
0000
,
0001
0000
0000
0001
,
0000
0000
0100
0000
,
0001
0000
0000
0001
,
0000
0000
1000
0000
,
0100
0000
0000
0100
,
0000
0000
1000
0000
,
0010
0000
0000
0000
,
0010
0000
0010
0000
,
0000
1001
0000
0000
,
1000
0000
0100
0000
,
0000
1000
0000
0000
,
0001
0000
0100
0000
,
0000
1001
0000
0000
,
0001
0000
1000
0000
,
0020
0000
0030
0000
,
0200
0000
0300
0000
,
0001
0000
0001
0000
,
0001
0000
0001
0000
,
1000
0000
1000
0000
,
0100
0000
0100
0000
,
0010
0000
0000
2002
,
0000
0000
3003
0000
,
0100
0000
0000
2002
,
0000
0000
3003
0000
,
1000
0000
1000
0000
,
1000
0000
1000
0001
;

//--------------- dance-single - Princess Pamela ----------------
#NOTES:
     dance-single:
     Princess Pamela:
     Easy:
     7:
     0,0,0,0,0:
0000
0000
0000
0000
,
0000
0000
0000
0000
,
0000
0000
0000
0000
,
0000
0000
0000
0000
,
0000
0000
0000
0000
,
0001
0001
1000
1000
,
0001
1000
0000
0000
,
0010
0100
0010
0000
0100
0000
0000
0000
,
0001
0000
0001
0000
1000
0001
1000
0000
,
0200
0000
0300
0000
,
0020
0030
0002
0003
,
2000
3000
0020
0030
,
0200
0300
0002
0000
,
2000
0000
3003
1001
,
0000
0001
0010
0100
,
0000
1000
0010
0100
,
0000
0001
1000
0100
,
0100
1000
0001
1000
,
0000
0010
0100
0001
,
0000
0010
0100
1000
,
0000
0001
0100
0010
,
0010
1000
0010
1000
,
0000
1000
0000
0000
0100
0000
1000
0000
,
0000
1000
0000
0000
0010
0000
1000
0000
,
0000
1000
0000
0000
0001
0000
0010
0000
,
0100
0010
0000
0001
,
0000
0001
0000
0000
0100
0000
0001
0000
,
0000
0001
0000
0000
1000
0000
0020
0000
,
0000
0000
0030
1000
,
0100
0010
0001
0000
,
0000
0000
0000
1000
,
0100
0000
1001
0001
,
0100
0000
1001
1000
,
0100
0000
1001
0001
,
0010
0000
0100
1000
,
0010
0000
1001
0001
,
0010
0000
1001
1000
,
0010
0000
1001
0001
,
0100
0000
0010
1000
,
0000
0100
0000
0000
0020
0000
0000
0000
,
0000
0000
0030
0000
,
0001
0000
0001
0000
,
0100
0000
0001
0010
,
0100
1000
0010
0100
,
0001
0010
0001
1000
,
0010
1000
0001
0100
,
0010
1000
0001
0100
,
0100
0100
0100
0010
,
1001
0000
1000
0100
,
0001
0000
0100
0000
1000
0000
0001
1000
,
0001
0000
0100
0010
,
1000
0000
0100
0000
0010
0000
0100
0010
,
0100
0000
1000
0001
,
0100
0000
1000
0000
0100
0000
0001
0100
,
0001
0000
0010
0001
,
1000
0000
0100
0000
1000
0001
1000
0000
,
0001
0000
0000
0001
0000
0000
0100
0000
,
0000
0010
0000
0000
1000
0000
0001
0000
,
1000
0000
0000
1000
0000
0000
0100
0000
,
0000
0010
0000
0000
0001
0000
1000
0000
,
0001
0000
0000
0100
0000
0000
0010
0000
,
0000
1000
0000
0000
0100
0000
1000
0000
,
0010
0000
0000
0000
0100
0010
0100
0000
,
0001
0000
0001
0000
1000
0001
1000
0000
,
0000
1001
0001
0010
,
0100
1000
0010
0100
,
0001
0010
0001
1000
,
0010
0100
0001
0010
,
0000
1001
1000
0010
,
1000
0001
0010
0100
,
2000
0000
0000
0000
,
3002
0000
0000
0000
0203
0000
0000
0300
,
0010
0110
0010
0110
,
0010
0110
0010
0110
,
1000
1001
1000
1001
,
0100
0110
0100
0110
,
0001
0000
0000
0001
0000
0000
2000
0000
,
0000
0000
0000
3000
,
0010
0000
0000
0010
0000
0000
0200
0000
,
0000
0000
0000
0300
,
0001
1000
0001
1000
,
0001
0000
1000
0000
0001
1000
0020
0000
,
0000
0000
0000
0000
,
0000
0000
0000
0000
,
0030
0000
0000
0000
;

//--------------- dance-single - Princess Pamela ----------------
#NOTES:
     dance-single:
     Princess Pamela:
     Medium:
     11:
     0,0,0,0,0:
0000
0000
0000
0000
,
0000
0000
0000
0000
,
0000
0000
0000
0000
,
0000
0000
0000
0000
,
0000
0000
0000
0000
,
0001
0000
1000
0001
1000
0000
0100
0000
,
1000
0000
0001
1000
0001
0000
0000
0000
,
0010
0001
0010
0000
0100
0000
0010
0001
,
1000
0000
0000
1000
0000
0000
0010
0000
0100
0000
0001
0000
0200
0000
0000
0000
,
0310
2000
3200
0320
0032
0000
0000
0000
,
0003
2000
3020
0230
0302
0000
0023
0230
,
0320
0000
0030
0002
2003
0000
0000
3000
,
0020
0000
0000
0000
0030
0000
0100
0001
2000
0000
0000
0000
0000
0000
0000
0000
,
0002
0000
0000
0000
0000
0000
0000
0000
3003
0000
0000
0000
1000
0000
0000
0100
,
0000
0000
1000
0000
0100
0000
0000
0010
0000
0000
0100
0000
0010
0000
0000
0001
,
0000
0000
1000
0000
0010
0000
0000
1000
0000
0000
0001
0000
0010
0000
0000
0001
,
0000
0000
0010
0000
0001
0000
0000
0100
0000
0000
0001
0000
0100
0000
0010
0000
,
0100
0000
0000
0000
0010
0000
0010
0000
1000
0000
0000
0000
0100
0000
0000
1000
,
0000
0000
0100
0000
1000
0000
0000
0001
0000
0000
1000
0000
0001
0000
0000
0010
,
0000
0000
0001
0000
0010
0000
0000
0100
0000
0000
0010
0000
0001
0000
1000
0000
,
0001
0000
1000
1000
0100
0000
1000
0010
,
1000
1010
0002
0013
,
0010
0001
0000
0001
0100
0000
0010
0000
,
0010
1000
0000
1000
0100
0000
0010
0000
,
0010
0001
0000
0001
0100
0000
0010
0100
,
0010
0000
1000
1000
0010
0000
1000
0000
,
1000
0100
0000
0100
0010
0000
0110
0000
,
0000
1000
0000
0000
0010
0000
2002
0000
,
0000
0000
3003
0101
,
1000
0000
0001
0010
0001
1000
0000
0000
,
0000
0000
0000
1100
,
1000
0001
0000
0001
0010
0000
0100
0000
,
1000
0001
0000
0001
0010
0000
0100
0000
,
1000
0001
0000
0001
0010
0000
0100
1000
,
0000
0001
0000
1000
0010
0000
0101
0000
,
0001
1000
0000
1000
0010
0000
0100
0000
,
0001
1000
0000
1000
0010
0000
0100
0000
,
0001
1000
0000
0100
1000
0000
0010
1000
,
0010
0100
0000
0000
0001
0000
0020
0000
,
0000
0230
0000
0000
2300
0000
0000
0000
,
0000
0000
3000
0010
,
1000
0010
1000
0000
0010
0000
0100
0010
,
0100
0000
0001
0000
0010
0000
0001
1000
,
0100
0000
0010
0000
0100
1000
0001
0000
,
0010
0000
0001
1000
0000
0010
1000
0000
,
0001
0010
0000
0001
1000
0000
0100
0010
,
0100
0000
1000
0000
0001
0000
0100
0010
,
0100
0010
0100
0010
0100
0000
0110
0000
,
1000
0001
1000
0100
1000
0000
0010
0000
,
0100
0010
0100
0000
0001
0100
0100
0000
,
0001
0100
0001
0010
0001
0000
1000
0000
,
0100
0010
0100
0000
1000
0100
0100
0000
,
1000
0010
1000
0001
0010
0000
0100
0000
,
0010
0001
1000
0000
0010
1000
1000
0000
,
0001
0100
0001
0000
1000
0100
1000
0000
,
0010
0000
0110
0000
0001
0001
1000
0001
,
1000
0100
0000
1000
0100
0000
1000
0010
,
0000
0100
0001
0000
0010
0100
0010
0000
,
0001
0100
0000
0001
0100
0000
0001
0010
,
0000
0100
1000
0000
0010
0100
0010
0010
,
1000
0100
0000
1000
0100
0000
0001
0100
,
0000
1000
0100
0000
0010
0001
1000
0000
,
0010
0000
0000
0000
0100
0000
0010
0000
0100
0000
0000
0100
0010
0000
0000
0000
,
1000
0001
1000
0001
0010
0100
1000
0001
,
0000
0000
1001
0000
1000
0000
0100
1000
,
0000
0010
1000
0000
0100
0010
0100
0000
,
1000
0010
0001
0010
,
1000
0001
1000
0000
0001
0100
0001
0001
,
0000
0000
1001
0000
0001
0010
0001
0000
,
0010
1000
0000
0010
0001
0000
0100
0000
,
0020
0000
0000
0000
,
2030
0000
0000
0000
3002
0000
0000
0003
,
0010
0100
0010
0100
0010
0100
0010
0100
,
0010
0100
0010
0100
0010
0100
0010
0100
,
1000
0001
1000
0001
1000
0001
1000
0001
,
0100
0010
0100
0010
0100
0010
0100
0010
,
1000
0000
0000
0100
0000
0000
2002
0000
,
0000
0000
0000
3003
,
0001
0000
0000
0100
0000
0000
2002
0000
,
0000
0000
0000
3003
,
0010
1001
0100
1001
,
0010
0000
1001
0000
0100
0100
0020
0000
,
0000
0000
0000
0000
,
0000
0000
0000
0000
,
0030
0000
0000
0000
;

//--------------- dance-single - Princess Pamela ----------------
#NOTES:
     dance-single:
     Princess Pamela:
     Hard:
     15:
     0,0,0,0,0:
0000
0000
0000
0000
,
0000
0000
0000
0000
,
0000
0000
0000
0000
,
0000
0000
0000
0000
,
0000
0000
0000
0000
,
0001
0010
0001
0010
0100
1000
0100
1000
,
0010
0100
0010
0100
0000
0000
0000
0000
,
0001
1000
0002
0000
0203
0000
0301
1000
,
0010
0000
0000
0010
0000
0000
0010
0000
1000
0000
0010
0000
1000
0001
1000
0001
,
1000
0002
0203
0320
2030
0000
0000
0000
,
3000
0002
0023
0230
2300
0000
3020
0230
,
0302
0000
0003
0020
0230
0000
0000
0300
,
2000
0000
0000
0000
3000
0000
0100
0010
0002
0000
0000
0000
0000
0000
0000
0000
,
2000
0000
0000
0000
0000
0000
0000
0000
3003
0000
0000
0000
1001
0000
0000
1000
,
0100
0000
1000
0000
0010
0000
0000
0100
0010
0000
0100
0000
0001
0000
0000
0001
,
0010
0000
0100
0000
1000
0000
0000
0001
1000
0000
0010
0000
0100
0000
0000
0100
,
0001
0000
0010
0000
0001
0000
0000
1000
0001
0000
0100
0000
0010
0000
0010
0000
,
0010
0000
0000
0000
1000
0000
0100
0000
1000
0000
0001
1000
0001
0000
0000
0001
,
0010
0000
0001
0000
0100
0000
0000
0010
0100
0000
0010
0000
1000
0000
0000
1000
,
0100
0000
1000
0000
0001
0000
0000
0010
0001
0000
1000
0000
0010
0000
0010
0000
,
0100
0000
0000
0000
0001
0000
0001
0000
1000
0001
1000
0001
1000
0000
0100
0000
,
0010
0000
0000
0000
0110
0000
0000
0000
0001
1000
0100
1000
0001
0000
0010
0000
,
0100
0010
0001
0100
0010
0000
1000
0100
,
0010
0100
1000
0010
0100
0000
0001
0010
,
0100
1000
0010
0100
0001
0000
1000
0001
,
1001
0000
0000
0000
1000
0000
0010
0000
1000
0000
0010
1000
0001
0000
0010
0000
,
0100
1000
0010
0100
0001
0000
0101
0000
,
0000
1000
0000
0000
0010
0000
2001
0000
,
0001
0000
0001
0000
3001
0000
1000
0010
,
1000
0000
0001
0000
0010
0100
0010
0100
1000
0001
1000
0001
0000
0000
0000
0000
,
0000
0000
0000
0000
0000
0000
1000
0001
,
1000
0100
0000
1000
1010
0000
0001
1000
,
0001
0100
0000
0001
0011
0000
0010
0100
,
1000
0100
0000
1000
1010
0000
0010
0100
,
1000
0100
0000
0001
0200
0000
0301
0010
,
0100
0010
0000
0001
1001
0000
1000
0010
,
0100
0010
0000
1000
1100
0000
0100
0010
,
0001
0100
0000
1000
0100
0000
0001
0001
,
1000
0010
0000
1000
0001
0000
0200
0000
,
0000
0320
0000
0000
2030
0000
0001
0000
,
0000
0001
0000
0001
3001
0000
1001
0000
,
1000
0000
0100
1000
0001
0000
0010
0001
,
1000
0000
0010
1000
0001
0000
0001
0010
,
0100
1000
0010
0100
0001
0010
0001
1000
,
0010
1000
0100
0010
0001
0100
0010
1000
,
0100
0001
0100
1000
0001
1000
0010
0100
,
0010
0001
0010
0100
0001
1000
0100
0100
,
0100
0000
0100
0000
0100
0000
0100
0000
1000
0000
0001
1000
0001
0000
0000
0000
,
1000
0000
0100
0000
0010
0000
0100
0000
0001
0000
0000
0100
1000
0000
0001
0000
,
0010
0000
0001
0000
0100
0000
0010
0000
1000
0000
0100
1000
0100
1000
0100
0000
,
0010
0000
0001
0000
1000
0000
0010
0000
0001
0000
0000
0010
0100
0000
0010
0000
,
1000
0000
0001
0000
0100
0000
0001
0000
1000
0000
0100
0000
0010
0100
1000
0100
,
0010
0000
0001
0000
0100
0000
0001
0000
1000
0000
0000
0100
0010
0000
0100
0000
,
1000
0000
0001
0000
0010
0000
0001
0000
1000
0000
0010
1000
0010
1000
0010
0000
,
0100
0100
0001
0000
0010
0010
0001
0000
,
1000
0100
1000
0000
0001
0100
0001
0000
1000
0001
1000
0001
0100
0010
0100
0000
,
0010
1000
0001
0010
0001
1000
0010
0100
,
0001
0000
0010
0000
0100
0000
1000
0000
0010
0000
0010
0000
0100
0000
0010
0100
,
0001
1000
0100
1000
0001
0010
1000
0010
,
0001
0000
1000
0000
0100
0000
0000
0000
1000
0000
0001
0000
0010
0001
1000
0010
,
1000
0001
0001
0010
0100
0100
1000
0010
,
0010
0000
0100
0000
0001
0000
0001
0000
0010
0000
0100
0000
1000
0100
1000
0001
,
0100
0101
1000
1100
,
1000
0010
1000
0000
0001
0010
0001
0000
1000
0100
1000
0100
1000
0001
0100
0001
,
0000
0000
1001
0000
0001
0100
0010
0100
,
0001
1000
0010
1000
0100
0001
0100
1000
,
0001
0010
0100
0010
0001
1000
0010
1000
,
0001
0000
0010
0000
1000
0000
0010
0000
0001
0010
0001
0000
0010
0001
1000
0010
,
0000
0000
1010
0000
1000
0100
0001
0100
,
1000
0010
1000
0001
0010
0001
0100
0010
,
2000
0001
0000
0001
,
3200
0000
0000
0000
1000
0000
0000
0000
0310
0000
0001
0000
1000
0000
0001
1000
,
0001
0100
1000
0100
0001
0010
1000
0010
,
0001
0100
1000
0100
0001
0010
1000
0010
,
0001
0001
1000
1000
0001
0001
1000
1000
,
0001
0010
0001
0000
1000
0010
1000
0000
0001
0100
0001
0100
0001
1000
0100
1000
,
0001
0000
0000
0110
0000
0000
2002
0000
,
0000
0000
0000
0000
0000
0000
0000
0000
3003
0000
0000
0000
0001
0010
0100
1000
,
0100
0000
0000
0110
0000
0000
2002
0000
,
0000
0000
0000
3003
,
1100
0101
1100
0101
,
1100
0000
0101
0000
0010
0100
2002
0000
,
0000
0000
0000
0000
,
0000
0000
0000
0000
,
3003
0000
0000
0000
;

//--------------- dance-double - Princess Pamela ----------------
#NOTES:
     dance-double:
     Princess Pamela:
     Easy:
     7:
     0,0,0,0,0:
00000000
00000000
00000000
00000000
,
00000000
00000000
00000000
00000000
,
00000000
00000000
00000000
00000000
,
00000000
00000000
00000000
00000000
,
00000000
00000000
00000000
00000000
,
00001000
00001000
00010000
00000000
,
00001000
00010000
00000000
00000000
,
00100000
01000000
00200000
00300000
,
10000000
00000000
00010000
00000000
10000000
00010000
10000000
00000000
,
02000000
00000000
03000000
00000000
,
00200000
00300000
00002000
00003000
,
00020000
00030000
00000200
00000300
,
00000020
00000030
00000002
00000000
,
00002000
00000000
00003003
00001001
,
00000000
00000001
00000100
00000010
,
00000000
00001000
00000100
00000010
,
00000000
00000100
00010000
00001000
,
00001000
00010000
00001000
00100000
,
00000000
00010000
01000000
00100000
,
00000000
10000000
01000000
00100000
,
00000000
00010000
01000000
00001000
,
00001000
00010000
00001000
00010000
,
00000000
00010000
00000000
00000000
00000100
00000000
00001000
00000000
,
00000000
00001000
00000000
00000000
00000100
00000000
00010000
00000000
,
00000000
00010000
00000000
00000000
00001000
00000000
00100000
00000000
,
00010000
00100000
00000000
01000000
,
00000000
01000000
00000000
00000000
10000000
00000000
00100000
00000000
,
00000000
01000000
00000000
00000000
00100000
00000000
20000000
00000000
,
00000000
00000000
30000000
01000000
,
00100000
00001000
00010000
00000000
,
00000000
00000000
00000000
00001000
,
00010000
00000000
00011000
00000100
,
00010000
00000000
00011000
00001000
,
00010000
00000000
00011000
00100000
,
00001000
00000000
00010000
00000010
,
00010000
00000000
00011000
00100000
,
00001000
00000000
00011000
00000100
,
00010000
00000000
00011000
00100000
,
00010000
00000000
01000000
00100000
,
00000000
10000000
00000000
00000000
00020000
00000000
00000000
00000000
,
00000000
00000000
00030000
00000000
,
01000000
00000000
01000000
00000000
,
00001000
00000000
00001000
00010000
,
00000100
00001000
00000010
00000100
,
00000001
00000010
00000100
00001000
,
00000100
00010000
00001000
00100000
,
00010000
01000000
00100000
10000000
,
10000000
10000000
00000000
10010000
,
01100000
00000000
00010000
00100000
,
00001000
00010000
00000100
00010000
,
00001000
00000000
00000010
00000100
,
00000010
00000000
00000001
00000000
00000100
00000000
00000010
00000100
,
00000010
00000000
00001000
00000100
,
00010000
00001000
00100000
00010000
,
01000000
00000000
00100000
10000000
,
01000000
00000000
01000000
00000000
10000000
00010000
10000000
00000000
,
00010000
00000000
00000000
00010000
00000000
00000000
00100000
00000000
,
00000000
00001000
00000000
00000000
00010000
00000000
00000000
00000000
,
00000100
00000000
00000000
00000100
00000000
00000000
00001000
00000000
,
00000000
00000010
00000000
00000000
00000100
00000000
00000000
00000000
,
00000001
00000000
00000000
00000010
00000000
00000000
00000100
00000000
,
00000000
00010000
00000000
00000000
00001000
00000000
00000000
00000000
,
00100000
00000000
00000000
00000000
00010000
00100000
00010000
00000000
,
10000000
00000000
10000000
00000000
00010000
10000000
00010000
00000000
,
00000000
10010000
00000000
00010000
,
00100000
00001000
00010000
00000010
,
00010000
00001000
01000000
00001000
,
00010000
00000100
00001000
00000010
,
00000000
00001001
00000000
00001000
,
00000100
00010000
00001000
01000000
,
00020000
00000000
00000000
00000000
,
20030000
00000000
00000000
00000000
32000000
00000000
00000000
03000000
,
00100000
00001000
00100000
00001000
,
00100000
00001000
00100000
00001000
,
00010000
00000100
00010000
00000100
,
00001000
00000001
00001000
00000000
00000001
00001000
00000001
00000000
,
00000100
00000000
00000000
00001000
00000000
00000000
00020000
00000000
,
00000000
00000000
00000000
00030000
,
00100000
00000000
00000000
00010000
00000000
00000000
00002000
00000000
,
00000000
00000000
00000000
00003000
,
00010000
00001000
00010000
00001000
,
00010000
00000000
00001000
00000000
00010000
00001000
00200000
00000000
,
00000000
00000000
00000000
00000000
,
00000000
00000000
00000000
00000000
,
00300000
00000000
00000000
00000000
;

//--------------- dance-double - Princess Pamela ----------------
#NOTES:
     dance-double:
     Princess Pamela:
     Medium:
     11:
     0,0,0,0,0:
00000000
00000000
00000000
00000000
,
00000000
00000000
00000000
00000000
,
00000000
00000000
00000000
00000000
,
00000000
00000000
00000000
00000000
,
00000000
00000000
00000000
00000000
,
00010000
00000000
00001000
00010000
00001000
00000000
00100000
00000000
,
00010000
00000000
01000000
00010000
01000000
00000000
00000000
00000000
,
00100000
10000000
00100000
00000000
01000000
00000000
00100000
10000000
,
00010000
00000000
00000000
00010000
00000000
00000000
00100000
00000000
00001000
00000000
00010000
00000000
00002000
00000000
00000000
00000000
,
00003000
00020000
00030200
00002300
00003200
00000000
00000000
00000000
,
00000300
00000020
00000032
00002003
00003020
00000000
00000230
00000320
,
00000230
00000000
00000300
00002000
00023000
00000000
00000000
00030000
,
00200000
00000000
00000000
00000000
00300000
00000000
01000000
00100000
02000000
00000000
00000000
00000000
00000000
00000000
00000000
00000000
,
00020000
00000000
00000000
00000000
00000000
00000000
00000000
00000000
03030000
00000000
00000000
00000000
00010000
00000000
00000000
00100000
,
00000000
00000000
00010000
00000000
00100000
00000000
00000000
00001000
00000000
00000000
00100000
00000000
00001000
00000000
00000000
00010000
,
00000000
00000000
00000100
00000000
00001000
00000000
00000000
00000100
00000000
00000000
00010000
00000000
00001000
00000000
00000000
00100000
,
00000000
00000000
00001000
00000000
00100000
00000000
00000000
00010000
00000000
00000000
00100000
00000000
01000000
00000000
10000000
00000000
,
01000000
00000000
00000000
00000000
10000000
00000000
10000000
00000000
00100000
00000000
00000000
00000000
01000000
00000000
00000000
00010000
,
00000000
00000000
01000000
00000000
00001000
00000000
00000000
00010000
00000000
00000000
00001000
00000000
00010000
00000000
00000000
00000100
,
00000000
00000000
00001000
00000000
00000010
00000000
00000000
00000100
00000000
00000000
00000001
00000000
00000010
00000000
00000010
00000000
,
00000001
00000000
00000100
00000100
00000001
00000000
00000010
00000000
,
00001000
00010000
00011000
00100000
,
00010000
00100000
00000000
00001000
00010000
00000000
00000010
00000000
,
00001000
00000010
00000000
00010000
00001000
00000000
00100000
00000000
,
00010000
00100000
00000000
00001000
00010000
00000000
00000100
00001000
,
00000100
00000000
00010000
00010000
00001000
00000000
01000000
00000000
,
00010000
01000000
00000000
00001000
00010000
00000000
00011000
00000000
,
00000000
00000100
00000000
00000000
00000010
00000000
00000220
00000000
,
00000000
00000000
00000330
00000001
,
00000100
00000000
00001000
00010000
00001000
00100000
00000000
00000000
,
00000000
00000000
00000000
01100000
,
01000000
10000000
00000000
10000000
00100000
00000000
01000000
00000000
,
00001000
00010000
00000000
00010000
00000010
00000000
00001000
00000000
,
00000100
00001000
00000000
00001000
00000010
00000000
00000100
00000001
,
00000000
00000010
00000000
00000001
00001000
00000000
00001100
00000000
,
00000100
00010000
00000000
00010000
00001000
00000000
00100000
00000000
,
00010000
10000000
00000000
10000000
00100000
00000000
01000000
00000000
,
00010000
10000000
00000000
01000000
10000000
00000000
00100000
01000000
,
00010000
01000000
00000000
00000000
00001000
00000000
00020000
00000000
,
00000000
00030200
00000000
00000000
00002300
00000000
00000000
00000000
,
00000000
00000000
00003000
00000010
,
00001000
00000010
00001000
00000000
00000100
00000000
00001000
00000100
,
00001000
00000000
00000001
00000000
00000100
00000000
00000001
00000010
,
00000000
00000100
00001000
00000000
00010000
00100000
00000000
01000000
,
00100000
00000000
00010000
01000000
00000000
10000000
01000000
00000000
,
00010000
00100000
00000000
00001000
00010000
00000000
00000010
00001000
,
00000010
00000000
00000100
00000000
00001000
00000000
00010000
00001000
,
00010000
00001000
00010000
00001000
00010000
00000000
00011000
00000000
,
00001000
00100000
00010000
00100000
00010000
00000000
01000000
00000000
,
00100000
10000000
00100000
00000000
10000000
01000000
01000000
00000000
,
10000000
00010000
00100000
00010000
00100000
00000000
00001000
00000000
,
00010000
00000100
00010000
00000000
00001000
00010000
00010000
00000000
,
00000010
00001000
00000010
00000100
00000001
00000000
00000010
00000000
,
00000100
00000010
00000001
00000000
00001000
00000010
00000010
00000000
,
00000100
00000001
00000100
00000000
00000010
00001000
00000010
00000000
,
00010000
00000000
00011000
00000000
00001000
00001000
00010000
00001000
,
00100000
00010000
00000000
01000000
00100000
00000000
10000000
01000000
,
00000000
00100000
00010000
00000000
00100000
00001000
00010000
00000000
,
00000100
00001000
00000000
00000010
00000100
00000000
00000001
00000010
,
00000000
00000100
00001000
00000000
00000010
00000100
00000010
00000010
,
00001000
00000100
00000000
00010000
00001000
00000000
00100000
00010000
,
00000000
01000000
00100000
00000000
10000000
01000000
10000000
00000000
,
00010000
00000000
01000000
00010000
02000000
00000000
03100000
00000000
,
10000000
00100000
10000000
00010000
00100000
01000000
00100000
00001000
,
00000000
00000000
00011000
00000000
00010000
00000000
00000100
00001000
,
00000000
00000010
00001000
00000000
00000100
00000010
00000100
00000000
,
00000010
00000001
00000100
00001000
,
00010000
00001000
00010000
00000000
00001000
00100000
00010000
00010000
,
00000000
00000000
10010000
00000000
00010000
00100000
00010000
00000000
,
10000000
01000000
00000000
00010000
01000000
00000000
10000000
00000000
,
00020000
00000000
00000000
00000000
,
02030000
00000000
00000000
00000000
03200000
00000000
00000000
00300000
,
00010000
00001000
00010000
00001000
00010000
00001000
00010000
00001000
,
00010000
00001000
00010000
00001000
00010000
00001000
00010000
00001000
,
00000010
00000100
00000010
00000100
00000010
00000100
00000010
00000100
,
00001000
00000001
00001000
00000001
00001000
00000001
00001000
00000001
,
00000100
00000000
00000000
00001000
00000000
00000000
00022000
00000000
,
00000000
00000000
00000000
00033000
,
01000000
00000000
00000000
00010000
00000000
00000000
00022000
00000000
,
00000000
00000000
00000000
00033000
,
00100000
00010000
01000000
00001000
,
00010000
00000000
00000100
00000000
00001000
00001000
00000020
00000000
,
00000000
00000000
00000000
00000000
,
00000000
00000000
00000000
00000000
,
00000030
00000000
00000000
00000000
;

//--------------- dance-double - Princess Pamela ----------------
#NOTES:
     dance-double:
     Princess Pamela:
     Hard:
     15:
     0,0,0,0,0:
00000000
00000000
00000000
00000000
,
00000000
00000000
00000000
00000000
,
00000000
00000000
00000000
00000000
,
00000000
00000000
00000000
00000000
,
00000000
00000000
00000000
00000000
,
00001000
00010000
00000000
00010000
00000000
00100000
00000000
10000000
,
00000000
01000000
00000000
01000000
00010000
00000000
00001000
00010000
,
00001000
00100000
00002000
00000000
00023000
00000000
00030100
00001000
,
00000001
00000000
00000000
00000001
00000000
00000000
00000001
00000000
00000100
00000000
00000001
00000000
00001000
00000001
00001000
00000001
,
00001000
00000020
00000230
00002300
00023000
00000000
00000000
00000000
,
00030000
00200000
02300000
03200000
20300000
00000000
32000000
03200000
,
00320000
00000000
00000000
00000000
00030000
00000000
20000000
00000000
31000000
00010000
00000000
00020000
00000000
00000000
00030000
00000000
,
00002000
00000000
00000000
00000000
00003000
00000000
00000100
00000010
00000200
00000000
00000000
00000000
00000000
00000000
00000000
00000000
,
00000002
00000000
00000000
00000000
00000000
00000000
00000000
00000000
00000303
00000000
00000000
00000000
00001001
00000000
00000000
00000001
,
00000000
00000000
00000100
00000000
00001000
00000000
00000000
00010000
00000000
00000000
00001000
00000000
00010000
00000000
00000000
00100000
,
00000000
00000000
10000000
00000000
01000000
00000000
00000000
00010000
00000000
00000000
01000000
00000000
10000000
00000000
00000000
10000000
,
00000000
00000000
00100000
00000000
01000000
00000000
00000000
00010000
00000000
00000000
00100000
00000000
01000000
00000000
01000000
00000000
,
01000000
00000000
00000000
00000000
00010000
00000000
00001000
00000000
00000100
00000000
00000010
00000000
00000100
00000000
00000000
00000001
,
00000000
00000000
00000010
00000000
00000100
00000000
00000000
00010000
00000000
00000000
00001000
00000000
00000010
00000000
00000000
00000100
,
00000000
00000000
00000010
00000000
00001000
00000000
00000000
00010000
00000000
00000000
01000000
00000000
00100000
00000000
00100000
00000000
,
00100000
00000000
00001000
00010000
00000200
00000000
00001300
00000010
,
00000100
00000000
00000000
00000000
00000110
00000000
00000000
00000000
00000001
00001000
00000001
00001000
00000001
00000000
00000000
00000000
,
00000010
00000100
00000010
00001000
00010000
00000000
00011000
00000000
,
00001000
00010000
01000000
00100000
01000000
00000000
10000000
00000000
,
00100000
01000000
00100000
00010000
00001000
00000000
00000100
00000100
,
00000100
00000000
00000000
00000000
00000001
00000000
00000010
00000000
00000001
00000000
00001000
00000001
00001000
00000000
00000000
00000000
,
00000100
00000010
00000100
00010000
00001000
00000000
00011000
00000000
,
00000000
00100000
00000000
00000000
01000000
00000000
20020000
00000000
,
00000000
00000000
00000000
00000000
30030000
00000000
10000000
00100000
,
01000000
00000000
00100000
00000000
00010000
00000000
00001000
00000000
00010000
00001000
00010000
00001000
00000000
00000000
00000000
00000000
,
00000000
00000000
00000000
00000000
00000000
00000000
01000000
00100000
,
00010000
00001000
00000100
00000010
00000100
00000000
00000010
00000100
,
00001000
00010000
00100000
01000000
00100000
00000000
01000000
00100000
,
00010000
00001000
00000100
00000010
00000100
00000000
00000001
00000010
,
00001000
00010000
00000000
00100000
00100000
00000000
01000000
00100000
,
00010000
00001000
00000100
00000010
00000100
00000000
00000010
00000100
,
00001000
00010000
00100000
01000000
00100000
00000000
00100000
01000000
,
00001000
00010000
00000010
00000100
00000010
00000000
00000100
00001000
,
00010000
01000000
00000000
01000000
00100000
00000000
00020000
00000000
,
00000000
20030000
00000000
00000000
30200000
00000000
01000000
00000000
,
00000000
01000000
00000000
01000000
01300000
00000000
01100000
00000000
,
10000000
00000000
01000000
10000000
00010000
00000000
00100000
00001000
,
00000000
00001000
00000000
00010000
00000100
00000000
00000010
00000100
,
00000010
00001000
00010000
00001000
00010000
01000000
00100000
01000000
,
10000000
01000000
00100000
01000000
00010000
00001000
00010000
00001000
,
00000010
00000100
00000010
00001000
00010000
01000000
10000000
01000000
,
00010000
00001000
00000100
00000001
00000100
00001000
00010000
00010000
,
00010000
00000000
00010000
00000000
00010000
00000000
00010000
00000000
00001000
00000000
00010000
00001000
00100000
00000000
00000000
00000000
,
01000000
00000000
10000000
00000000
01000000
00000000
00010000
00000000
00001000
00000000
00000000
00100000
00000000
00000000
00010000
00000000
,
00110000
00000000
00000000
00000000
00101000
00000000
00000000
00000000
00001000
00000000
00010000
00001000
00010000
00001000
00010000
00000000
,
00000010
00000000
00001000
00000000
00000010
00000000
00000100
00000000
00001000
00000000
00000000
00000100
00000000
00000000
00000001
00000000
,
00000101
00000000
00000000
00000000
00000011
00000000
00000000
00000000
00000010
00000000
00000100
00000000
00001000
00000100
00001000
00000100
,
00001000
00000000
00000010
00000000
00010000
00000000
00001000
00000000
00100000
00000000
00000000
01000000
00000000
00000000
00100000
00000000
,
00110000
00000000
00000000
00000000
01010000
00000000
00000000
00000000
10000000
00000000
00100000
10000000
00100000
10000000
00100000
00000000
,
01000000
01000000
00001000
00000000
00010000
00010000
00000010
00000000
,
00001000
00000000
00000100
00000000
00000001
00000000
00000100
00000000
00001000
00000100
00001000
00000100
00001000
00000001
00001000
00000000
,
00000001
00000010
00000100
00000001
00000100
00000010
00000001
00000100
,
00001000
00000000
00010000
00000000
01000000
00000000
10000000
00000000
00100000
00000000
01000000
00000000
00100000
00000000
10000000
00100000
,
10000000
01000000
00100000
10000000
00100000
01000000
10000000
01000000
,
00010000
00000000
00001000
00000000
00000100
00000000
00000000
00000000
00000001
00000000
00000100
00000000
00000001
00001000
00000001
00001000
,
00000001
00000010
00000100
00000001
00000100
00000010
00000001
00000100
,
00001000
00000000
00010000
00000000
01000000
00000000
10000000
00000000
00100000
00000000
01000000
00000000
00010000
10000000
00010000
10000000
,
00010000
00000000
00000000
00000000
10000000
00000000
01000000
00000000
00100000
00000000
00000000
00010000
00100000
00000000
00000000
00000000
,
00001000
00010000
00001000
00000000
00010000
00000100
00010000
00000000
00000100
00001000
00000100
00000000
00001000
00000010
00000100
00000010
,
00000000
00000000
00011000
00000000
00010000
01000000
00100000
01000000
,
00010000
00001000
00000010
00000100
00001000
00000001
00000100
00001000
,
00000100
00000010
00000100
00001000
00010000
00100000
01000000
00100000
,
00010000
00000000
00001000
00000000
01000000
00000000
00010000
00000000
10000000
00010000
10000000
00000000
00010000
00100000
01000000
00100000
,
00000000
00000000
00011000
00000000
00001000
00000100
00000010
00000100
,
00001000
00010000
00100000
00010000
00001000
00010000
01000000
00100000
,
02000000
00000000
00000000
00000000
,
23000000
00000000
00000000
00000000
30200000
00000000
00000000
00300000
,
10000000
10000000
01000000
01000000
00010000
00010000
00001000
00001000
,
00000100
00000100
00000001
00000001
00000010
00000010
00001000
00001000
,
00010000
01000000
10000000
01000000
00010000
01000000
10000000
01000000
,
00100000
00000000
00001000
00000000
00010000
00000000
00000100
00000000
00001000
00000000
00000010
00000000
00000100
00000001
00000100
00000001
,
00000010
00000000
00000000
00000110
00000000
00000000
00022000
00000000
,
00000000
00000000
00000000
00000000
00000000
00000000
00000000
00000000
00033000
00000000
00000000
00000000
00010000
00001000
00010000
00001000
,
00100000
00000000
00000000
01100000
00000000
00000000
00022000
00000000
,
00000000
00000000
00000000
00033000
,
00100000
00011000
00000010
00011000
,
01000000
00000000
00011000
00000000
00000100
00000010
00002002
00000000
,
00000000
00000000
00000000
00000000
,
00000000
00000000
00000000
00000000
,
00003003
00000000
00000000
00000000
;
