#VERSION:0.83;
#TITLE:HAPPY limelight;
#SUBTITLE:;
#ARTIST:Qrispy Joybox feat.Megumi Tatsumi;
#TITLETRANSLIT:;
#SUBTITLETRANSLIT:;
#ARTISTTRANSLIT:;
#GENRE:Techno Pop;
#ORIGIN:;
#CREDIT:;
#BANNER:HAPPY limelight.png;
#BACKGROUND:HAPPY limelight-bg.png;
#PREVIEWVID:;
#JACKET:HAPPY limelight-jacket.png;
#CDIMAGE:;
#DISCIMAGE:;
#LYRICSPATH:;
#CDTITLE:cdtitle.png;
#MUSIC:HAPPY limelight.ogg;
#OFFSET:-0.340795;
#SAMPLESTART:61.216705;
#SAMPLELENGTH:14.014599;
#SELECTABLE:YES;
#BPMS:0.000=137.000;
#STOPS:;
#DELAYS:;
#WARPS:;
#TIMESIGNATURES:0.000=4=4;
#TICKCOUNTS:0.000=4;
#COMBOS:0.000=1;
#SPEEDS:0.000=1.000=0.000=0;
#SCROLLS:0.000=1.000;
#FAKES:;
#LABELS:0.000=Song Start;
#BGCHANGES:;
#KEYSOUNDS:;
#ATTACKS:
;

//---------------dance-single - ----------------
#NOTEDATA:;
#CHARTNAME:;
#STEPSTYPE:dance-single;
#DESCRIPTION:;
#CHARTSTYLE:;
#DIFFICULTY:Challenge;
#METER:13;
#RADARVALUES:0.619941,0.591293,0.422177,0.000000,0.274906,442.000000,399.000000,43.000000,0.000000,0.000000,0.000000,0.000000,0.000000,0.000000,0.619941,0.591293,0.422177,0.000000,0.274906,442.000000,399.000000,43.000000,0.000000,0.000000,0.000000,0.000000,0.000000,0.000000;
#CREDIT:;
#NOTES:
// measure 0
0000
0000
0000
0000
,  // measure 1
0000
0000
0000
0000
,  // measure 2
1000
0001
0010
0000
1010
0000
0101
0000
,  // measure 3
1000
0000
0100
0000
0001
0000
0100
0000
1000
0000
0001
1000
0001
0000
0100
0000
,  // measure 4
0010
1000
1000
0001
0010
1000
0010
0001
,  // measure 5
1000
0010
1000
0010
1000
0000
0001
0010
0001
0010
0001
0000
1000
0000
0000
0000
,  // measure 6
0001
1000
0010
0000
0011
0000
1100
0000
,  // measure 7
0001
0000
0100
0000
1000
0000
0100
0000
0001
0000
1000
0001
1000
0000
0100
0000
,  // measure 8
0010
0000
0001
0010
0001
0000
1000
0000
1000
0000
0001
0100
0001
0000
0101
0000
,  // measure 9
0000
0000
0000
0000
,  // measure 10
0001
0010
0011
0000
1000
0100
0001
1000
,  // measure 11
0010
0000
0001
0000
1000
0000
0001
1000
0001
0000
0010
0000
0100
0000
1000
0000
,  // measure 12
0001
1000
1010
0000
0001
0100
1000
0001
,  // measure 13
0010
0000
1000
0000
0001
0000
1000
0001
1000
0000
0010
0000
1000
0000
0100
0000
,  // measure 14
0010
0001
1001
0000
0001
0100
1000
0100
,  // measure 15
0001
0010
1000
0010
0001
1000
0010
0100
,  // measure 16
0101
0101
0000
1000
0001
0010
0100
1100
,  // measure 17
0000
0000
0001
0000
1000
0000
1001
0000
0000
0000
1000
0000
0001
1000
0001
1000
,  // measure 18
0001
0100
0110
0000
0100
0010
0001
1000
,  // measure 19
0100
0000
0010
0000
1000
0000
0001
0100
0010
0000
1000
0000
0001
0000
1000
0000
,  // measure 20
0100
0010
0110
0000
0100
0010
1000
0001
,  // measure 21
0100
0000
0010
0000
0001
0000
1000
0100
0010
0000
0001
0000
1000
0000
0001
0000
,  // measure 22
0100
0010
1001
0000
1000
0100
0001
0100
,  // measure 23
1000
0000
0010
0000
0001
0000
0010
0000
1000
0000
1001
0000
0000
0000
0001
1000
,  // measure 24
0100
0000
0000
0011
0000
0000
0000
1010
,  // measure 25
0000
0000
0001
0000
0000
0000
0101
0000
0000
0000
1000
0001
1000
0000
0001
0000
,  // measure 26
0010
0000
0001
0000
0100
0000
0000
0000
1100
0000
0000
0100
1000
0000
0001
0000
,  // measure 27
1000
0000
0010
0000
0001
0000
0010
0000
1000
0001
1000
0000
0100
0000
0010
0000
,  // measure 28
0001
1000
0001
0100
0000
0000
0000
0000
1010
0000
1001
0000
0000
0000
0000
0000
,  // measure 29
1000
0001
1000
0100
0000
0000
0000
0000
0011
0000
1001
0000
0000
0000
0001
1000
,  // measure 30
0010
0000
1000
0000
0100
0000
0000
0000
0101
0000
0000
0100
0001
0000
1000
0000
,  // measure 31
0001
0000
0010
0000
1000
0000
0010
0000
0001
1000
0001
0000
0100
0000
0010
0000
,  // measure 32
1000
0100
0010
0001
0000
0000
0000
0000
0001
0100
0010
1000
0000
0000
1010
0000
,  // measure 33
0000
0001
0000
0011
0000
1000
0000
0000
,  // measure 34
0000
0000
0001
0000
0100
0000
0010
0000
1000
0000
1000
0000
0001
0010
0100
1000
,  // measure 35
0001
0010
1000
0000
1100
0000
1000
0100
,  // measure 36
0001
0000
0100
0000
1000
0000
0001
0000
0010
0000
0100
1000
0001
0000
1000
0000
,  // measure 37
0010
0100
1000
0100
0010
1000
0001
1000
,  // measure 38
0100
0010
0100
0010
0001
0000
0000
0000
1000
0001
1000
0000
0001
0100
0010
1000
,  // measure 39
0001
0100
1000
0000
1010
0000
1000
0010
,  // measure 40
0001
0000
0010
0000
1000
0000
0001
0000
0010
0000
0100
0010
0100
0000
1000
0000
,  // measure 41
1001
1001
0000
1010
0000
0001
0000
0011
,  // measure 42
0000
0000
1000
0001
1000
0000
1001
0000
0000
0000
0000
0000
1000
0010
0100
0001
,  // measure 43
1000
0010
0001
0000
0101
0000
0001
0100
,  // measure 44
1000
0000
0100
0000
0001
0000
1000
0000
0010
0000
0100
0001
1000
0000
0001
0000
,  // measure 45
0010
0100
0001
0100
0010
0001
1000
0001
,  // measure 46
0100
0010
0100
0010
1000
0000
0000
0000
0001
1000
0001
0000
1000
0100
0010
0001
,  // measure 47
1000
0100
0001
0000
0011
0000
0001
0010
,  // measure 48
1000
0000
0010
0000
0001
0000
1000
0000
0010
0000
0100
0010
0100
0000
0001
0000
,  // measure 49
1001
0011
0000
1100
0000
0001
0000
0101
,  // measure 50
0000
1000
0010
1010
0000
0000
0000
0000
,  // measure 51
0001
0010
0001
0010
0001
0000
1000
0000
0001
0100
0001
0100
0001
0000
1000
0000
,  // measure 52
0001
1000
0100
0010
1000
0000
0011
0000
,  // measure 53
1000
0010
1000
0010
1000
0000
0001
0000
1000
0100
1000
0100
1000
0000
0001
0000
,  // measure 54
1000
0001
0100
0010
0001
0000
1010
0000
;

//---------------dance-single - ----------------
#NOTEDATA:;
#CHARTNAME:;
#STEPSTYPE:dance-single;
#DESCRIPTION:;
#CHARTSTYLE:;
#DIFFICULTY:Hard;
#METER:10;
#RADARVALUES:0.447424,0.430032,0.412359,0.000000,0.000000,319.000000,277.000000,42.000000,0.000000,0.000000,0.000000,0.000000,0.000000,0.000000,0.447424,0.430032,0.412359,0.000000,0.000000,319.000000,277.000000,42.000000,0.000000,0.000000,0.000000,0.000000,0.000000,0.000000;
#CREDIT:;
#NOTES:
0000
0000
0000
0000
,
0000
0000
0000
0000
,
1000
0001
0010
0000
1010
0000
0101
0000
,
1000
0100
0010
0001
0000
1000
0000
1000
,
0000
0001
0100
0000
0010
1000
0001
1000
,
0100
0001
0010
1000
,
0001
1000
0010
0000
0011
0000
1100
0000
,
0001
0100
0010
1000
0000
0001
0000
0001
,
0000
1000
0100
0000
0010
0100
0010
1001
,
0000
0000
0000
0000
,
0001
0000
1001
0000
0001
1000
0001
0100
,
0000
1000
0000
0100
0000
0001
0000
0001
,
1000
0000
1001
0000
1000
0001
1000
0100
,
0000
0001
0000
0100
0000
1000
0000
1000
,
0001
0000
1001
0000
1000
0001
1000
0010
,
0000
0001
0000
0100
0000
1000
0000
0001
,
0100
0010
0000
1010
0000
0001
0000
1100
,
0000
0001
0000
1010
0000
0001
0010
0100
,
1000
0000
1001
0000
1000
0001
0100
1000
,
0000
0100
0000
0001
0000
1000
0100
0010
,
0001
0000
1001
0000
0001
1000
0100
0001
,
0000
0100
0000
1000
0000
0001
0100
0010
,
1000
0000
1001
0000
0001
1000
0001
0010
,
0000
1000
0000
0100
0000
0001
0000
0001
,
1001
0000
0000
0011
0000
0000
0000
0011
,
0000
1000
0000
0101
0000
1000
0000
0001
,
1000
0001
0010
0000
1010
0000
1000
0010
,
0100
0001
1000
0100
0000
0010
0000
0001
,
1000
1000
0000
0000
1010
1010
0000
0000
,
0001
0001
0000
0000
0011
0011
0000
0000
,
0001
1000
0010
0000
0011
0000
0001
0010
,
0100
1000
0001
0100
0000
0010
0000
1000
,
0001
0011
0000
0000
1000
1010
0000
1001
,
0000
0010
0000
1001
0000
0100
0000
0000
,
0000
0000
0000
0000
0000
0000
1000
0001
,
1000
0010
0001
0000
0101
0000
0001
0100
,
0001
0100
0010
1000
0000
1000
0001
0010
,
0000
0010
0100
1000
0001
0100
0010
1000
,
0001
0001
0010
0000
1010
0000
1000
0001
,
1000
0100
0001
0000
0011
0000
0001
0010
,
0001
0010
0100
1000
0000
0001
0100
0010
,
1000
1000
0000
1010
0000
0001
0000
0011
,
0000
1000
0000
1010
0000
0000
0001
1000
,
0001
0010
1000
0000
1100
0000
1000
0100
,
1000
0100
0010
0001
0000
0001
1000
0010
,
0000
0010
0100
0001
1000
0100
0010
0001
,
1000
1000
0010
0000
0011
0000
0001
1000
,
0001
0100
1000
0000
1010
0000
1000
0010
,
1000
0010
0100
0001
0000
1000
0100
0010
,
0001
0001
0000
1100
0000
0010
0000
0101
,
0000
0010
0000
1100
0000
0000
0000
0000
,
0001
0001
0100
0000
1000
1000
0100
0000
,
0001
0010
0001
0010
1000
0000
0011
0000
,
1000
1000
0100
0000
0001
0001
0100
0000
,
1000
0010
1000
0010
0001
0000
1010
0000
;

//---------------dance-single - ----------------
#NOTEDATA:;
#CHARTNAME:;
#STEPSTYPE:dance-single;
#DESCRIPTION:;
#CHARTSTYLE:;
#DIFFICULTY:Medium;
#METER:7;
#RADARVALUES:0.336620,0.376278,0.333814,0.000000,0.000000,240.000000,206.000000,34.000000,0.000000,0.000000,0.000000,0.000000,0.000000,0.000000,0.336620,0.376278,0.333814,0.000000,0.000000,240.000000,206.000000,34.000000,0.000000,0.000000,0.000000,0.000000,0.000000,0.000000;
#CREDIT:;
#NOTES:
0000
0000
0000
0000
,
0000
0000
0000
0000
,
1000
0001
0010
0000
0100
0000
0100
0000
,
0010
0001
1000
0000
1001
0000
0000
0000
,
0001
0100
0010
1000
,
0100
0000
0100
1000
,
0001
1000
0010
0000
0100
0000
0100
0000
,
0010
1000
0001
0000
1001
0000
0000
0000
,
1000
0000
0100
0000
0010
0000
0000
1001
,
0000
0000
0000
0000
,
0100
0000
1001
0000
0000
0001
0100
0010
,
0000
0010
0000
0000
0000
0000
0000
0000
,
0100
0000
1001
0000
0000
1000
0100
0010
,
0000
0010
0000
0100
0000
0000
0000
0000
,
0010
0000
1001
0000
0000
0001
0100
0010
,
0000
1000
0000
0001
0000
0001
0000
1000
,
0100
0010
0000
0011
0000
0000
0000
1000
,
0000
0010
0000
0100
0000
0001
0000
0000
,
1001
0000
0001
0000
1000
0001
0000
0010
,
0000
1000
0000
0010
0000
0001
0000
0000
,
1001
0000
1000
0000
0001
1000
0000
0010
,
0000
0001
0000
0010
0000
1000
0000
0000
,
1001
0000
0001
0000
1000
0001
0000
0010
,
0000
1000
0000
0100
0000
0001
0000
0000
,
1001
0000
0000
0011
0000
0000
0000
1100
,
0000
1000
0000
1010
0000
1000
0000
0000
,
0001
0010
0100
0000
0100
0000
0010
0000
,
0001
1000
0001
0100
0000
0000
0010
0000
,
1010
0000
0000
0000
1000
0001
0000
0000
,
0011
0000
0000
0000
0001
1000
0000
0000
,
1000
0010
0100
0000
0100
0000
0010
0000
,
1000
0001
1000
0100
0000
0000
0010
0000
,
0011
0000
0000
0000
1010
0000
0000
0110
,
0000
0010
0000
1001
0000
0100
0000
0000
,
0000
0000
0000
0001
,
1000
0001
0010
0000
1010
0000
0101
0000
,
1000
0100
1000
0000
0001
0000
0001
0000
,
1000
0010
0100
0000
0001
0000
0010
0000
,
0010
0000
0010
0001
,
1000
0001
0100
0000
1100
0000
0011
0000
,
1000
0010
1000
0000
0001
0000
0010
0000
,
0110
0000
0000
1001
0000
0000
0000
1000
,
0000
0010
1000
0100
0000
0000
0010
0000
,
0001
1000
0010
0000
0011
0000
1100
0000
,
0001
0100
0001
0000
1000
0000
1000
0000
,
0001
0010
0100
0000
1000
0000
0010
0000
,
0010
0000
0010
1000
,
0001
1000
0100
0000
0101
0000
1010
0000
,
0001
0010
0001
0000
1000
0000
0010
0000
,
0101
0000
0000
1100
0000
0000
0000
0001
,
0000
1000
0001
1000
0000
0000
0000
0000
,
0001
0001
1000
1000
,
0100
0000
0000
0010
0001
0000
0011
0000
,
1000
1000
0001
0001
,
0100
0000
0000
0010
1000
0000
1010
0000
;

//---------------dance-single - ----------------
#NOTEDATA:;
#CHARTNAME:;
#STEPSTYPE:dance-single;
#DESCRIPTION:;
#CHARTSTYLE:;
#DIFFICULTY:Easy;
#METER:5;
#RADARVALUES:0.203374,0.215016,0.098181,0.000000,0.000000,145.000000,135.000000,10.000000,0.000000,0.000000,0.000000,0.000000,0.000000,0.000000,0.203374,0.215016,0.098181,0.000000,0.000000,145.000000,135.000000,10.000000,0.000000,0.000000,0.000000,0.000000,0.000000,0.000000;
#CREDIT:;
#NOTES:
0000
0000
0000
0000
,
0000
0000
0000
0000
,
1000
0000
0010
0000
,
0100
0010
1000
0000
,
0010
1000
0100
0010
,
0001
0000
0000
0000
,
0001
0000
0010
0000
,
0100
0010
0001
0000
,
0010
0000
0001
0000
0100
0000
0000
1001
,
0000
0000
0000
0000
,
1000
1000
0000
1000
,
0100
1000
0000
0000
,
0001
0001
0000
0001
,
0100
0001
0001
0000
,
1000
1000
0000
1000
,
0100
0010
0001
0000
,
1001
0000
0010
0000
,
1001
0000
0100
0000
,
0001
0001
0010
0000
,
0100
0010
0001
0000
,
1000
1000
0010
0000
,
0100
0010
1000
0000
,
0001
0001
0010
0000
,
0100
1000
0001
0000
,
0100
0000
0000
0100
0000
0000
0000
0010
,
0000
0000
0000
1001
0000
0000
0000
0000
,
1000
0000
1000
0000
,
0010
1000
0100
0000
,
1001
0000
0001
0000
,
1001
0000
1000
0000
,
0001
0000
0001
0000
,
0010
0001
0100
0000
,
0010
0000
0000
0000
0010
0000
0000
1001
,
0000
0000
0000
0110
0000
0000
0000
0000
,
0000
0000
0000
0000
,
0001
0010
1000
0010
,
0001
0000
0001
0000
,
0001
0010
0100
1000
,
0001
0000
1000
0000
,
0001
0100
1000
0100
,
0001
0000
0001
0000
,
0010
0000
0000
0010
0000
0000
0000
1001
,
0000
0000
0000
1001
0000
0000
0000
0000
,
1000
0010
0001
0010
,
1000
0000
1000
0000
,
1000
0010
0100
0001
,
1000
0000
0001
0000
,
1000
0100
0001
0100
,
1000
0000
1000
0000
,
0001
0000
0000
0001
0000
0000
0000
1000
,
0000
0000
0000
1000
0000
0000
0000
0000
,
0001
0000
0001
0000
,
0100
0001
0010
0000
,
1000
0000
1000
0000
,
0100
1000
0010
0010
;

//---------------dance-single - ----------------
#NOTEDATA:;
#CHARTNAME:;
#STEPSTYPE:dance-single;
#DESCRIPTION:;
#CHARTSTYLE:;
#DIFFICULTY:Beginner;
#METER:2;
#RADARVALUES:0.123427,0.185562,0.068727,0.000000,0.000000,88.000000,81.000000,7.000000,0.000000,0.000000,0.000000,0.000000,0.000000,0.000000,0.123427,0.185562,0.068727,0.000000,0.000000,88.000000,81.000000,7.000000,0.000000,0.000000,0.000000,0.000000,0.000000,0.000000;
#CREDIT:;
#NOTES:
0000
0000
0000
0000
,
0000
0000
0000
0000
,
1000
0000
1000
0000
,
1000
0000
0000
0000
,
0100
0000
0100
0000
,
0010
0000
0000
0000
,
0001
0000
0001
0000
,
0001
0000
0000
0000
,
0100
0000
0100
0000
,
0010
0000
0000
0000
,
0000
1000
0000
0000
,
1000
1000
0000
0000
,
0000
0001
0000
0000
,
0001
0001
0000
0000
,
0000
1000
0000
0000
,
1000
1000
0000
0000
,
0100
0000
0000
0000
,
0010
0000
0000
0000
,
0000
0001
0001
0000
,
0100
0000
0000
0000
,
0000
1000
1000
0000
,
0100
0000
0000
0000
,
0000
0001
0001
0000
,
0100
0000
0000
0000
,
0010
0000
0000
0000
,
0010
0000
0000
0000
,
1000
0000
1000
0000
,
1000
0000
0000
0000
,
1001
0000
0000
0000
,
1001
0000
0000
0000
,
0001
0000
0001
0000
,
0001
0000
0000
0000
,
1000
0000
0001
0000
,
1001
0000
0000
0000
,
0000
0000
0000
0000
,
0001
0000
0001
0000
,
0001
0001
0001
0000
,
0010
0000
0100
0000
,
1000
0000
0000
0000
,
0001
0000
1000
0000
,
0001
0001
0001
0000
,
1001
0000
0000
0000
,
0110
0000
0000
0000
,
1000
0000
1000
0000
,
1000
1000
1000
0000
,
0010
0000
0100
0000
,
0001
0000
0000
0000
,
1000
0000
0001
0000
,
1000
1000
1000
0000
,
1001
0000
0000
0000
,
0110
0000
0000
0000
,
0001
0000
0001
0000
,
1000
0000
0000
0000
,
1000
0000
1000
0000
,
0001
0000
0000
0000
;
