#VERSION:0.83;
#TITLE:Gorgetech;
#SUBTITLE:;
#ARTIST:Shiron;
#TITLETRANSLIT:;
#SUBTITLETRANSLIT:;
#ARTISTTRANSLIT:;
#GENRE:;
#CREDIT:;
#MUSIC:gorgetech.ogg;
#BANNER:bn.png;
#BACKGROUND:bg.png;
#CDTITLE:cdtitle-sorae.png;
#SAMPLESTART:73.500;
#SAMPLELENGTH:12.000;
#SELECTABLE:YES;
#OFFSET:0.000;
#BPMS:0.000=160.000;
#STOPS:;
#SCROLLS:0.000=1.000,
32.000=0.000,
33.000=0.250,
33.250=0.500,
33.500=0.750,
33.750=1.000,
99.000=2.000,
99.250=1.000,
99.500=0.500,
100.000=1.000,
105.000=0.000,
106.500=0.250,
107.000=0.500,
107.500=0.750,
108.000=1.000,
113.000=0.000,
114.500=0.250,
115.000=0.500,
115.500=0.750,
116.000=1.000,
121.000=0.000,
122.500=0.250,
123.000=0.500,
123.500=0.750,
124.000=1.000,
129.000=0.000,
130.500=0.250,
131.000=0.500,
131.500=0.750,
132.000=1.000,
161.250=0.000,
161.375=2.000,
161.500=0.000,
161.625=2.000,
161.750=0.000,
161.875=2.000,
162.000=0.000,
162.125=2.000,
162.250=0.000,
162.375=2.000,
162.500=0.000,
162.625=2.000,
162.750=0.000,
162.875=2.000,
163.000=0.000,
163.125=2.000,
163.250=0.000,
163.375=2.000,
163.500=0.000,
163.625=2.000,
163.750=0.000,
163.875=2.000,
164.000=1.000,
194.000=0.000,
194.250=0.250,
194.500=0.500,
194.750=0.750,
195.000=1.000,
227.000=2.000,
227.250=1.000,
227.500=0.500,
228.000=1.000,
291.000=0.500,
291.500=1.000,
291.750=2.000,
292.000=1.000
;
#JACKET:jk.png;
#DISCIMAGE:;
#CDIMAGE:;
#BGCHANGES:;
#FGCHANGES:;

//--------------- dance-single - XO ----------------
#NOTEDATA:;
#STEPSTYPE:dance-single;
#DESCRIPTION:XO;
#DIFFICULTY:Medium;
#METER:13;
#RADARVALUES:0,0,0,0,0;
#CREDIT:sorae;
#NOTES:
0000
0000
0000
0000
,
0000
0000
0000
0000
,
0000
0000
0000
0000
,
0000
0000
0000
0000
,
0000
0000
0000
0000
,
1000
0010
1000
0000
0001
0010
0001
0000
,
0100
0010
1000
0000
0100
0010
0001
0000
,
1000
0010
1000
0000
0001
0010
0001
0000
,
0000
0000
MMMM
0000
,
2000
0000
0000
3001
0000
0000
2000
0000
0000
3010
0000
0000
0100
0000
0001
0000
,
0002
0000
0000
1003
0000
0000
0002
0000
0000
0013
0000
0000
0100
0000
1000
0000
,
2000
0000
0000
3001
0000
0000
2000
0000
0000
3100
0000
0000
1000
0000
0001
0000
,
0002
0000
0000
1003
0000
0000
0002
0000
0000
0103
0000
0000
0001
0000
1000
0000
,
2000
0000
0000
3100
0000
0000
0020
0000
0000
0130
0000
0000
1000
0000
0001
0000
,
0002
0000
0000
0103
0000
0000
0020
0000
0000
0130
0000
0000
0001
0000
1000
0000
,
2000
0000
0000
3100
0000
0000
0020
0000
0000
0130
0000
0000
1000
0000
0001
0000
,
0100
0000
0000
0010
0000
0000
1000
0001
1000
0001
0000
0000
,
2000
0000
0000
3100
0000
0000
0002
0000
0000
0103
0000
0000
0010
0000
0001
0000
,
0002
0000
0000
0103
0000
0000
2000
0000
0000
3100
0000
0000
0010
0000
1000
0000
,
2000
0000
0000
3100
0000
0000
0002
0000
0000
0103
0000
0000
0010
0000
0001
0000
,
0001
0000
0000
1000
0000
0000
0010
0000
0000
0100
0000
0000
0001
0000
1000
0000
,
0002
0000
0000
0013
0000
0000
2000
0000
0000
3010
0000
0000
0100
0000
1000
0000
,
2000
0000
0000
3010
0000
0000
0002
0000
0000
0013
0000
0000
0100
0000
0001
0000
,
0010
0000
0000
0100
0000
0000
1000
0000
0000
0010
0000
0000
0100
0000
0001
0000
,
0000
0000
0000
MMMM
,
1001
0000
0001
0010
0100
0000
1000
0001
,
0100
0001
1000
0000
0000
0000
0000
0000
,
1001
0000
1000
0010
0100
0000
0001
1000
,
0100
1000
0001
0000
0000
0000
0000
0000
,
1001
0000
0001
0100
0010
0000
1000
0001
,
0010
0001
1000
0000
0000
0000
0000
0000
,
1001
0000
1000
0100
0010
0000
0001
1000
,
0010
1000
0001
0000
0000
0000
0000
0000
,
1001
0000
0001
0010
0100
0000
1000
0010
,
0100
0010
1000
0001
0010
0000
0001
0000
,
1001
0000
1000
0010
0100
0000
0001
0010
,
0100
0010
0001
1000
0010
0000
1000
0000
,
1001
0000
0001
0100
0010
0000
1000
0100
,
0010
0100
1000
0001
0100
0000
0001
0000
,
1001
0000
1000
0100
0010
0000
0001
0100
,
0020
0000
0000
0000
,
1030
1000
0100
0100
,
0010
0010
0001
0001
,
1000
1000
0010
0010
,
0100
0100
0001
0002
,
1003
0100
1000
0001
1000
0010
0100
0001
,
1000
0010
1000
0100
0010
0001
2000
0000
,
3001
0100
0001
1000
0001
0010
0100
1000
,
0020
0130
0001
MMMM
,
1000
0001
0100
0001
0100
0010
0001
0010
,
0100
0001
0100
0001
0010
0100
1000
0000
,
0001
1000
0100
1000
0100
0010
1000
0010
,
0100
1000
0100
1000
0010
0100
0001
0000
,
1000
0001
0010
0001
0010
0100
0001
0100
,
0010
0001
0010
0001
0100
0010
1000
0000
,
0001
1000
0010
1000
0010
0100
1000
0100
,
0001
1000
0001
1000
0100
0000
MMMM
0000
,
1000
0000
0000
0000
0100
0000
0000
0010
0000
0000
0001
0000
0100
0000
0010
0000
,
0001
1000
0100
0010
1000
0001
0010
0000
,
0001
1000
0100
1000
0100
0010
1000
0001
,
0100
0010
0001
1000
0010
0100
0001
0000
,
1000
0001
0010
0001
0010
0100
0001
1000
,
0010
0100
1000
0001
0100
0010
1000
0000
,
0001
1000
0010
1000
0010
0100
1000
0001
,
0020
2030
3002
0000
,
0013
0100
1000
0001
0100
0001
0100
0010
,
1000
0000
0000
0100
0000
0000
1000
0000
0002
0000
0000
0000
0203
0000
0000
0000
,
0310
0100
0001
1000
0100
1000
0100
0010
,
0001
0000
0100
0001
2000
0000
3002
0000
,
0103
0010
1000
0001
0010
0001
0010
0100
,
1000
0000
0010
0000
0100
0001
1000
0000
,
0100
0010
0001
1000
0010
1000
0010
0100
,
0001
0000
0000
0010
0000
0000
0100
0000
1000
0000
0000
0000
0001
0000
0000
0000
,
1001
0000
0000
0000
;

//--------------- dance-single - FS SS ----------------
#NOTEDATA:;
#STEPSTYPE:dance-single;
#DESCRIPTION:FS SS;
#DIFFICULTY:Hard;
#METER:16;
#RADARVALUES:0,0,0,0,0;
#CREDIT:sorae;
#NOTES:
0000
0000
0000
0000
,
0000
0000
0000
0000
,
0000
0000
0000
0000
,
0000
0000
0000
0000
,
0000
0000
0000
0000
,
1000
0010
1000
0001
1000
0010
1000
0001
,
0010
0001
0100
0010
1000
0100
1000
0001
,
0010
0001
1000
0001
0010
0001
1000
0001
,
0000
0000
MMMM
0000
,
0001
0000
0000
0100
0010
0000
1000
0000
0001
0010
0001
0000
0100
00M0
0100
0000
,
1000
0000
0000
0100
0010
0000
0001
0000
1000
0010
1000
0000
0100
00M0
0100
0000
,
0001
0000
0000
0010
0100
0000
1000
0000
0001
0100
0001
0000
0010
0M00
0010
0000
,
1000
0000
0000
0010
0100
0000
0001
0000
1000
0100
1000
0000
0010
0M00
0010
0000
,
0001
0000
0000
0100
0010
0000
1000
0000
0100
1000
0010
0000
0100
000M
0100
0000
,
1000
0000
0000
0100
0010
0000
0001
0000
0100
0001
0010
0000
0100
M000
0100
0000
,
0001
0000
0000
0010
0100
0000
1000
0000
0010
1000
0100
0000
0010
000M
0010
0000
,
1000
0000
0000
0000
0000
0000
0100
0000
0000
0000
0000
0000
1000
0000
0000
0010
0000
0000
0000
0000
0000
0100
0000
0000
0001
0000
0000
0000
1000
0000
0000
0000
0001
0000
0000
0000
1000
0000
0000
0000
0000
0000
0000
0000
0000
0000
0000
0000
,
0001
0000
0000
0100
0010
0000
1000
0000
0001
0010
0100
0000
0001
M000
0001
0000
,
0010
0000
0000
0100
0010
0000
0001
0000
1000
0010
0100
0000
1000
000M
1000
0000
,
0010
0000
0000
0100
0010
0000
1000
0000
0001
0010
0100
0000
0001
M000
0001
0000
,
0010
0000
0100
1000
0000
0001
0100
0000
0010
1000
0000
0100
0010
0000
0001
0000
,
1000
0000
0000
0010
0100
0000
0001
0000
1000
0100
0010
0000
1000
000M
1000
0000
,
0100
0000
0000
0010
0100
0000
1000
0000
0001
0100
0010
0000
0001
M000
0001
0000
,
0200
0000
0000
0320
0000
0000
2030
0000
0000
3200
0000
0000
0310
0000
0001
0000
,
0000
4000
0000
0000
0000
3000
MMMM
0000
,
1001
0001
0100
0010
1000
0000
0001
0100
,
0001
0010
0001
0000
0000
0000
0000
0000
,
1001
1000
0100
0010
0001
0000
1000
0100
,
1000
0010
1000
0000
0000
0000
0000
0000
,
1001
0001
0010
0100
1000
0000
0001
0010
,
0001
0100
0001
0000
0000
0000
0000
0000
,
1001
1000
0010
0100
0001
0000
1000
0010
,
1000
0100
1000
0000
0000
0000
0000
0000
,
1010
0000
0010
0000
1000
0001
1000
0000
0100
0000
0010
0000
0001
0000
0100
0000
,
0010
1000
0010
0000
0100
0000
0001
0000
0010
0000
0100
0000
1000
0000
0001
0000
,
0011
0000
0010
0000
0001
1000
0001
0000
0100
0000
0010
0000
1000
0000
0100
0000
,
0010
0001
0010
0000
0100
0000
1000
0000
0010
0000
0100
0000
0001
0000
1000
0000
,
1100
0000
0100
0000
1000
0001
1000
0000
0010
0000
0100
0000
0001
0000
0010
0000
,
0100
1000
0100
0000
0010
0000
0001
0000
0100
0000
0010
0000
1000
0000
0001
0000
,
0101
0000
0100
0000
0001
0010
0100
0000
1000
0000
0010
0100
0001
0000
0010
0000
,
0200
0000
0000
0000
,
0310
0000
0100
0000
1000
0000
0001
0000
1000
0000
0001
0000
0100
0000
0010
1000
,
0001
0010
0100
0010
0001
0010
0100
1000
,
0010
0000
0100
0000
0001
0000
1000
0000
0001
0000
1000
0000
0100
0000
0010
0001
,
1000
0010
0100
0010
1000
0010
0200
0000
,
0301
0000
0010
0000
0100
0000
0010
0000
0100
0000
1000
0000
0010
0000
0100
0001
,
1000
0100
0010
0001
0100
0001
1000
0100
,
1000
0000
0010
0000
0100
0000
0010
0000
0100
0000
0001
0000
0010
0000
0100
1000
,
0010
0100
0001
0000
1000
0000
1000
0000
0100
0000
0000
0000
MMMM
0000
0000
0000
,
1000
0000
0001
0100
0010
0000
1000
0100
0010
0000
0100
0000
0001
M000
0001
0000
,
0010
0000
0100
0010
0001
0000
0100
0010
1000
0000
0001
0000
0010
0M00
0010
0000
,
1000
0000
0001
0010
0100
0000
1000
0010
0100
0000
0010
0000
0001
M000
0001
0000
,
0100
0000
0010
0100
0001
0000
0010
0100
1000
0000
0001
0000
0200
0000
0000
0000
,
0301
0000
1000
0100
0010
0000
0001
0100
0010
0000
0100
0000
1000
000M
1000
0000
,
0010
0000
0100
0010
1000
0000
0100
0010
0001
0000
1000
0000
0010
0M00
0010
0000
,
0001
0000
1000
0001
1000
0001
1000
0001
1000
0000
0100
0000
0010
0000
0001
0000
,
1000
1000
0001
0001
0100
0010
MMMM
0000
,
1000
0000
0001
1000
0001
0000
0010
0100
0000
0010
0100
0000
0001
M000
0001
0000
,
0010
0000
0100
0000
1000
0000
0001
0100
0000
0001
1000
0000
0100
00M0
0100
0000
,
0001
0000
1000
0100
1000
0000
0001
0100
0000
0010
0100
0000
1000
000M
1000
0000
,
0010
0000
0100
0000
0001
0000
1000
0100
0000
1000
0001
0000
0100
00M0
0100
0000
,
1000
0000
0001
0010
0001
0000
1000
0010
0000
0100
0010
0000
0001
M000
0001
0000
,
0100
0000
0010
0000
1000
0000
0001
0010
0000
0001
1000
0000
0010
0M00
0010
0000
,
0001
0000
1000
0010
1000
0000
0001
0010
0000
0100
0010
0000
1000
000M
1000
0000
,
0200
0000
0000
0000
1300
0001
1000
0001
0200
0000
0000
0000
0000
0000
0000
0000
,
0301
0000
0010
0000
0100
0000
1000
0001
1000
0000
0010
0100
0010
0000
1000
0000
,
0001
0000
0000
0010
0100
0000
1000
0000
0020
0000
0000
0000
1030
0000
0100
0000
,
1000
0000
0010
0000
0100
0000
0001
1000
0001
0000
0010
0100
0010
0000
0001
0000
,
1000
0000
0000
0010
0100
0000
0001
0000
0020
0000
0000
0000
0031
0000
1000
0000
,
0001
0000
0100
0000
0010
0000
1000
0001
1000
0000
0100
0010
0100
0000
1000
0000
,
0001
0000
0000
0100
0010
0000
1000
0000
0100
0000
1000
0000
0020
0000
0000
0000
,
1030
0000
0100
0000
0010
0000
0001
1000
0001
0000
0100
0010
0100
0000
0001
0000
,
0020
0000
0000
0000
0000
0000
0230
0000
0000
0000
0000
0000
1300
0000
0000
0000
0010
0000
0000
0000
0100
0000
0000
0000
0002
0000
0000
0000
0000
0000
0000
0003
,
1001
0000
0000
0000
;

//--------------- dance-single - FS SS XO ----------------
#NOTEDATA:;
#STEPSTYPE:dance-single;
#DESCRIPTION:FS SS XO;
#DIFFICULTY:Challenge;
#METER:17;
#RADARVALUES:0,0,0,0,0;
#CHARTNAME:;
#CHARTSTYLE:;
#CREDIT:sorae;
#METERF:17;
#NOTES:
0000
0000
0000
0000
,
0000
0000
0000
0000
,
0000
0000
0000
0000
,
0000
0000
0000
0000
,
0000
0000
0000
0000
,
1000
0010
1000
0001
1000
0010
1000
0001
,
0010
0001
0100
0010
1000
0100
1000
0001
,
0010
0001
1000
0001
0010
0001
1000
0001
,
0000
0000
MMMM
0000
,
0001
0000
1000
0001
0100
00M0
0200
0000
1300
0001
0100
00M0
0200
0000
1300
0000
,
1000
0000
0001
1000
0100
00M0
0200
0000
0301
1000
0100
00M0
0200
0000
0301
0000
,
0001
0000
1000
0001
0010
0M00
0020
0000
1030
0001
0010
0M00
0020
0000
1030
0000
,
1000
0000
0001
1000
0010
0M00
0020
0000
0031
1000
0010
0M00
0020
0000
0031
0000
,
0001
0000
1000
0010
0100
000M
0200
0000
0310
0001
0100
00M0
0200
0000
1300
0000
,
1000
0000
0001
0010
0100
M000
0200
0000
0310
1000
0100
00M0
0200
0000
0301
0000
,
0001
0000
1000
0100
0010
000M
0020
0000
0130
0001
0010
0M00
0020
0000
1030
0000
,
0001
0000
0000
0000
0000
0000
0100
0000
0000
0000
0000
0000
0001
0000
0000
0010
0000
0000
0000
0000
0000
0100
0000
0000
1000
0000
0000
0000
0001
0000
0000
0000
1000
0000
0000
0000
0001
0000
0000
0000
0000
0000
0000
0000
0000
0000
0000
0000
,
1000
0000
0010
0100
1000
000M
2000
0000
3010
1000
0100
000M
0200
0000
0301
0000
,
0001
0000
0010
0100
0001
M000
0002
0000
0013
0001
0100
M000
0200
0000
1300
0000
,
1000
0000
0010
0100
1000
000M
2000
0000
3010
1000
0100
000M
0200
0000
0301
0000
,
0001
0000
1000
0010
0000
1000
0100
0000
0010
0001
0000
0100
0001
0000
1000
0000
,
0001
0000
0100
0010
0001
M000
0002
0000
0103
0001
0010
M000
0020
0000
1030
0000
,
1000
0000
0100
0010
1000
000M
2000
0000
3100
1000
0010
000M
0020
0000
0031
0000
,
0011
0000
0000
1001
0000
0000
1010
0000
0000
1001
0000
0000
0001
0010
0100
1000
,
0000
0000
0000
0000
0001
0000
1000
0000
0001
0000
1000
0000
0001
0000
1000
0000
0001
0000
1000
0000
0001
0000
0000
0000
0020
0030
0000
0000
0000
0000
0000
0000
,
1001
0001
0100
0010
1000
0000
0001
0100
,
0001
0010
0001
0000
0000
0000
0000
0000
,
1001
1000
0100
0010
0001
0000
1000
0100
,
1000
0010
1000
0000
0000
0000
0000
0000
,
1001
0001
0010
0100
1000
0000
0001
0010
,
0001
0100
0001
0000
0000
0000
0000
0000
,
1001
1000
0010
0100
0001
0000
1000
0010
,
1000
0100
1000
0000
0000
0000
0000
0000
,
1010
0000
0010
0100
0001
0100
0001
0000
1000
0100
1000
0000
0001
0000
0100
0010
,
1000
0100
1000
0100
0010
0000
0100
0000
0001
0000
0100
0000
0010
0000
0001
0000
,
0011
0000
0010
0100
1000
0100
1000
0000
0001
0100
0001
0000
1000
0000
0100
0010
,
0001
0100
0001
0100
0010
0000
0100
0000
1000
0000
0100
0000
0010
0000
1000
0000
,
1010
0000
0010
0100
0001
0100
0001
0000
1000
0100
1000
0000
0001
0000
0100
0010
,
1000
0100
1000
0100
0010
0000
0100
0000
0001
0000
0100
0000
0010
0000
0001
0000
,
0011
0000
0010
0100
1000
0010
0100
0000
0010
0100
0001
0010
0100
0000
0010
0000
,
2000
0000
0000
0000
,
3010
0000
0100
0000
1000
0000
0001
0000
1000
0000
0001
0000
0100
0000
0010
1000
,
0001
0010
0100
0010
0001
0010
0100
1000
,
0010
0000
0100
0000
0001
0000
1000
0000
0001
0000
1000
0000
0100
0000
0010
0001
,
1000
0010
0100
0010
1000
0010
0200
0000
,
0301
0010
0001
0000
1000
0100
1000
0000
0001
0000
0100
0000
0010
0000
0100
0001
,
0010
0100
1000
0000
0010
0100
0001
0000
1000
0000
0100
0000
0010
0000
0001
0000
,
1000
0010
1000
0000
0001
0100
0001
0000
1000
0000
0100
0000
0010
0000
0100
1000
,
0010
0100
0001
0000
1000
0000
1000
0000
0200
0000
0000
0300
MMMM
0000
0000
0000
,
1000
0000
0001
1000
0010
0M00
0010
0001
1000
0000
0010
0100
1000
000M
1000
0010
,
0100
0000
0001
0010
0100
M000
0100
0001
1000
0000
0001
1000
0100
00M0
0100
0000
,
0001
0000
1000
0001
0010
0M00
0010
1000
0001
0000
0010
0100
0001
M000
0001
0010
,
0100
0000
1000
0010
0100
000M
0100
1000
0001
0000
1000
0001
0200
0000
0000
0000
,
0301
0000
1000
0001
0100
00M0
0100
1000
0001
0000
0100
0010
0001
M000
0001
0100
,
0010
0000
1000
0100
0010
000M
0010
1000
0001
0000
1000
0001
0010
0M00
0010
0000
,
0100
0000
0001
1000
0001
1000
0001
1000
0100
000M
0100
0000
0010
M000
0010
0000
,
0001
0000
0001
0000
1000
0000
1000
0000
0100
0010
0100
0000
0002
0000
0000
0000
,
0103
0000
1000
0001
1000
0000
0010
0100
0000
0010
0100
0000
1000
000M
1000
0000
,
0010
000M
0010
0000
0001
1000
0100
0010
0000
0100
1000
0000
0001
0000
0100
0000
,
0010
0000
1000
0100
0010
000M
0010
1000
0001
0010
0100
0000
0001
M000
0001
0000
,
0010
M000
0010
0000
1000
0001
0100
0010
0000
0100
0001
0000
1000
0000
0100
0000
,
0010
0000
0000
0000
0001
0000
1000
0000
0100
00M0
0100
0000
0001
0000
1000
0000
0000
0000
0100
0000
0010
0000
0000
0000
1000
0000
000M
0000
1000
0000
0000
0000
,
0100
000M
0100
0000
0001
1000
0100
0010
0000
0100
1000
0000
0001
0000
0100
0000
,
0010
0000
0000
0000
1000
0000
0001
0000
0100
00M0
0100
0000
1000
0000
0001
0000
0000
0000
0100
0000
0010
0000
0000
0000
0001
0000
M000
0000
0001
0000
0000
0000
,
0100
M000
0100
0000
1000
0001
1000
0001
0020
0000
0000
0000
0000
0000
0000
0000
,
0130
0000
1000
0001
1000
0000
0010
0100
0001
0100
0010
0100
0001
0000
0010
0000
,
0100
0000
0000
1000
0001
0000
0100
0000
1000
0000
0100
0000
0001
0000
0100
0000
,
0010
0000
1000
0001
1000
0000
0100
0010
0001
0010
0100
0010
0001
0000
0100
0000
,
0010
0000
0000
1000
0001
0000
0010
0000
2000
0000
0000
0000
3010
0000
0100
0000
,
0010
0000
0001
1000
0001
0000
0100
0010
1000
0010
0100
0010
1000
0000
0100
0000
,
0010
0000
0000
0001
1000
0000
0010
0000
0001
0000
0010
0000
1000
0000
0010
0000
,
0100
0000
0001
1000
0001
0000
0010
0100
1000
0100
0010
0100
1000
0000
0001
0000
,
1000
0000
0000
0000
0010
0000
0100
0000
0000
0000
0001
0000
0010
0000
0000
0000
0001
0000
0100
0000
0010
0000
1000
0000
0200
0000
0000
0000
0000
0000
0000
0300
,
0101
0000
0000
0000
;
