#TITLE:Go Beyond!!;
#SUBTITLE:;
#ARTIST:Ryu☆ Vs. Sota;
#TITLETRANSLIT:;
#SUBTITLETRANSLIT:;
#ARTISTTRANSLIT:;
#GENRE:;
#CREDIT:;
#BANNER:Go Beyond!!.png;
#BACKGROUND:Go Beyond!!-bg.png;
#LYRICSPATH:;
#CDTITLE:;
#MUSIC:Go Beyond!!.ogg;
#OFFSET:-0.351000;
#SAMPLESTART:83.153000;
#SAMPLELENGTH:14.400000;
#SELECTABLE:YES;
#BPMS:0.000000=200.000000
;
#STOPS:
;
#BGCHANGES:0.000=Go Beyond!!.mp4=1.000=0=0=0=StretchNoLoop====,
99999=-nosongbg-=1.000=0=0=0 // don't automatically add -songbackground-
;
#KEYSOUNDS:;
#ATTACKS:;

//---------------dance-single - ----------------
#NOTES:
     dance-single:
     :
     Medium:
     13:
     0.453195,0.725234,0.322326,0.441078,0.012723,374.000000,336.000000,38.000000,52.000000,0.000000,0.000000,0.453195,0.725234,0.322326,0.441078,0.012723,374.000000,336.000000,38.000000,52.000000,0.000000,0.000000:
0000
0000
0000
0000
,
0000
0000
0000
0000
,
0000
0000
0000
0000
,
0000
0000
0000
0000
,
0001
1000
1001
0000
,
0011
0001
0100
0010
,
1000
0000
0000
1000
0000
0000
0001
0000
1000
0000
0000
0000
0000
0000
0000
0000
,
0110
0000
0001
0000
0010
0100
1000
0000
,
0010
0000
0000
0010
0000
0000
0100
0000
0001
0000
1000
0000
0001
0000
0000
0000
,
1001
0000
1000
0000
0100
1000
0000
0010
,
0100
0010
0000
0100
0000
0001
0010
0000
,
0100
0000
0100
0000
0010
0001
1000
0000
,
0010
0100
0000
0110
0000
0101
0000
0000
,
1001
0000
1000
0000
0100
1000
0000
0010
,
0100
0010
0000
0100
0000
0001
0010
0000
,
0110
0000
1000
0000
0010
0100
0001
1000
,
0002
0023
0230
2300
,
3001
0100
0001
0100
0010
1000
0001
0000
,
2000
3200
0320
0032
,
1003
0010
1000
0010
0100
0001
1000
0000
,
0002
0000
0023
0000
0230
0000
1300
0001
,
1000
0000
1001
0000
0001
0100
0000
0010
,
0100
0010
0000
0110
0000
1000
0001
0000
,
0010
0100
2000
0000
3010
0100
0002
0000
,
0003
0000
0010
0100
,
2002
0000
0000
0000
,
0000
0000
0000
0000
,
0000
0000
0000
0000
,
0000
0000
0000
0000
,
0000
0000
0000
0000
,
0000
0000
0000
0000
,
0000
0000
0000
0000
,
0000
0000
3003
0000
,
0001
0000
0100
0000
,
0010
0000
1000
0000
,
0001
0000
0000
0000
,
0000
0000
1000
0000
,
0100
0000
1000
0000
,
0001
0000
0010
0000
,
0100
0000
0000
0000
,
0000
0000
0110
0000
,
1001
0000
0000
0000
,
0000
0000
0101
0000
,
1010
0000
0000
0000
,
0000
0000
1100
0000
,
0011
0000
0110
0000
,
1001
0000
1010
0000
,
0110
0000
0000
0000
,
0000
0000
0000
0000
,
0000
0000
0000
0000
,
1001
0000
0000
0000
,
0000
0000
0000
0000
,
0000
0110
0110
0110
,
0001
1000
0100
1000
0001
0010
0100
0010
,
0001
1000
0010
1000
0001
0100
0010
0010
,
1000
0001
0100
0001
1000
0010
0100
0010
,
1000
0001
0010
0000
0220
0000
0330
0000
,
0100
1000
0010
1000
0100
0010
0001
0100
,
0010
1000
0100
1000
0001
0010
0100
1000
,
0001
0100
0010
0100
0001
1000
0100
0010
,
0002
0203
0320
2030
,
3001
0100
1000
0100
0001
1000
0010
0100
,
0001
0010
1000
0010
0001
1000
0100
0010
,
0001
0100
1000
0100
0001
1000
0010
0100
,
0001
0010
1000
0010
0002
0000
0003
0000
,
1000
0100
0001
0100
1000
0010
0100
0001
,
0010
1000
0010
0001
0100
0010
1000
0100
,
0001
0100
0001
0100
1000
0010
0001
0010
,
2000
3200
0320
0032
,
2003
0010
3002
0010
,
2003
0000
0100
0000
3002
0000
1003
0010
,
0200
0001
0010
1000
,
0010
0000
0001
0000
0320
0000
1030
0001
,
2000
0100
3002
0100
,
0023
0100
0032
1000
,
0203
0010
1000
0010
,
0302
0023
0230
2300
,
3010
0100
0010
0100
0001
0100
1000
0100
,
0001
0010
0001
0010
1000
0010
0001
1000
,
0100
0010
0100
0010
0001
1000
0010
0100
,
0001
0000
0010
0000
0100
0000
1000
0000
0010
0000
0100
0000
0001
0000
1000
0001
,
1000
0000
1001
0000
0001
0010
0000
0100
,
0010
0100
0000
0110
0000
1100
0000
1000
,
0010
1000
0002
0000
0013
0001
2000
0000
,
3200
0320
0032
0003
,
2002
0000
0000
0000
,
0000
3003
1010
0000
,
0202
0000
0000
0000
,
0000
0303
0011
0000
,
0110
0000
1100
0000
,
1010
0000
0101
0000
,
2002
0000
0000
0000
,
0000
0000
0000
0000
,
0000
0000
0000
0000
,
0000
0000
0000
0000
,
3003
0000
0000
0000
;

//---------------dance-single - ----------------
#NOTES:
     dance-single:
     :
     Hard:
     15:
     0.558618,0.926688,0.449560,0.585276,0.190851,461.000000,408.000000,53.000000,69.000000,0.000000,0.000000,0.558618,0.926688,0.449560,0.585276,0.190851,461.000000,408.000000,53.000000,69.000000,0.000000,0.000000:
// measure 0
0000
0000
0000
0000
,  // measure 1
0000
0000
0000
0000
,  // measure 2
0000
0000
0000
0000
,  // measure 3
0000
0000
0000
0000
,  // measure 4
1001
0110
1001
0000
,  // measure 5
1000
1000
0001
1000
0010
0100
0001
1000
,  // measure 6
0010
0000
0000
0010
0000
0000
0100
0000
0110
0000
0000
0000
0000
0000
0000
0000
,  // measure 7
2002
0000
3003
0000
0100
0010
0110
0000
,  // measure 8
0001
0000
0000
0001
0000
0000
1000
0000
0010
0000
0100
0000
0020
0000
0000
0000
,  // measure 9
1030
0000
1010
0000
0010
0100
0001
0100
,  // measure 10
0000
0001
1000
0010
0000
1000
0001
0010
,  // measure 11
0100
0000
1100
0000
1000
0001
0100
0001
,  // measure 12
0010
0010
0000
0110
0000
1001
0000
1000
,  // measure 13
0100
0000
1100
0000
1000
0010
0000
0100
,  // measure 14
0010
0100
0000
0101
0000
0001
0010
0000
,  // measure 15
0011
0000
1001
0000
0001
0100
0010
1000
,  // measure 16
0002
0023
0230
2300
,  // measure 17
3010
0010
0100
0010
1000
0001
0100
0010
,  // measure 18
2000
3200
0302
0203
,  // measure 19
1300
1000
0001
1000
0010
0100
0001
0010
,  // measure 20
0200
0000
0000
0000
2300
0000
0000
0000
3020
0000
0000
0000
1030
0000
0001
1000
,  // measure 21
0001
0000
1001
0000
1000
1000
0000
0100
,  // measure 22
1000
0000
0010
0000
0000
0000
0110
0000
0000
0000
0100
0000
0001
0100
0001
0000
,  // measure 23
1000
0100
0020
0000
0031
0100
0020
0000
,  // measure 24
0030
0000
0000
0000
1000
0001
1000
0000
,  // measure 25
2002
0000
0000
0000
,  // measure 26
0000
0000
0000
0000
,  // measure 27
0000
0000
0000
0000
,  // measure 28
0000
0000
0000
0000
,  // measure 29
0000
0000
0000
0000
,  // measure 30
0000
0000
0000
0000
,  // measure 31
0000
0000
0000
0000
,  // measure 32
0000
0000
3003
0000
,  // measure 33
0002
0000
0203
0000
,  // measure 34
0320
0000
2030
0000
,  // measure 35
3002
0000
0000
0000
,  // measure 36
0003
0000
0020
0000
,  // measure 37
0230
0000
0320
0000
,  // measure 38
0032
0000
2003
0000
,  // measure 39
3020
0000
0000
0000
,  // measure 40
0030
0000
1010
0000
,  // measure 41
0202
0000
0000
0000
,  // measure 42
0303
0000
0011
0000
,  // measure 43
2200
0000
0000
0000
,  // measure 44
3300
0000
0110
0000
,  // measure 45
1100
0000
0011
0000
,  // measure 46
0101
0000
1010
0000
,  // measure 47
2002
0000
0000
0000
,  // measure 48
0000
0000
0000
0000
,  // measure 49
0000
0000
3003
0000
,  // measure 50
0020
0000
1000
0000
0000
0000
0100
0100
,  // measure 51
0000
0000
0000
0000
1000
0000
0100
0230
,  // measure 52
0000
0001
0001
0301
,  // measure 53
1000
0000
0010
0000
0100
0010
0100
0000
0001
0000
0010
0000
0100
0000
1000
0000
,  // measure 54
0001
0000
0010
0000
0100
0010
0100
0000
1000
0000
0010
0000
0100
0000
0001
0000
,  // measure 55
0010
0000
0001
0000
1000
0001
1000
0000
0100
0000
1000
0000
0010
0000
0100
0000
,  // measure 56
0001
0000
0010
0000
0001
1000
0001
0000
0200
0000
0000
0000
0300
0000
0000
0000
,  // measure 57
0010
0000
1000
0000
0010
0100
0010
0000
0100
0000
0001
0000
1000
0000
0100
0000
,  // measure 58
0010
0000
0001
0000
0010
0100
0010
0000
0100
0000
1000
0000
0001
0000
0100
0000
,  // measure 59
0010
0000
1000
0000
0001
1000
0001
0000
0010
0000
0100
0000
1000
0000
0001
0000
,  // measure 60
0200
0000
0320
0000
2030
3200
0320
0032
,  // measure 61
1003
0000
0100
0000
0010
0100
0010
0000
0001
0010
0001
0000
0100
0001
0100
0000
,  // measure 62
0010
0000
1000
0000
0100
1000
0100
0000
1000
0001
1000
0000
0010
0100
0010
0000
,  // measure 63
0100
0000
0001
0000
0010
0001
0010
0000
0001
1000
0001
0000
1000
0010
1000
0000
,  // measure 64
0010
0000
0100
0000
0001
0100
0001
0000
1000
0100
1000
0000
0002
0000
0000
0000
,  // measure 65
0013
0000
0100
0000
1000
0100
0010
0000
0001
0010
0001
0000
0100
0010
1000
0000
,  // measure 66
0001
0000
0010
0000
0100
1000
0001
0000
0100
0001
0100
0000
0010
1000
0001
0000
,  // measure 67
0010
0000
0100
0000
1000
0001
1000
0000
0010
0000
0100
0000
0001
1000
0001
0000
,  // measure 68
2000
0000
3200
0000
0320
0000
0032
0000
0103
0010
0100
0010
1000
0001
1000
0001
,  // measure 69
0200
0301
1020
0130
,  // measure 70
2001
0000
3100
0000
0021
0000
0130
1000
,  // measure 71
1200
0010
1000
0310
,  // measure 72
0100
1000
0010
0100
0001
0010
0100
0000
,  // measure 73
2100
3001
0201
0310
,  // measure 74
1002
0013
0210
1300
,  // measure 75
1002
0010
1000
0013
,  // measure 76
0001
0001
0100
0100
0010
0010
2000
0000
,  // measure 77
3001
0010
0100
0000
0010
0000
0001
0000
1000
0010
0100
0000
0001
0000
1000
0000
,  // measure 78
0100
0010
0001
0000
0100
0000
0010
0000
1000
0001
0100
0000
0010
0000
1000
0000
,  // measure 79
0001
0010
0100
0000
1000
0000
0010
0000
0100
0000
0010
0000
1000
0000
0001
0000
,  // measure 80
0010
0000
0000
0000
0011
0000
0000
0000
0101
0000
0000
0000
0100
0000
0010
0100
,  // measure 81
0010
0000
1010
0000
1001
1001
0000
0001
,  // measure 82
0010
0000
0110
0000
0000
0000
1100
0000
0000
0000
1010
0000
0000
0000
0010
0100
,  // measure 83
0001
0000
1000
0000
0100
0010
0100
0010
0001
0000
0100
0000
0010
1000
0010
1000
,  // measure 84
0002
0000
0023
0000
0230
0000
0000
0300
,  // measure 85
2002
0000
0000
0000
,  // measure 86
0000
3003
1100
0000
,  // measure 87
0022
0000
0000
0000
,  // measure 88
0000
0033
0101
0000
,  // measure 89
1010
0000
1100
0000
,  // measure 90
0011
0000
0110
0000
,  // measure 91
2002
0000
0000
0000
,  // measure 92
0000
0000
0000
0000
,  // measure 93
0000
0000
0000
0000
,  // measure 94
0000
0000
0000
0000
,  // measure 95
3003
0000
0000
0000
;
