#VERSION:0.83;
#TITLE:Gate of Doom;
#SUBTITLE:;
#ARTIST:Masahiro "Godspeed" Aoki;
#TITLETRANSLIT:;
#SUBTITLETRANSLIT:;
#ARTISTTRANSLIT:;
#GENRE:;
#CREDIT:MEGAtive & chronon;
#MUSIC:Gate of Doom.ogg;
#BANNER:Gate of Doom.png;
#BACKGROUND:Gate of Doom-bg.png;
#CDTITLE:cdtitle.png;
#SAMPLESTART:48.531;
#SAMPLELENGTH:15.288;
#SELECTABLE:YES;
#OFFSET:-0.358;
#BPMS:0.000=208.000;
#STOPS:;
#TIMESIGNATURES:0.000=3=4,
126.000=5=4,
141.000=3=4,
147.000=5=4,
187.000=3=4,
268.000=4=4,
328.000=6=4,
334.000=5=4,
354.000=3=4,
447.000=4=4
;
#LABELS:48.000=Switch,
78.000=Switch,
126.000=Switch,
167.000=Switch,
220.000=Switch,
268.000=Switch,
334.000=Switch,
387.000=Switch
;
#BGCHANGES:;
#FGCHANGES:;

//--------------- dance-single - MEGAtive ----------------
#NOTEDATA:;
#STEPSTYPE:dance-single;
#DESCRIPTION:MEGAtive;
#DIFFICULTY:Beginner;
#METER:3;
#RADARVALUES:0,0,0,0,0;
#NOTES:
0000
0000
0000
0000
,
0000
0000
0000
0000
,
0000
0000
0000
0000
,
0000
0000
0000
0000
,
0000
0000
0000
0000
,
0000
0000
0000
0000
,
2000
0000
0000
0000
,
0000
0000
3020
0000
,
0000
0130
0000
0000
,
0002
0000
0000
0000
,
0000
0000
2003
0000
,
0000
3100
0000
0000
,
1000
0000
0000
0100
,
0000
0000
0010
0000
,
0000
0001
0000
0000
,
0100
0000
0000
0010
,
0000
0000
0100
0000
,
0000
0001
0000
0000
,
2000
0000
0000
3200
,
0000
0000
0310
0000
,
0010
0000
0000
0000
,
0001
0000
0001
0000
,
0000
0000
0100
0000
,
0100
0000
0000
0000
,
0010
0000
0010
0000
,
0000
0000
1000
0000
,
1000
0000
0000
0000
,
0100
0000
0100
0000
,
0000
0000
0010
0000
,
0010
0000
0000
0000
,
0001
0000
0001
0000
,
0000
0000
2000
0000
,
0000
0000
0000
3002
,
0000
0000
0000
0000
,
0203
0000
0000
0000
,
0000
0320
0000
0000
,
0000
0000
0000
2030
,
0000
0000
0000
0000
,
3002
0000
0000
0000
,
0000
0023
0000
0000
,
0000
0000
0130
0000
,
0000
0000
0000
1001
,
0000
0000
1000
0000
,
0010
0000
0000
0010
,
0000
0100
0000
0000
,
0100
0000
0001
0000
,
0000
0001
0000
1000
,
0000
0000
1000
0000
,
0000
0100
0000
0000
,
0010
0000
0000
0001
,
0000
0000
0001
0000
,
0000
0100
0000
0000
,
0020
0000
0000
0000
,
0000
0000
2030
0000
,
0000
0000
0000
0000
,
0002
0000
0000
0000
,
0000
0000
0000
0000
,
0000
0000
0000
0000
,
3003
0000
0000
0000
,
0000
0000
0000
0000
,
0000
0000
0000
0000
,
0002
0000
0000
0000
,
0000
0000
0000
0000
,
0000
0000
0000
0000
,
0023
0000
0000
0000
,
0000
0000
0000
0000
,
0000
0000
0000
0000
,
0130
0000
0000
0000
,
1000
0000
0000
0000
,
0001
0000
0000
0000
,
1000
0000
0000
0000
,
0010
0000
0000
0000
,
0100
0000
0000
0000
,
0001
0000
0000
0000
,
1000
0000
0000
0000
,
0001
0000
0000
0000
,
0010
0000
0000
0000
,
0100
0000
0000
0000
,
1000
0000
0000
0000
,
0001
0000
0000
0000
,
0100
0000
0000
0000
,
0010
0000
0000
0000
,
2000
0000
0000
3000
,
0000
0000
0001
0000
,
0000
1000
0000
0100
,
0000
0000
0010
0000
,
0100
0000
0000
1000
,
0000
0001
0000
0000
,
0100
0000
0010
0000
,
0000
1000
0000
0000
,
0100
0000
0000
0010
,
0000
0000
0001
0000
,
0000
0100
0000
0000
,
0010
0000
0000
2000
,
0000
0000
0000
0000
,
0000
3002
0000
0000
,
0000
0000
0000
0013
,
0000
0000
0100
0000
,
0000
0010
0000
0000
,
0001
0000
0000
0100
,
0000
0000
0010
0000
,
0000
1000
0000
0000
,
0001
0000
0000
0020
,
0000
0000
0230
0000
,
0000
2300
0000
0000
,
3002
0000
0000
0203
,
0000
0000
0320
0000
,
0000
0230
0000
0000
,
0301
0000
0000
1001
,
0000
0000
1001
0000
,
0000
0110
0000
0000
,
0110
0000
0000
2002
,
0000
0000
0000
3003
,
0000
0000
0000
0220
,
0000
0000
0000
0330
,
0000
0000
0000
2002
,
0000
0000
0000
0000
,
0000
0000
0000
3003
,
0000
0000
0000
2002
,
0000
0000
0000
0000
,
0000
0000
0000
3003
;

//--------------- dance-single - chronon ----------------
#NOTEDATA:;
#STEPSTYPE:dance-single;
#DESCRIPTION:chronon;
#DIFFICULTY:Easy;
#METER:7;
#RADARVALUES:0,0,0,0,0;
#NOTES:
0000
0000
0000
0000
,
0000
0000
0000
0000
,
0000
0000
0000
0000
,
0000
0000
0000
0000
,
0000
0000
0000
0000
,
0000
0000
0000
0000
,
1100
0000
0000
0110
,
0000
0000
0011
0000
,
0000
0001
1000
0001
,
0101
0000
0000
0110
,
0000
0000
1010
0000
,
0000
1000
0000
0000
,
0001
1000
0100
0001
,
0000
0100
1000
0001
,
0100
1000
0000
0100
,
0001
1000
0010
0001
,
0000
0010
1000
0001
,
0010
1000
0000
0010
,
0001
0000
0000
0010
,
0000
0000
0100
1000
,
0001
1000
0010
0000
,
0100
0001
1000
0001
,
0010
0000
0100
1000
,
0001
1000
0010
0000
,
0100
0001
1000
0001
,
0010
0100
1000
0100
,
0010
0001
1000
0000
,
0001
0100
0010
1000
,
0001
0000
1000
0100
,
0010
0001
1000
0000
,
0001
0100
0010
1000
,
0001
1000
0100
0100
,
0010
0001
0000
0100
,
0100
0010
1000
0000
,
0100
0100
0010
0001
,
0000
0100
1000
0100
,
0010
0000
0000
1000
,
1000
0010
0100
0000
,
0001
0001
0010
0100
,
0000
1000
1000
0010
,
0100
0000
2002
0000
,
0000
0000
3003
0001
,
0100
0010
0001
0010
,
0100
0000
0001
1000
,
0000
1000
0100
0010
,
1000
0010
0100
0000
,
0010
0001
0000
1000
,
0010
0100
1000
0100
,
0010
0100
0000
0001
,
1000
0000
0000
0001
,
0010
0010
0100
1000
,
1000
0001
0100
0100
,
0010
0000
1000
0001
,
0000
1000
0100
0000
,
0010
0000
0001
0000
0000
1000
0000
0000
,
2002
0000
0000
0000
,
0000
0000
0000
0000
,
0000
0000
0000
0000
,
3003
0000
0000
0000
,
0000
0000
0000
0000
,
0000
0000
0000
0000
,
2000
0000
0000
3020
,
0000
0000
0230
0000
,
0000
0302
0000
0000
,
2003
0000
0000
3200
,
0000
0000
0320
0000
,
0000
0032
0000
0000
,
1003
0000
0010
0000
,
0100
0100
0001
0000
,
0001
0000
0010
0000
,
0100
0100
1000
0000
,
0001
0000
0100
0000
,
0010
0010
1000
0000
,
1000
0000
0100
0000
,
0010
0010
0001
1000
,
0001
0000
0200
0000
,
0310
1000
0001
0000
,
0010
0001
1000
0000
,
1000
0100
0010
0001
,
1000
0000
0010
0000
,
0100
0000
0001
0000
,
1000
0000
0001
1000
,
0001
0010
0100
1000
,
0000
0000
1000
0100
,
0010
1000
0010
0100
,
0000
1000
0001
0000
,
0001
0100
0010
0001
,
0010
0100
0000
0010
,
1000
0000
0001
0010
,
0100
0001
0100
0010
,
0100
0000
1000
0001
,
0000
0000
1000
0010
,
0010
0100
0001
0001
,
1000
0100
0100
0010
,
0000
0001
1000
0000
,
0001
0100
0000
0010
,
1000
0000
0000
0001
0000
0000
1000
0000
,
0001
0010
1000
0000
,
0010
0001
1000
0010
,
0001
0000
0010
1000
,
0001
0100
1000
0000
,
0100
0001
1000
0100
,
0001
0000
0100
1000
,
1000
1000
0001
0001
,
0001
0100
0100
0100
,
0010
0010
0010
1000
,
0010
0100
0001
0010
,
0100
1000
0010
0100
,
0001
0000
0000
1000
,
0010
0010
1000
0001
,
0001
1000
0100
0100
,
0010
0001
0001
0011
,
0000
0110
0000
1100
,
0000
1001
0000
1010
,
0000
0110
0000
0101
,
0000
1001
0000
2002
,
0000
0000
0000
0000
,
0000
0000
0000
3003
,
0000
0000
0000
0220
,
0000
0000
0000
0000
,
0000
0000
0000
0330
;

//--------------- dance-single - MEGAtive & chronon ----------------
#NOTEDATA:;
#STEPSTYPE:dance-single;
#DESCRIPTION:MEGAtive & chronon;
#DIFFICULTY:Medium;
#METER:12;
#RADARVALUES:0,0,0,0,0;
#NOTES:
0000
0000
0000
0000
,
0000
0000
0000
0000
,
0000
0000
0000
0000
,
0000
0000
0000
0000
,
0000
0000
0000
0000
,
0000
0000
0000
0000
,
2020
0000
3030
0220
,
0000
0330
0202
0000
,
0303
1001
0000
0000
,
0022
0000
0033
0220
,
0000
0330
2200
0000
,
3300
1001
0000
0000
,
2000
3020
0230
2300
,
3100
0010
0100
0010
2000
0000
3002
0000
,
0013
0021
0100
0032
,
2003
3200
0320
2030
,
3010
0100
0010
0100
2000
0000
3020
0000
,
0130
0202
0303
0110
,
2002
0000
3000
0020
,
0000
0033
0001
0010
,
1000
0010
0001
1000
,
0001
0000
0100
0000
1000
0000
0100
0010
,
1000
0010
1000
0000
1000
0000
0010
0000
,
0001
0010
1000
0001
,
1000
0000
0100
0000
0001
0000
0100
0010
,
0001
0000
1000
0000
0001
0000
0100
0001
,
0000
0100
0010
0000
1000
0010
0000
0000
,
1000
0000
0100
1000
0000
0100
0010
0000
,
0001
0010
0000
0000
0001
0000
0100
0001
,
0000
0100
0010
0000
1000
0010
0000
0000
,
1000
0000
0100
1000
0000
0100
0010
0000
,
0001
1000
0001
0000
1000
0000
0000
0010
,
0000
0010
0200
0000
1000
0000
0310
0000
,
0000
1000
0000
1000
0100
0000
0001
0100
,
0010
0000
0000
0100
0000
0100
0020
0000
,
1000
0130
0010
0110
,
2001
3020
0230
0301
,
0000
0100
0000
0100
0020
0000
0001
0000
,
0130
0000
0000
0001
0000
0001
0010
0000
,
1000
0010
0100
0000
0000
0010
0000
0010
,
0200
0301
0220
0000
,
0000
0330
0000
1001
,
1000
0100
1000
0100
0002
0000
0203
0000
,
2300
0000
3001
1000
0010
0000
0200
0000
,
0301
0000
1001
0000
0001
0100
0001
0100
,
2000
0000
3100
0001
0020
0000
0031
0010
,
0100
1000
0001
1001
,
1000
0010
1000
0010
0002
0000
0013
0000
,
0100
0000
2000
0000
3100
0010
1000
0000
,
0001
1000
0100
0010
0001
0000
1000
0000
,
0100
0010
0001
0000
1000
0000
0010
0100
,
0001
0000
1000
0000
0100
0010
0001
0000
,
0011
0010
0100
1000
,
0001
1000
0000
0010
1000
0000
0010
0000
,
0100
0000
0001
0000
0000
1000
0000
0000
,
2002
0000
0000
0000
,
0000
0000
0000
0000
,
0000
0000
0000
3003
,
0001
0000
0000
0001
0000
0000
0001
0000
,
1000
0000
0010
0000
0100
0000
0000
0100
,
0000
0001
0010
0100
,
2000
0000
0000
3020
,
0000
0000
0230
0000
,
0000
0302
0000
0000
,
0023
0000
0000
0230
,
0000
0000
2300
0000
,
0000
3020
0000
0000
,
1030
0010
0000
0100
0001
1000
0001
0000
,
0000
0010
0001
1000
0001
0000
0000
0100
,
0001
1000
0001
0000
0000
0010
0100
1000
,
0001
0000
1000
0000
,
0000
0010
1000
0001
1000
0000
0000
0100
,
1000
0001
1000
0000
0000
0010
1000
0001
,
1000
0000
0000
0100
0010
0001
1000
0000
,
0001
0000
1000
0000
,
0001
0000
0200
0000
,
0310
0000
0000
0000
1000
0001
1000
0000
,
0100
0000
0010
0000
0001
1000
0001
0000
,
0100
0000
0010
0100
0010
0000
1000
0000
,
0001
1000
0001
0000
0010
0000
0100
0000
,
1000
0100
1000
0000
0100
0000
0010
0000
,
0001
0010
0001
0000
1000
0000
0001
1000
,
0001
0000
0100
0010
1000
0000
0001
0000
,
0000
0000
0000
0000
1000
0000
0100
0010
,
0100
0010
0001
0000
0100
0000
2000
0000
,
3100
0010
0100
0010
1000
0000
1010
0000
,
0001
0000
0100
0010
0100
0010
2000
0000
,
3100
0000
0002
0000
0000
0103
0010
0100
,
2000
0000
3002
0000
1003
0000
0010
0100
,
0010
0200
1000
0000
0010
0000
0001
0000
,
0302
0000
0000
0103
0010
1000
0200
0000
,
0320
0000
0032
0000
1003
0000
0100
0010
,
0100
1000
0001
0000
0100
0010
0100
0001
,
1000
0000
0100
0010
0100
1000
0001
0000
,
0101
1000
1100
0100
,
0110
0000
1001
0000
1000
0100
0010
0000
,
0001
0100
0010
1000
0100
0010
0001
0000
,
0010
0000
0100
0000
0002
0000
0103
0010
,
0100
1000
0001
0000
0100
0000
0010
0000
,
1002
0000
1003
0010
0100
0001
1000
0000
,
0100
0000
0010
0000
2000
0000
3010
0100
,
0010
0001
1000
0000
0010
0000
0100
0000
,
2001
0000
3100
0010
0001
0000
1000
0100
,
0010
0100
1000
0000
0001
0100
0010
0100
,
0001
0000
1000
0010
0100
0010
1000
0000
,
0001
0000
0010
0000
0100
0000
0010
0000
0001
0000
0000
0000
1000
0000
0000
0100
,
0000
0000
0100
0000
0000
0100
0000
0000
0010
0000
0000
0001
0000
0000
0001
0000
,
0000
0001
0000
0000
1000
0000
0000
0010
0000
0000
0010
0000
0000
0010
0000
0000
,
0100
0001
1000
0001
0010
0000
0001
0010
,
0100
1000
0001
0000
1000
0010
0100
0001
,
1000
0000
0001
0010
0100
1000
0001
0000
,
1000
0010
0100
0001
1000
0000
1001
0000
,
0000
0011
0000
0110
,
0000
1100
0000
1001
,
0000
1010
0000
0110
,
0000
0101
0000
2002
,
0000
0000
0000
0000
,
0000
0000
0000
3003
,
0000
0000
0000
0220
,
0000
0000
0000
0000
,
0000
0000
0000
0330
;

//--------------- dance-single - MEGAtive & chronon ----------------
#NOTEDATA:;
#STEPSTYPE:dance-single;
#DESCRIPTION:MEGAtive & chronon;
#DIFFICULTY:Hard;
#METER:15;
#RADARVALUES:0,0,0,0,0;
#NOTES:
0000
0000
0000
0000
,
0000
0000
0000
0000
,
0000
0000
0000
0000
,
0000
0000
0000
0000
,
0000
0000
0000
0000
,
0000
0000
0000
0000
,
0022
0000
0033
2020
,
0000
3030
0220
0000
,
0330
0100
2001
0000
0010
0000
3010
0000
,
2020
0000
3030
0022
,
0000
0033
0220
0000
,
0330
0100
2002
0000
0000
0000
3003
0000
,
1000
0000
0001
0000
0010
0100
0001
0000
,
0100
0010
0001
0000
1000
0000
0001
0000
,
0100
0000
0101
0000
0100
0001
1000
0000
,
0001
0000
1000
0000
0010
0100
1000
0000
,
0100
0010
1000
0000
0001
0000
1000
0000
,
0100
0000
1100
0000
0100
1000
0001
0000
,
1000
0100
0010
0001
0010
0100
1000
0010
,
0100
0000
0001
0000
0100
0000
0010
0000
1000
0000
0010
0000
0000
0010
0000
0000
,
0200
0000
1300
0100
0001
0000
0101
0000
,
1000
0000
0100
0000
0000
0100
0000
0000
0020
0000
0000
0000
1030
0000
0010
0000
,
0100
0000
0010
0000
0001
0000
0010
0000
0001
0000
0010
0000
0000
0010
0000
0000
,
0200
0000
0301
0100
1000
0000
1100
0000
,
0001
0000
0100
0000
0000
0100
0000
0000
0020
0000
0000
0000
0031
0000
0010
0000
,
0100
0010
1000
0010
2010
0000
3001
0100
,
0010
0100
0001
0000
1000
0100
0010
0100
,
2100
0000
3001
0010
0100
0010
0001
0000
,
1000
0010
0100
0010
0120
0000
1030
0001
,
0100
0010
1000
0000
0001
1000
0100
0010
,
0012
0000
1003
0001
0010
0100
1000
0001
,
1000
0010
0100
0001
1000
0010
0100
0010
,
1000
0001
0010
0100
1000
0000
0001
0010
,
0100
0010
0001
1000
0010
0100
0001
0000
,
1000
0010
0100
0010
1000
0001
0010
0100
,
0010
2000
3020
0032
,
0203
0000
0301
0100
0010
1000
0001
0100
,
0010
0100
0001
1000
0100
0010
0001
0000
,
1000
0100
0010
0100
1000
0001
0100
0010
,
1000
0000
0001
0100
0010
0100
0001
1000
,
0100
0010
0100
1000
0020
0000
0100
0000
,
0100
0000
0100
0000
0130
0000
0001
0100
,
0010
0001
1000
0100
0020
0000
0130
0000
,
1020
0000
0130
0010
1000
0001
0010
0010
,
0100
0000
0012
0000
0013
1000
0001
0100
,
0020
0000
0031
0000
1200
0000
0310
0100
,
1000
0000
0000
0001
0000
0000
0100
0000
0000
0000
0100
0000
0010
0000
0000
0000
0010
0000
1000
0000
0000
0001
0000
0000
,
0100
0010
0001
1000
0200
0000
0310
1000
,
0001
0000
0021
0000
0130
1000
0001
0100
,
0020
0000
0130
0001
1001
0000
1100
0000
,
0100
0010
0001
1000
0010
0100
0001
1000
,
0001
0010
0100
1000
0001
1000
0010
0100
,
0101
0000
0100
0000
0110
0000
0010
1000
,
0100
0001
1000
0010
0110
0000
0100
0000
,
1001
0000
1000
0010
0100
0001
1000
0001
,
2002
0000
0000
0000
,
0000
0000
0000
0000
,
0000
0000
0000
3003
,
0001
0000
0010
0100
0000
0000
2000
0000
,
0001
0000
3001
0000
1000
0000
0010
0100
,
0000
0002
1000
1003
,
0002
0203
0320
2030
,
3002
2003
3002
0023
,
0230
0000
2300
0000
3002
0000
1003
0001
,
2000
3020
0230
0302
,
2003
3002
2003
3200
,
0320
0032
0203
0320
,
1030
0010
0000
0010
0100
0010
1000
0001
,
0000
0001
1000
0001
0010
0100
0000
0100
,
0010
0100
1000
0001
0000
0001
1000
0001
,
0100
0010
0000
0010
0100
0001
1000
0100
,
0010
0100
1000
0001
1000
0010
0000
0010
,
0100
0001
1000
0100
0000
0100
0010
0001
,
1000
0010
0000
0010
1000
0001
0010
0100
,
0000
0100
1000
0001
0100
0010
0100
0001
,
0020
0100
0032
0100
,
2003
0000
0010
0000
3001
0100
0001
0100
,
0020
0000
1030
0001
0010
0100
2000
0000
,
3002
0000
0103
0010
0100
0001
0000
0001
,
2000
0000
3001
0010
0200
0000
1000
0000
,
0310
0001
1000
0001
0100
0010
1000
0001
,
0020
0000
0100
0000
0031
0000
0010
0100
,
1100
0000
0110
0000
0011
0000
0001
1000
,
0010
1000
0010
0100
0001
0100
0010
0100
,
1000
0001
0020
0000
0130
0000
2001
0000
,
3100
0010
0100
0000
1002
0000
1003
0000
,
1000
0010
0100
0010
0001
1000
0200
0000
,
0310
1000
0200
0000
0310
0100
0010
0001
,
0100
0000
0000
0000
0100
0000
0001
0000
0000
0000
0001
0000
1000
0000
0000
0100
0000
0000
0010
0000
0000
0100
0000
0000
,
0001
1000
0020
0000
0130
0000
0010
0000
,
1002
0000
1003
0010
0100
0001
0010
0100
,
1000
0010
0100
0001
1000
0010
0100
0100
,
0001
1000
0001
0010
0100
0100
1000
0001
,
0100
0010
0100
0001
1000
0001
1001
0000
,
1000
0100
0010
0100
1000
0001
1000
0010
,
0100
0010
0002
0000
0013
0100
0010
1000
,
0001
0010
1000
0001
0100
1000
1100
0000
,
0100
1000
0010
0000
0110
0000
0100
1000
,
0100
0010
2000
0000
0001
0000
3100
0000
,
0011
0000
1001
0000
1000
0010
0100
0000
,
0010
1000
0100
0000
0120
0000
0130
0001
,
0100
0010
0002
0000
0010
0000
0103
0000
,
0101
0000
0000
0000
0001
0000
1000
0001
0100
0000
0000
0000
0010
0000
0100
0000
,
0001
0100
0010
1000
0001
0010
0100
0010
,
0001
1000
0001
0100
0010
0100
0001
1000
,
0100
0000
0010
0000
0001
0000
0010
0000
0100
0000
1000
0000
0001
0000
0100
0010
,
0000
0100
0010
0000
1000
0000
0000
0000
0001
0000
0010
0100
0000
0010
0100
0000
,
1000
0000
0000
0000
0001
0000
0100
0010
0000
0100
0010
0000
1000
0000
0000
0000
,
0010
1000
0001
1000
0200
0000
1300
0100
,
0001
1000
0010
0000
0001
0100
1000
0001
,
0010
0000
1000
0100
0001
1000
0010
0000
,
0001
0100
1000
0001
0010
0000
2020
0000
,
0000
3030
2002
0000
0000
3003
0022
0000
,
0000
0033
0220
0000
0000
0330
2200
0000
,
0000
3300
2002
0000
0000
3003
0202
0000
,
0000
0303
0220
0000
0000
0330
2020
0000
,
0000
0000
0000
0000
,
0000
0000
0000
0000
0000
3030
0011
0000
,
0000
0000
0000
2002
,
0000
0000
0000
0000
,
0000
0000
0000
3003
;

//--------------- dance-single - MEGAtive & chronon ----------------
#NOTEDATA:;
#STEPSTYPE:dance-single;
#DESCRIPTION:MEGAtive & chronon;
#DIFFICULTY:Challenge;
#METER:18;
#RADARVALUES:0,0,0,0,0;
#NOTES:
0000
0000
0000
0000
,
0000
0000
0000
0000
,
0000
0000
0000
0000
,
0000
0000
0000
0000
,
0000
0000
0000
0000
,
0000
0000
0000
0000
,
1100
1000
1000
0011
,
0001
0001
1010
1000
,
1000
0010
0100
0000
0001
0000
0010
0000
,
0011
0001
0001
1100
,
1000
1000
0101
0001
,
0001
0100
0020
0000
0000
0000
0000
0000
,
1030
0010
0100
0010
1000
0100
0002
0000
,
0103
0010
0100
1000
0001
0100
0010
1000
,
0100
0010
0011
0000
0001
1000
1010
0000
,
0001
0100
0010
0100
0001
0010
2000
0000
,
3010
0100
0010
0001
1000
0010
0100
0001
,
0010
0100
1100
1000
0001
0100
0101
0000
,
0001
0000
0000
0000
0100
0000
0000
0000
0001
0000
0000
0000
1000
0000
0000
0000
0001
0000
0000
0000
0010
0000
0000
0000
0100
0000
0000
0000
1000
0000
0000
0000
0001
0000
0000
0000
1000
0000
0000
0010
0000
0000
1000
0000
0000
0010
0000
0000
,
0100
0001
0100
0001
1000
0001
0010
0100
1000
0000
0010
1000
0000
0001
0100
0000
,
0001
0010
0100
0010
0001
1000
0001
0100
,
0001
0000
0100
0001
0000
1000
0010
0000
1000
0000
0100
0000
0010
0000
0100
0000
,
1000
0000
0001
0000
1000
0000
0010
0000
1000
0000
0010
1000
0000
0001
0100
0000
,
0001
0010
0100
0010
0001
1000
0001
0100
,
0001
0000
0100
0001
0000
1000
0010
0000
1000
0000
0100
0000
0010
0000
0001
0000
,
1000
0000
0001
0000
1001
0000
0000
0000
1000
0100
1000
0100
0000
0010
0001
0000
,
1000
0001
0100
0010
1000
0001
0100
0100
,
0001
0100
0001
0100
0000
0010
1000
0000
0001
0000
1000
0000
0100
0000
0010
0000
,
0001
0000
1000
0000
0100
0000
0100
0000
1000
0100
1000
0100
0000
0010
0001
0000
,
1000
0001
0100
0010
1000
0001
0100
0100
,
0001
0100
0001
0100
0000
0010
1000
0000
0001
0000
1000
0000
0100
0000
0100
0000
,
0010
0010
0001
0001
1000
0001
0010
0100
,
0001
0100
1000
0000
0110
0000
0001
1000
,
0010
0100
1000
0100
0002
0000
0010
0010
,
1003
0001
0010
0100
0001
0100
1000
0000
,
0110
0000
1001
0000
0001
0100
0010
0000
,
0110
0000
0000
0000
0010
0000
0100
0000
0001
0000
1000
0000
0001
0000
0010
0000
0100
0000
1000
0000
0000
0001
0000
0000
,
0100
1000
0100
0010
0010
0000
1001
0000
,
0001
1000
0100
0001
0100
0010
0010
0000
,
0200
1000
1300
0001
0100
1000
0100
0010
,
0010
0101
2002
0000
,
0000
0000
3003
0101
,
0001
0100
0001
0100
0010
0000
0200
0000
1000
0000
0000
0000
0310
0000
1000
0000
,
0002
0000
1003
0100
0010
0001
2000
0000
,
3010
0000
0000
0000
1010
0000
0000
0000
1000
0010
1000
0010
0100
0000
0020
0000
,
0001
0000
0130
0001
0020
0000
0031
0010
,
0100
0000
0000
1000
0000
0000
1001
0000
0000
0000
1000
0000
0100
0000
1000
0000
0000
0000
1100
0000
0000
0000
0000
0000
,
1000
0100
1000
0100
0010
0000
0200
0000
0001
0000
0000
0000
0310
0000
0100
0000
,
2000
0000
3020
0000
1030
0010
0100
0010
,
1000
0010
1000
0010
0100
0001
0100
0001
1000
0001
1000
0001
1000
0000
0100
0000
,
0010
0010
0001
0100
0010
0010
1000
0001
,
1000
0000
0000
0100
0000
0000
1000
0000
0100
0000
0010
0000
0001
0000
1000
0000
0001
0000
0100
0000
0010
0000
0100
0000
,
0001
0100
0001
0100
0010
1000
0010
1000
,
0100
0010
0001
0010
1000
0010
0100
0010
,
0001
1000
0001
0100
0010
1000
0100
0010
,
2002
0000
0000
0000
,
0000
0000
0000
0000
,
0000
0000
0000
3003
,
1001
0000
1000
0010
1000
0001
0020
0000
,
0100
0000
0130
0000
1001
0000
0001
0010
,
0100
1000
0020
0000
0100
0000
0130
0000
,
0002
2003
3200
0320
,
0031
0010
0001
1000
0002
0000
0203
0000
,
0320
2030
3200
0320
,
0032
2003
3020
0230
,
0310
0100
0010
1000
0002
0000
0023
0000
,
0230
2300
0001
3001
,
1000
0010
0000
0010
0100
0001
0010
0100
,
0000
0100
0010
0001
0100
0010
0000
0010
,
1000
0010
0001
0010
0000
0010
1000
0001
,
1000
0100
0000
0100
0010
0001
1000
0001
,
0000
0100
0010
1000
0100
0010
0000
0010
,
0100
1000
0010
0100
0000
0100
0001
0100
,
1000
0100
0000
0100
0001
1000
0001
0010
,
0000
0010
0100
1000
0001
1000
0010
0100
,
0001
0100
0000
0010
0100
0001
0100
0001
,
1000
0000
0100
0000
0010
0001
0010
0001
,
0000
0001
0000
0100
0010
1000
0010
0000
,
1000
0000
0100
1000
0100
1000
0000
0100
,
0010
0001
0010
0001
1000
0001
1000
0000
,
0010
1000
0010
1000
0001
1000
0000
1000
,
0001
0010
0001
0000
0010
0000
0100
1000
,
0020
0000
1030
0010
0100
0001
1000
0002
,
0000
0000
0000
0000
0000
0000
0000
0000
1003
0000
0001
0000
1000
0100
1000
0001
,
0100
0020
0001
0000
0130
0000
1010
0000
,
0010
1000
0001
1000
0010
0010
0100
0001
,
0101
0000
0000
0000
0001
0100
0001
1000
0100
0000
0020
0000
1000
0000
0000
0000
,
0130
0000
0011
0000
0010
0100
1000
0020
,
0001
0000
0000
0000
0000
0000
0000
0000
0000
0000
0000
0000
0130
0000
0000
0000
0010
0000
0000
0000
0100
0000
0000
0000
0001
0000
0000
0000
0000
0000
1000
0000
0000
0000
0000
0000
0001
0000
0000
0100
0000
0000
0001
0000
0000
1000
0000
0000
,
0100
0020
1000
0000
0130
0000
0011
0000
,
1001
0000
0000
0000
1000
0000
0100
0000
0001
0000
0100
0000
0010
0100
0010
0001
,
1000
0001
0100
0010
1000
0001
0010
0001
1000
0000
0010
0000
1000
0000
0001
0000
,
0100
0010
0001
0010
0100
0010
1010
1000
,
0001
0010
0100
1000
0001
1000
0010
0100
0010
1000
0000
0000
,
0101
0001
1000
0100
0110
0010
0100
1000
,
1001
0001
0101
0000
0110
0010
1000
0100
,
0010
0001
0010
0001
1000
0010
1000
0010
0100
0000
0100
0000
0001
0000
0010
0000
,
0100
0010
0001
0010
2000
0000
3010
0100
,
0010
0001
0200
0000
0301
0100
0010
0100
,
2000
0000
3100
0001
0100
0010
1000
0010
,
0100
0010
1000
0010
0002
0000
0013
0100
,
0010
1000
0200
0000
1300
0100
0010
0100
,
0002
0000
0000
0000
0103
0000
0010
0000
0001
0000
0000
0000
1000
0000
0100
1000
,
0100
0000
0010
0001
0010
0000
0001
0000
1000
0000
0010
1000
0010
0000
0100
0001
,
0100
0000
0001
0100
0001
0000
0100
0001
0100
0000
0010
1000
0010
0000
1000
0000
,
0001
0000
0010
0001
0010
0000
0100
1000
0100
0000
1000
0100
1000
0100
0000
0010
,
0100
0000
0010
0001
0000
1000
0001
0000
1000
0010
0000
0100
0010
0000
0100
0001
,
0000
0100
0010
0000
0001
0010
0000
0100
0001
0000
0100
0010
0000
1000
0010
0000
,
1000
0010
1000
0010
0100
0001
0100
0001
1000
0100
0010
0001
1000
0100
1000
0100
,
1000
0100
1000
0100
0010
0000
0000
0000
0001
0100
0001
0100
0001
0100
0001
0100
,
0010
0000
0000
0000
1000
0010
1000
0010
1000
0010
1000
0010
0100
0000
0000
0000
,
0001
0010
0001
0010
0001
0010
0001
0010
0100
0000
0000
0000
1000
0100
0010
0100
,
1000
0100
0010
0100
2000
0000
0000
0000
0000
0000
0000
0000
3001
0100
0010
0100
,
0001
0100
0010
0100
0002
0000
0000
0000
0000
0000
0000
0000
1003
0010
0100
0010
,
1000
0010
0100
0010
2000
0000
0000
0000
0000
0000
0000
0000
3001
0010
0100
0010
,
0001
0010
0100
0010
0002
0000
0000
0000
0000
0000
0000
0000
1003
0100
0010
0100
,
1000
0100
0010
0100
1000
0100
1000
0100
0010
0001
0010
0001
1000
0010
0100
0010
,
1000
0010
0100
0010
1000
0010
1000
0010
0100
0001
0100
0001
1000
0000
0000
0000
,
0000
0000
0000
2002
,
0000
0000
0000
0000
,
0000
0000
0000
3003
;
