#VERSION:0.83;
#TITLE:Gate of Atlantis (Vocal Chain Mix);
#SUBTITLE:;
#ARTIST:MasKaleido feat. ayu;
#TITLETRANSLIT:;
#SUBTITLETRANSLIT:;
#ARTISTTRANSLIT:;
#GENRE:;
#CREDIT:;
#MUSIC:Gate of Atlantis (Vocal Chain Mix).ogg;
#BANNER:;
#BACKGROUND:;
#CDTITLE:;
#SAMPLESTART:27.518;
#SAMPLELENGTH:12.000;
#SELECTABLE:YES;
#OFFSET:0.000;
#BPMS:0.000=8.000
,0.333=240.000
,10.000=234.500
,24.000=240.000
,162.000=160.000
,164.000=80.000
,165.000=240.000
,231.000=160.000
,263.000=240.000
,290.000=360.000
,291.500=240.000
,292.500=120.000
,293.000=240.000
,296.000=360.000
,297.500=240.000
,298.500=120.000
,299.000=240.000
,443.000=120.000
;
#STOPS:;
#SPEEDS:0.000=1.000=0.000=0;
#SCROLLS:0.000=1.000;
#TICKCOUNTS:0.000=4;
#TIMESIGNATURES:0.000=4=4;
#LABELS:0.000=Song Start;
#COMBOS:0.000=1;
#ORIGIN:;
#PREVIEWVID:;
#JACKET:;
#CDIMAGE:;
#DISCIMAGE:;
#BGCHANGES:0.000=MasKaleido feat. ?? - Gate of Atlantis (Vocal 8 Mix).webm=1.000=0=0=0=StretchNoLoop====,
99999.000=-nosongbg-=1.000=0=0=0=StretchNoLoop====
;
#FGCHANGES:;

//--------------- dance-single - N ----------------
#NOTEDATA:;
#STEPSTYPE:dance-single;
#DESCRIPTION:N;
#DIFFICULTY:Beginner;
#METER:4;
#RADARVALUES:0,0,0,0,0;
#NOTES:
0000
0000
0000
0000
,
0000
0000
0000
0000
,
0000
0000
0000
0000
,
0000
0000
0000
0000
,
0000
0000
0000
0000
,
0000
0000
0000
0000
,
1000
0000
0000
0001
,
0000
0000
0010
0000
,
0000
0100
0000
0000
,
1000
0000
0000
0001
,
0000
0000
0100
0000
,
0000
0010
0000
0000
,
0100
0000
0000
0001
,
0000
0000
1000
0000
,
0000
0001
0000
0000
,
0010
0000
0000
0010
,
0000
0000
0100
0000
,
0000
0100
0000
0000
,
1000
0000
0000
0001
,
0000
0000
0100
0000
,
0000
0010
0000
0000
,
0100
0000
0000
0001
,
0000
0000
0010
0000
,
0000
0100
0000
0000
,
0010
0000
0000
0001
,
0000
0000
1000
0000
,
0000
0010
0000
0000
,
0100
0000
0000
0010
,
0000
0000
2000
0000
,
0000
3002
0000
0000
,
1003
0000
0000
0010
,
0000
0000
2000
0000
,
0000
0000
0000
0000
,
3001
0000
0000
0010
,
0000
0000
0002
0000
,
0000
0000
0000
0000
,
1003
0000
0000
0010
,
0000
0000
0100
0000
,
0000
0001
0000
0000
,
0010
0000
0000
0100
,
0000
0000
2000
0000
,
3002
0003
1001
0000
0000
0000
0000
0000
,
0110
0000
0000
1001
,
0000
0000
0110
0000
,
0000
1000
0000
0000
,
1000
0000
0000
0001
,
0000
0000
0001
0000
,
0000
0110
0000
0000
,
0110
0000
0000
1001
,
0000
0000
1001
0000
,
0000
0001
0000
0000
,
0001
0000
0000
1000
,
0000
0000
1000
0000
,
0000
0100
0000
0000
,
0010
0000
0000
0100
,
0000
0000
0010
0000
,
0000
0001
0000
0000
,
1000
0000
0000
0002
,
0000
1003
0000
0020
,
0000
0130
0000
2000
,
0000
3010
0000
0200
,
0000
0301
0000
1001
,
0000
0110
0000
1001
,
0000
0110
0000
1000
,
0000
0100
0000
0001
,
0000
0010
0000
0200
,
0000
0000
0010
0000
,
0000
0320
0000
0000
,
0001
0000
0000
0032
,
0000
0000
1000
0000
,
0000
2003
0000
0000
,
0001
0000
0000
3001
,
0000
0000
1002
0000
,
0000
1003
0000
0000
,
2001
0000
0000
3010
,
0000
0000
0100
0000
,
0000
0001
0000
0000
,
0010
0000
0000
0200
,
0000
0000
0320
0000
,
0000
0032
0000
0000
,
2003
0000
0000
3001
,
0000
0000
1000
0000
,
0000
0010
0000
0000
,
1001
0000
0000
1000
,
0000
0000
0001
0000
,
0000
0100
0000
0000
,
0010
0000
0000
1000
,
0000
0000
0001
0000
,
0000
0100
0000
0000
,
0010
0000
0000
0100
,
0000
0000
0001
0000
,
0000
0010
0000
0000
,
0100
0000
0000
1000
,
0000
0000
0020
0000
,
0000
0100
0000
0000
,
0130
0000
0000
0001
,
0000
0000
1000
0000
,
0000
0200
0000
0000
,
0010
0000
0000
0310
,
0000
0000
0001
0000
,
0000
1000
0000
0000
,
0001
0000
0000
0200
,
0000
0000
0320
0000
,
0000
2030
0000
0000
,
3002
0000
0003
0011
,
0000
0000
0110
0000
,
0000
1100
0000
0000
,
1001
0000
0000
0101
,
0000
0000
1010
0000
,
0000
1100
0000
0000
,
0011
0000
0000
0000
;

//--------------- dance-single - N ----------------
#NOTEDATA:;
#STEPSTYPE:dance-single;
#DESCRIPTION:N;
#DIFFICULTY:Easy;
#METER:9;
#RADARVALUES:0,0,0,0,0;
#NOTES:
0000
0002
0000
0000
0000
0000
0000
0000
0000
0000
0000
0000
,
0000
0000
0000
0000
,
0000
0000
0000
0000
,
0000
0000
0000
0000
,
0000
0000
0000
0000
,
0000
0000
0003
0000
,
1000
0010
1000
0001
,
0010
0001
1000
0100
,
0010
0001
0010
0100
,
1000
0001
0100
0001
,
1000
0100
1000
0010
,
0100
0001
0100
0010
,
1000
0001
0101
0001
,
1000
1100
0001
1000
,
0001
0100
0010
0100
,
0001
0001
0001
1000
,
1000
1000
0010
0100
,
0010
1000
0100
0000
,
2000
0000
0000
3002
,
0000
0000
2003
0000
,
0000
3020
0000
0000
,
0230
0000
0000
0302
,
0000
0000
0023
0000
,
0000
0230
0000
0000
,
1300
0000
0001
0100
,
0000
0010
1000
0000
,
0100
0010
0000
0000
,
0001
0000
0001
1000
,
0000
1000
0010
0000
,
0010
0100
0000
0000
,
0002
0000
0000
2003
,
0000
0000
3002
0100
,
0100
0203
0000
0000
,
0320
0000
0000
2030
,
0000
0000
3002
0010
,
0010
0023
0000
0000
,
0130
0000
0100
1000
,
0000
1000
0010
0000
,
0010
0001
0000
0001
,
1000
0000
1000
0100
,
0000
0100
0020
0000
,
2030
3000
0001
0000
0000
0000
1000
0000
,
0100
0000
0001
0100
,
1000
0010
0110
0000
,
0001
0100
0010
1000
,
0001
0100
0010
1000
,
0100
0000
0000
0010
0200
0000
0000
0000
,
0300
1000
0000
0001
,
0010
0000
1000
0010
,
0001
0100
0110
0000
,
1000
0010
0100
0001
,
1000
0010
0100
0001
,
0010
0000
0000
0100
2000
0000
0000
0000
,
3000
0000
0001
0000
0000
0000
1000
0100
,
1000
0010
0100
0001
,
0010
0100
1000
0000
,
0001
0010
0001
0000
1000
0000
0010
0000
,
0100
0001
1000
0020
,
0230
0310
0000
2000
,
3002
1003
0000
0200
,
0320
0130
0000
2000
,
3002
1003
0000
0001
,
0001
0100
0100
0010
,
0010
1000
1000
0100
,
0100
0010
0010
0001
,
0001
1000
1000
1001
,
0001
0100
0010
1000
,
0010
0100
0001
0010
,
0100
0000
0000
1001
,
1000
0100
0010
0001
,
0010
0100
1000
0010
,
0100
0000
0000
0002
,
0000
0003
2000
0000
,
3000
0020
0000
0030
,
2000
0000
3000
0001
,
0100
0001
1000
0100
,
1000
0001
0010
0100
,
0010
0010
0010
0002
,
0000
0000
2003
0000
,
0000
3020
0230
0302
,
1003
0000
0100
1000
,
0000
0010
0100
0000
,
0001
0100
0000
0010
,
1000
0001
1000
0100
,
0000
0010
0100
0000
,
0001
0100
1000
0100
,
1000
0000
0001
0100
,
0000
0010
0100
0000
,
1000
0000
0100
0000
0001
0000
0000
0010
,
0100
0000
0000
2000
,
0000
0000
3002
0000
,
0000
1003
0100
0010
,
0001
0000
0000
0000
1000
0001
1000
0000
,
0001
0100
0010
1000
,
0200
1000
0000
0000
,
0001
0000
0300
1000
,
0010
0100
0001
0100
,
0020
1000
0000
0000
,
0001
0000
0030
1000
,
0010
0001
1000
0100
,
0001
0020
0000
0000
,
1000
0000
0030
0001
,
0100
0001
1000
0100
,
1000
0001
0010
0001
,
1000
0010
1000
1001
,
0000
1000
0001
0000
,
1000
0100
1000
0010
,
0100
0001
0100
0110
,
0000
0100
0001
0000
,
1000
0010
0100
0001
,
0010
0100
0010
0000
;

//--------------- dance-single - N ----------------
#NOTEDATA:;
#STEPSTYPE:dance-single;
#DESCRIPTION:N;
#DIFFICULTY:Medium;
#METER:13;
#RADARVALUES:0.583364,0.909742,0.428114,0.452813,0.061747,496,444,52,55,0,0,0,0,0,0.583364,0.909742,0.428114,0.452813,0.061747,496,444,52,55,0,0,0,0,0;
#CHARTNAME:N;
#CHARTSTYLE:;
#CREDIT:N;
#NOTES:
0000
2002
0000
0000
0000
0000
0000
0000
0000
0000
0000
0000
,
0000
0000
0000
0000
,
0000
0000
0000
0000
,
0000
0000
0000
0000
,
0000
0000
0000
0000
,
0000
0000
3003
0000
,
0001
0010
0110
1000
,
0010
0000
0110
0000
1000
0000
0001
0010
,
0001
0010
0100
0000
1000
0000
1010
0000
,
1000
0100
1100
0001
,
0100
0000
0101
0000
1000
0010
1000
0000
,
0001
0100
0001
0000
0011
0000
1100
0000
,
1000
0000
0010
1000
0010
0000
0100
0000
,
0001
0100
0001
0000
1000
0010
0100
0000
,
0001
0010
0100
0000
1010
0000
0101
0000
,
1000
0010
1000
0010
1000
0000
0001
0100
,
0001
0100
0001
0000
1000
0100
1000
0000
,
0001
0010
0100
0000
0110
0000
0000
0000
,
2000
0000
3001
0200
,
0000
0310
2000
0000
,
3001
0010
0002
0000
0000
0000
0003
0000
,
2000
0000
3010
0200
,
0001
0301
2000
0000
,
3010
0100
0020
0000
0000
0000
0030
0000
,
2000
0000
3010
0100
,
0100
0001
0020
0000
,
0130
1000
0200
0000
0000
0000
0300
0000
,
1000
0010
1000
0001
,
0010
0001
2000
0000
,
3001
0100
0002
0000
0000
0000
0003
0000
,
0020
0000
0000
0130
0010
0000
0100
0000
,
1000
0010
0200
1000
,
0010
0301
0000
0000
,
0002
0000
0000
1003
0001
0000
0100
0000
,
0001
0010
0200
0001
,
0010
1300
0000
0000
,
2000
3100
1000
0002
,
0103
0001
0020
0130
,
0010
0002
1003
0001
,
2000
0000
3020
0000
0230
0000
0301
0010
,
0001
0010
0001
0000
0020
0000
0000
0000
,
0230
0300
1000
0000
0001
0100
0001
0000
,
0010
0000
0100
1000
0100
0000
1000
0000
,
0010
0100
0001
0000
,
0010
0100
1000
1010
,
0100
0001
0011
0001
,
1000
0000
0000
0010
1000
0000
1010
0000
,
0110
0000
0010
0000
0100
0001
0100
0000
,
0010
0000
0100
1000
0100
0000
0001
0000
,
0010
0100
1000
0000
,
0010
1000
0001
0101
,
0001
1000
1010
1000
,
0010
0000
0000
0100
0001
0000
1000
0001
,
1000
0001
1000
0000
0010
0000
0100
0001
,
0010
0100
1000
0010
,
0001
1000
0200
0300
,
0010
1000
0010
0000
0100
0000
0001
0000
,
1000
0000
0010
0100
0010
0000
1010
0000
,
0010
0101
0000
0011
,
0010
1100
0000
1001
,
1000
0101
0000
1001
,
0001
0000
0000
1010
0000
0000
0000
0000
0000
0010
0000
0010
,
0100
0000
0100
0001
0000
0000
0101
0000
0000
0001
0000
0001
,
0010
0000
0010
0100
0000
0000
1100
0000
0000
1000
0010
1000
,
0010
0000
0000
0100
0001
0100
0001
0000
0000
1000
0010
0100
,
0001
0100
0010
1000
0100
0010
0001
0000
0000
1001
0000
0000
,
1000
0100
1000
0000
0001
0000
0010
0100
,
0010
0011
0110
1100
,
2000
0000
3000
1010
,
0010
0100
0001
0000
1000
0000
0100
0010
,
0001
0101
1010
0110
,
0002
0000
0003
2000
,
0000
3000
0022
0000
,
0033
0002
0000
0003
,
2020
0000
0000
0000
3030
0000
1000
0100
,
1000
0000
0100
0010
0001
0000
0100
0000
,
0010
1000
0001
1000
,
0010
0100
0010
0100
0010
0100
0002
0000
,
0000
0103
2000
0000
,
3100
0001
1000
0000
0010
0000
1000
0000
,
0200
0000
1300
1010
,
0010
0100
0101
0001
,
0010
0000
0110
0000
0100
0000
0000
0001
,
0200
0000
0300
2000
,
3001
0010
0200
0310
,
0001
1000
0020
0000
0130
0000
1000
0000
,
0200
0310
0100
0101
,
0001
1000
1010
0010
,
1000
0000
0100
0000
0001
0000
0000
0100
,
1000
0000
0001
0010
0100
1000
0001
0000
,
1000
0010
1000
0000
0001
0000
0100
0010
,
0100
1000
0100
0001
,
0010
0000
0000
0000
0001
0010
0200
0000
,
2300
0000
3002
0000
0103
0000
0010
0100
,
0001
0000
1000
0100
1000
0000
0001
0100
,
0001
1010
0101
2000
,
3002
0000
0203
0000
0310
0000
1000
0001
,
1000
0000
0001
0100
0001
0100
0001
0100
,
0001
0010
0100
1100
,
1000
0000
0001
0000
0101
0000
0100
0010
,
0100
0000
0001
0100
0010
1000
0001
0010
,
0100
0010
0100
2000
,
0000
3010
0200
0000
,
0301
0020
0000
0130
,
0002
0000
0103
1000
,
0001
0100
0001
0000
1001
0000
1000
0000
,
0100
0000
1000
0010
0100
0010
1000
0000
,
1100
0100
0010
0011
,
0001
1000
1010
0010
,
0100
0000
0001
1000
0001
0000
1000
0001
,
1000
1001
0110
0000
;

//--------------- dance-single - N ----------------
#NOTEDATA:;
#STEPSTYPE:dance-single;
#DESCRIPTION:N;
#DIFFICULTY:Hard;
#METER:15;
#RADARVALUES:0.713915,1.046203,0.576307,0.831529,0.226406,607,537,70,101,0,0,0,0,0,0.713915,1.046203,0.576307,0.831529,0.226406,607,537,70,101,0,0,0,0,0;
#CHARTNAME:N;
#CHARTSTYLE:;
#CREDIT:N;
#NOTES:
0000
2002
0000
0000
0000
0000
0000
0000
0000
0000
0000
0000
,
0000
0000
0000
0000
,
0000
0000
0000
0000
,
0000
3000
0000
0000
,
0000
0000
0000
0000
,
0000
0000
0000
0003
,
1001
0000
1000
0100
0010
0100
1000
0000
,
0010
0000
0100
0000
0001
0010
0100
1000
,
0100
0010
0001
0000
0011
0000
1100
0000
,
1000
0000
0001
0100
0010
0100
0001
0000
,
0010
0000
0100
0000
1000
0010
0100
0001
,
0100
0010
1000
0000
0110
0000
0110
0000
,
1000
0010
1000
0010
1000
0000
0001
0100
,
0001
0100
0001
0000
1000
0100
0010
0001
,
0010
0100
1000
0000
1010
0000
0101
0000
,
0001
0100
0010
0100
1000
0100
0010
0001
,
0010
0100
0010
1000
0001
0010
0100
1000
,
0100
0010
0001
0000
1001
0000
0000
0000
,
0002
0000
0203
2300
,
0000
3200
0302
0000
,
0023
0230
2300
0000
0000
0000
0000
0000
,
3020
0000
0230
0001
,
0302
0023
0230
0000
,
0301
0100
2000
0000
0000
0000
0000
0000
,
3020
0000
0230
1000
,
2300
0000
3200
0000
0302
0000
1003
0010
,
0100
0001
0020
0000
0230
0000
2300
0000
,
3002
0100
0100
2003
,
0010
0010
3002
0000
,
0103
0010
0200
0000
0000
0000
0300
0000
,
2001
0000
0000
3001
1000
0000
0020
0000
,
2030
3200
2300
0010
,
0001
3200
0000
0000
,
0302
0000
0000
0103
2000
0000
0100
0000
,
0001
3020
0230
1000
,
0010
0302
0000
0000
,
1003
0010
1000
0001
,
0010
0000
0001
0000
1000
0010
1000
0010
,
1000
0010
0100
0001
0100
0001
0100
0001
,
2000
3200
0320
0032
,
0023
0230
2300
0000
,
0002
3003
0011
0000
0100
0000
1000
0000
,
1010
0000
0100
0000
0001
0010
0100
0000
,
0001
0100
1000
0010
,
1000
1001
0101
1010
,
1100
0110
0011
0001
,
0010
0000
0000
0100
1000
0000
0010
0100
,
0001
0100
0010
0000
1010
0000
0110
0000
,
0001
0000
0011
0000
0010
0100
1000
0000
,
1010
0000
0101
0000
0001
0100
0010
0000
,
1000
0010
0110
0000
1010
0000
1100
0000
,
0011
0101
1010
1000
,
0010
0000
0000
0001
0010
0000
1000
0010
,
0100
0010
1000
0000
0100
0000
1100
0000
,
0001
0100
0101
0002
,
0023
0230
0302
0000
,
0103
1000
0020
0000
0230
0000
2300
0000
,
3200
0000
0000
0000
0000
0000
0310
0000
0000
1000
0000
0000
0001
0000
0000
0000
0000
0000
1000
0000
0100
0000
0100
0000
,
0001
0100
0100
1000
0010
0100
0001
0100
0010
1000
0100
0100
,
0001
0000
0100
0000
0100
0000
1000
0000
0010
0000
0100
0000
0002
0000
0000
0003
0000
0000
1000
0000
0010
0000
0010
0000
,
0001
0010
0010
1000
0100
0010
0001
0010
0100
1000
0100
0010
,
1000
0000
0010
0000
0001
0000
1000
0000
0010
0000
0100
0000
0002
0000
0000
0003
0000
0000
0001
0000
0100
0000
0100
0000
,
1000
0100
0100
0001
0010
0100
1000
0010
0100
0001
0010
0010
,
1000
0000
0010
0000
0010
0000
0001
0000
0100
0000
0010
0000
2000
0000
0000
3000
0000
0000
1000
0000
0100
0000
0100
0000
,
0001
0010
0000
0001
0100
0100
1000
0010
0000
1000
0010
1000
,
0001
0000
0010
0000
0001
0000
1000
0000
0100
0000
0010
0000
0002
0000
0000
0003
0000
0000
1000
0000
0000
0000
0000
0000
,
0001
0100
0010
0100
0001
0000
0011
0000
,
0110
0000
1000
0000
0010
0100
0001
0000
,
1000
1010
0110
0010
,
1000
0010
0001
0010
1000
0000
1010
0000
,
0110
0000
0100
0000
1000
0100
0001
0000
,
0010
0100
1100
1000
,
0010
1000
2020
0000
,
3030
0001
0100
0001
,
0202
0000
0000
0000
0303
0000
1000
0100
,
0010
0100
1000
0100
0010
0001
0010
0100
,
0010
0001
2000
0000
3200
0000
0320
0000
,
0031
0001
1000
1000
0010
0010
0200
0000
,
0000
0301
0200
0000
,
1300
0100
0002
0000
0023
0000
0230
0000
,
2300
3000
0001
0011
,
0110
1100
1010
0110
,
0101
0000
0002
0000
0203
0000
0300
1000
,
0200
0000
0000
0000
0300
0000
0001
0010
,
1000
0010
0001
0000
1000
0010
0001
0010
,
1000
0001
0020
0000
2030
0000
3002
0000
,
0203
0000
1300
1010
,
0110
0101
0011
0110
,
1100
0000
0200
0000
0302
0000
0003
0100
,
2000
0000
0000
0000
0000
0000
3010
0100
,
0001
0100
0010
0000
1000
0100
0010
0100
,
1000
0002
2003
3020
,
0230
0000
0000
0000
1300
0100
0002
0000
,
0023
0000
0230
0000
1300
0000
0010
0100
,
0010
0000
1000
0010
1000
0010
0100
0001
,
0010
0110
1100
2000
,
3020
0000
0230
0000
1300
0000
0100
0001
,
0010
0002
0010
1000
,
0103
0000
0110
0000
0110
0000
0001
0010
,
0001
0010
0001
0000
0100
0010
0100
0010
,
0100
0000
1000
0100
0001
0010
0100
1000
,
0020
0000
0000
1030
,
0100
0011
0001
0100
,
1010
1000
0101
0011
,
0001
1100
1010
0101
,
0001
0010
0001
0000
0011
0000
0110
0000
,
1100
0000
1000
0100
0001
0100
1000
0010
,
0100
0000
0110
0000
0101
0000
0001
0010
,
0001
0010
0001
0010
0100
1000
0100
1000
,
0100
1000
0001
0001
1000
1000
0010
0010
,
0100
0110
1001
0000
;
