#TITLE:Gas Gas Gas;
#SUBTITLE:;
#ARTIST:Manuel;
#TITLETRANSLIT:;
#SUBTITLETRANSLIT:;
#ARTISTTRANSLIT:;
#GENRE:;
#CREDIT:;
#BANNER:;
#BACKGROUND:;
#LYRICSPATH:;
#CDTITLE:;
#MUSIC:Gas Gas Gas.mp3;
#OFFSET:0.020000;
#SAMPLESTART:100.035309;
#SAMPLELENGTH:12.000000;
#SELECTABLE:YES;
#BPMS:0.000000=154.199997
,101.000000=154.000000
;
#STOPS:
;
#BGCHANGES:;
#KEYSOUNDS:;
#ATTACKS:;

//---------------dance-single - ----------------
#NOTES:
     dance-single:
     :
     Hard:
     14:
     0.651522,0.685133,0.604225,0.000000,0.281420,551.000000,478.000000,73.000000,0.000000,0.000000,0.000000,0.651522,0.685133,0.604225,0.000000,0.281420,551.000000,478.000000,73.000000,0.000000,0.000000,0.000000:
0000
0000
0000
0000
,
0000
0000
0000
0000
,
0000
0000
1000
1000
0000
0010
0010
0000
,
0100
0100
0000
0001
0000
0001
0011
0000
,
0101
0000
1000
1000
0000
0010
0010
0000
,
0100
0100
0110
0000
0000
0000
1010
0000
,
1001
0000
0001
0100
0000
0100
0010
0000
,
0010
1000
0000
1000
0100
0000
1100
0000
,
0101
0000
0100
0010
0000
0010
1000
0000
,
1000
0010
0001
0000
1000
0100
0001
0010
,
0100
0000
1100
0001
0010
0011
0000
0000
,
0001
0100
0010
1000
0000
1000
0010
0000
,
0010
0001
0010
0100
0010
1010
0000
0000
,
1100
0010
0101
0010
,
1100
0000
1000
0010
1000
0010
0100
0001
,
0100
0001
0010
0100
1000
0001
0100
0010
,
1000
0100
0010
0100
0010
0001
1000
0001
,
1000
0010
0110
0000
0000
0000
1001
0000
,
0000
0000
0000
0000
1000
0000
0010
1000
0010
0000
0100
0000
0000
0000
0001
0000
,
0010
0100
0000
0110
0000
1001
0000
0001
,
1000
0100
0000
0110
0000
1001
0000
1000
,
0001
0010
0000
0110
0000
1001
0000
1001
,
0110
0000
1001
0001
0100
0000
0010
0010
,
1000
0100
1000
0001
0100
0000
0000
0000
,
0010
1000
1000
0000
1000
0100
0000
0110
,
0000
0011
0000
0000
0000
0000
0000
0000
,
0000
0000
0000
0000
1000
0000
0010
0000
0100
0000
0001
0010
0000
0010
0000
0000
,
0100
0000
1000
0010
0000
0100
0010
0000
0100
0001
0000
1000
0010
0000
0000
0010
,
0000
0100
0001
0000
1000
0000
0100
0010
0001
0000
0001
0100
0000
0100
0000
0000
,
0010
0000
1000
0100
0000
0100
0000
0010
0000
0001
0100
0000
0010
0000
1000
0100
,
0000
0100
1000
0000
0010
0000
0100
0001
0100
0000
0010
1000
0000
1000
0000
0000
,
0100
0000
0010
0001
0000
0100
0001
0000
1000
0010
0000
0100
0001
0000
0001
1000
,
0000
1000
0100
0000
0010
0000
0001
1000
0001
0000
0100
0001
0000
0001
0000
0000
,
1000
0010
0100
0000
0110
0000
0000
0000
0000
0000
0000
0000
1001
0000
0000
0000
,
0000
0000
1000
0000
0100
1000
0001
0000
,
0100
0001
0010
0000
0010
1000
0000
0000
,
0010
0001
0000
0100
0010
0010
0000
1000
,
0000
1001
0000
0001
0100
0110
0000
0000
,
0000
0000
1100
0000
0101
0000
0001
0100
,
0010
0010
1000
0100
1000
0001
0000
0000
,
1000
0010
0000
0010
0100
0100
0100
0010
,
0010
0000
1010
1100
1100
0000
0011
0101
,
0101
0000
1001
0000
1000
1000
0100
0010
,
0100
0001
0000
0001
0100
0010
0001
0100
,
0010
0000
1010
0000
0010
0100
0001
0100
,
1000
0001
0000
0010
1000
0010
1000
0100
,
0010
0000
0010
0010
0001
0001
0100
0100
,
0010
0010
0000
1010
1010
0110
0000
0011
,
0000
0000
1000
1000
1000
1010
0000
0100
,
0000
0101
0000
0001
0010
0100
0010
0001
,
0000
0000
1000
0010
1000
0010
0100
0001
,
0100
0001
0010
0001
0010
0100
0010
0100
,
1000
1000
0000
0000
1010
0101
0000
0000
,
0011
1100
0000
1000
0010
0100
0110
0110
,
1001
0000
1000
0100
0010
0001
0100
0001
,
0010
0100
0001
0100
1000
0010
0001
0010
,
0100
0010
1000
0100
0100
0010
0000
0110
,
0011
0101
0000
0110
0000
1001
0000
0000
,
1000
0001
1000
0010
0100
0010
0001
0010
,
1000
0010
1000
0100
0001
0100
0001
0100
,
1000
0010
0100
0000
1010
1100
0000
0000
,
0101
0011
0000
0011
0101
0101
1000
1010
,
0000
1000
0100
0010
0100
1000
0010
0001
,
0010
0100
1000
0100
0010
1000
0100
0001
,
0100
0010
0001
1001
1000
0110
0000
1010
,
0000
1100
0100
0000
0010
0011
0000
0000
,
0000
0000
0000
0000
1000
0000
0010
0000
0100
0000
0001
0010
0000
0010
0000
0000
,
0100
0000
1000
0001
0000
0100
0010
0000
0100
0001
0000
0010
0100
0000
0100
1000
,
0000
1000
0010
0000
0100
0000
0001
1000
0001
0000
0010
0100
0000
1000
0000
0000
,
0010
0000
0001
0010
0000
0010
0100
0000
0100
0001
0000
0001
1000
0000
0000
1000
,
0000
0100
1000
0000
0010
0000
0010
0100
0010
0000
1000
0100
0000
0100
0000
0000
,
0010
0000
0001
0100
0000
0001
0010
0000
0100
1000
0000
0010
1000
0000
0000
0100
,
0000
1000
0010
0000
0100
0000
0001
1000
0001
0000
0100
0000
0010
0100
0000
0100
,
0001
1000
0001
1000
0010
0000
0000
0000
0000
0000
0000
0000
0110
0000
0000
0000
,
0000
0000
0000
0000
0100
0010
0100
0010
0100
0010
0100
0010
1000
0001
1000
0001
,
1000
1001
0000
0000
;

//---------------dance-single - ANOTHER----------------
#NOTES:
     dance-single:
     :
     Medium:
     11:
     0.555745,0.622848,0.380744,0.000000,0.186234,470.000000,424.000000,46.000000,0.000000,0.000000,0.000000,0.555745,0.622848,0.380744,0.000000,0.186234,470.000000,424.000000,46.000000,0.000000,0.000000,0.000000:
0000
0000
0000
0000
,
0000
0000
0000
0000
,
0000
0000
1000
1000
0000
1000
1000
0000
,
1000
1000
0000
1000
1000
0000
0010
0000
,
0100
0000
0001
0001
0000
0001
0001
0000
,
0001
0001
0010
0000
0000
0000
0100
0000
,
1000
0000
0010
0100
0000
0100
0010
0000
,
0010
0100
0000
0100
0010
0000
1000
0000
,
0001
0000
0010
0100
0000
0100
0010
0000
,
0010
0001
0100
0000
0000
0000
0110
0000
,
0010
0000
1000
0000
0100
1000
0000
0000
,
1001
0000
0001
0100
0000
0100
0001
0000
,
0001
0010
0100
0000
0100
1000
0000
0000
,
1010
0000
0011
0000
,
1010
0000
1000
0100
1000
0000
0001
0100
,
0001
0010
0100
1000
0000
1000
0010
0000
,
0010
0100
0001
0010
0001
0000
1000
0010
,
1000
0100
0110
0000
0000
0000
1001
0000
,
0000
0000
1000
0001
0100
0001
0000
1000
,
0100
1000
0000
1100
0000
0011
0000
0100
,
0001
0100
0000
0101
0000
1010
0000
1000
,
0100
1000
0000
1100
0000
0011
0000
0001
,
0100
0000
0110
0000
0010
1000
0010
0000
,
0100
1000
0000
0100
0001
0000
0000
0000
,
1000
0100
1000
0000
0010
0100
0000
0110
,
0000
1001
0000
0000
0000
0000
0000
0000
,
0000
0000
0000
0000
1000
0000
0100
0000
1000
0000
0010
0100
0000
0100
0000
0000
,
0001
0000
1000
0010
0000
0010
0100
0000
0001
0000
1000
0000
0100
0000
0010
0100
,
0000
0000
0100
0000
1000
0000
0001
0000
0010
0000
0001
0010
0000
0010
0000
0000
,
0100
0000
1000
0010
0000
0010
0100
0000
0001
0000
0100
0000
0010
0000
0000
0010
,
0000
1000
0100
0000
0010
0000
0100
0000
1000
0000
0001
0100
0000
0100
0000
0000
,
0010
0000
1000
0010
0000
0010
0100
0000
0001
0000
0010
0000
0001
0000
1000
0100
,
0000
0000
0100
0000
1000
0000
0010
0100
0010
0000
1000
0001
0000
0001
0000
0000
,
0100
0010
1010
0000
0000
0000
0101
0000
,
0000
0000
1000
0000
1000
0000
0010
0100
,
0010
1000
0100
1000
0001
0010
0000
0000
,
0010
0001
0000
0100
0100
0100
0000
0010
,
0000
1010
0000
0000
0100
0001
1000
0000
,
1000
0000
0110
0000
0010
0000
1000
0001
,
0100
0000
0001
0010
0001
0010
0000
0100
,
1000
0000
1000
1000
0010
0100
0100
0100
,
0100
0000
0001
0010
0001
0000
1000
0010
,
1000
0000
1100
0000
0100
0010
0100
0100
,
0000
1001
0000
1000
0010
0100
0010
0010
,
0010
0000
1001
0000
0001
0100
0010
0010
,
0000
0110
0000
1000
0001
1000
0100
0100
,
0000
0000
0100
0010
0100
0010
0001
1000
,
0001
1000
0000
1010
1000
0100
0000
0110
,
0000
0000
0010
0010
0010
0001
0000
0100
,
0000
1001
0000
1000
0010
0100
0000
0100
,
0000
0000
0001
0000
1000
0100
0000
0100
,
1000
0010
0000
0100
0010
1000
0001
0100
,
0001
0100
0000
0000
1010
0100
0000
0000
,
1001
0010
0000
0100
1000
0010
0100
0100
,
0000
0000
1100
0000
0100
1001
0000
0000
,
0010
0101
0000
1000
0100
1000
0010
0001
,
0010
0100
0000
0010
1000
0010
0000
0110
,
0000
1010
0000
0100
0001
0010
0000
0000
,
0000
0000
0100
1000
0010
0100
0000
0001
,
0010
0100
0000
0010
0001
0100
0001
1000
,
0100
0100
0000
0000
0011
0100
0000
0000
,
1001
0100
0000
1000
1000
0010
0100
0100
,
0000
0000
0101
0000
1000
0110
0000
0000
,
0010
1001
0000
0001
0100
0001
0010
0100
,
0010
0100
0000
0110
0100
1000
0000
1010
,
0000
0101
0000
0100
0010
1010
0000
0000
,
0000
0000
0000
0000
1000
0000
0010
0000
0100
0000
0001
0010
0000
0010
0000
0000
,
0100
0000
1000
0001
0000
0100
0001
0000
1000
0001
0000
0100
0001
0000
0010
0000
,
0100
0000
0000
0000
1000
0000
0010
0000
1000
0000
0001
0100
0000
0100
0000
0000
,
0001
0000
1000
0100
0000
1000
0001
0000
1000
0100
0000
0010
0100
0000
1000
0001
,
0000
0000
0100
0000
0010
0000
1000
0100
1000
0000
0010
0100
0000
0100
0000
0000
,
0001
0000
0010
0100
0000
0010
0100
0000
1000
0010
0000
1000
0010
0000
0100
0001
,
0000
0000
1000
0000
0010
0000
0100
0001
0100
0000
0001
0010
0000
0010
0000
0000
,
0100
1000
1001
0000
0000
0000
0110
0000
,
0000
0000
0000
0000
1000
0001
1000
0000
0010
0000
0100
0000
0010
0100
0010
0000
,
1000
1100
0000
0000
;

//---------------dance-single - BASIC----------------
#NOTES:
     dance-single:
     :
     Easy:
     9:
     0.445778,0.467136,0.331082,0.000000,0.132433,377.000000,337.000000,40.000000,0.000000,0.000000,0.000000,0.445778,0.467136,0.331082,0.000000,0.132433,377.000000,337.000000,40.000000,0.000000,0.000000,0.000000:
// measure 0
0000
0000
0000
0000
,  // measure 1
0000
0000
0000
0000
,  // measure 2
0000
0000
1000
0000
0000
1000
0000
0000
,  // measure 3
1000
0000
0000
1000
0000
0000
0010
0000
,  // measure 4
0010
0000
0100
0000
0000
0100
0000
0000
,  // measure 5
0100
0001
0000
0010
,  // measure 6
0010
0000
0100
1000
0000
0100
1000
0000
,  // measure 7
0100
1000
0000
0100
1000
0000
0010
0000
,  // measure 8
0010
0000
0100
0001
0000
0100
0001
0000
,  // measure 9
0100
0001
0010
0000
0000
0000
0010
0000
,  // measure 10
0100
0000
1100
0000
0000
1100
0000
0000
,  // measure 11
1000
0000
0001
0100
0000
0001
0010
0000
,  // measure 12
0001
0000
0101
0000
0000
0101
0000
0000
,  // measure 13
0001
1000
0001
1000
,  // measure 14
0001
0010
0100
0010
,  // measure 15
0100
0000
1000
0010
0000
0010
0100
0000
,  // measure 16
0100
0001
0000
0000
1000
0000
0010
0000
,  // measure 17
1000
1010
0000
0110
,  // measure 18
0000
0000
0000
0010
0010
0010
0000
0000
,  // measure 19
1000
0000
0000
1100
0000
0101
0000
0001
,  // measure 20
0100
0000
0000
1010
0000
0011
0000
1000
,  // measure 21
0100
0000
0000
0011
0000
0101
0000
1000
,  // measure 22
0001
0000
1000
0100
1000
0000
0010
0000
,  // measure 23
0100
0001
0000
0001
0010
0000
0000
0000
,  // measure 24
0100
1000
1000
0000
1000
0010
0000
0100
,  // measure 25
0000
1001
0000
0000
0000
0000
0000
0000
,  // measure 26
0000
0000
0000
0000
1000
0000
0000
0000
0010
0000
0100
0000
0000
0010
0000
0000
,  // measure 27
1000
0000
0000
1000
0000
0000
0001
0000
0000
0100
0000
0000
0010
0000
0010
0000
,  // measure 28
1000
0000
0000
0000
0001
0000
1000
0000
0010
0000
0000
0100
0000
0010
0000
0000
,  // measure 29
1000
0000
0000
0001
0000
0000
1000
0000
0000
1000
0000
0000
0100
0000
0000
0000
,  // measure 30
0010
0000
0001
0000
0100
0000
0000
0000
0010
0000
0000
1000
0000
1000
0000
0000
,  // measure 31
0001
0000
0000
0010
0000
0000
0100
0000
0000
0100
0000
0000
0010
0000
0001
1000
,  // measure 32
0000
0000
1000
0000
0010
0000
0100
0000
0010
0000
0000
1000
0000
1000
0000
0000
,  // measure 33
0001
0100
0110
0000
0000
0000
1001
0000
,  // measure 34
0000
0000
1000
0000
1000
0000
0010
0100
,  // measure 35
0010
0000
0100
0000
0001
0001
0000
0000
,  // measure 36
0010
0100
0000
0100
0000
1000
0000
0010
,  // measure 37
0000
0110
0000
0000
1000
0001
0000
0000
,  // measure 38
0000
0000
1100
0000
1010
0000
0010
0100
,  // measure 39
0010
0000
1000
0000
0001
0010
0000
0000
,  // measure 40
0000
0100
0000
0100
1000
0000
0100
1000
,  // measure 41
0010
0000
0100
0100
0100
0000
0010
0010
,  // measure 42
0010
0000
0000
0000
1000
0001
1000
0001
,  // measure 43
0000
0010
0000
0000
0001
0100
0001
0100
,  // measure 44
0000
0000
0010
0000
1000
0100
1000
0100
,  // measure 45
0000
0010
0000
0001
0001
0010
0000
1100
,  // measure 46
0000
0000
1000
0010
1000
0000
0001
0100
,  // measure 47
0001
0100
0000
0010
0000
1000
0000
0101
,  // measure 48
0000
0000
1000
1000
0000
0010
0000
0110
,  // measure 49
0000
0101
0000
1001
0000
1001
0000
1001
,  // measure 50
0000
0000
1000
0000
1000
0010
0000
0000
,  // measure 51
0010
0100
0000
0001
1000
0000
0001
0000
,  // measure 52
0010
0100
0000
0000
1100
1000
0000
0000
,  // measure 53
0011
0001
0000
1000
1000
0010
0010
0100
,  // measure 54
0000
0000
1001
0000
0001
0010
0000
0000
,  // measure 55
0010
0100
0000
1000
0010
0010
1000
0001
,  // measure 56
0100
0001
0000
1000
0000
1100
0000
0010
,  // measure 57
0000
0011
0000
0000
0000
1001
0000
0000
,  // measure 58
0000
0000
1000
0000
0010
0100
0000
0000
,  // measure 59
0100
1000
0000
1000
0100
0001
0001
0000
,  // measure 60
0010
0100
0000
0000
1000
1010
0000
0000
,  // measure 61
0001
0101
0000
1000
0010
0000
0100
0001
,  // measure 62
0000
0000
1100
0000
1000
0100
0000
0000
,  // measure 63
0010
0001
0000
1000
0001
0000
0100
0010
,  // measure 64
0100
0010
0000
1000
1000
1000
0000
0110
,  // measure 65
0000
0011
0000
0000
0000
1010
0000
0000
,  // measure 66
0000
0000
0000
0000
1000
0000
0010
0000
0100
0000
0000
0001
0000
0001
0000
0000
,  // measure 67
0100
0000
0010
1000
0000
0000
0100
0000
0000
0010
0000
0000
0100
0000
0000
0010
,  // measure 68
0000
0001
0100
0000
0010
0000
1000
0000
0001
0000
0000
1000
0000
1000
0000
0000
,  // measure 69
0100
0000
0010
0001
0000
0000
0001
0000
0000
1000
0000
0000
0010
0000
0000
0010
,  // measure 70
0000
0000
0100
0000
0001
0000
1000
0000
0010
0000
0000
0100
0000
0100
0000
0000
,  // measure 71
1000
0000
0000
0100
0000
0000
0001
0000
0000
0010
0000
0000
0100
0000
0000
0100
,  // measure 72
0000
0000
0010
0000
0001
0000
1000
0000
0100
0000
0000
0001
0000
0001
0000
0000
,  // measure 73
0100
0010
0011
0000
0000
0000
1001
0000
,  // measure 74
0000
0000
1000
0001
1000
0001
0100
0010
,  // measure 75
0100
0110
0000
0000
;
