#TITLE:Garden of Clarity;
#SUBTITLE:;
#ARTIST:Z-I-v Sound Team "Karl with a K"(respect for Lili Boulanger);
#TITLETRANSLIT:;
#SUBTITLETRANSLIT:;
#ARTISTTRANSLIT:;
#GENRE:;
#CREDIT:;
#BANNER:Garden of Clarity banner.png;
#BACKGROUND:Garden of Clarity bg.png;
#LYRICSPATH:;
#CDTITLE:;
#MUSIC:Garden of Clarity.ogg;
#OFFSET:0.000000;
#SAMPLESTART:56.842106;
#SAMPLELENGTH:15.000000;
#SELECTABLE:YES;
#BPMS:0.000000=57.000000
;
#STOPS:
;
#BGCHANGES:;
#KEYSOUNDS:;
#ATTACKS:;

//---------------dance-single - XO- DS- JA FL JU-----------------
#NOTES:
     dance-single:
     :
     Hard:
     14:
     0.528320,0.612521,0.093304,0.390181,1.145096,436.000000,425.000000,11.000000,46.000000,0.000000,0.000000,0.528320,0.612521,0.093304,0.390181,1.145096,436.000000,425.000000,11.000000,46.000000,0.000000,0.000000:
0000
0000
0000
0000
,
1000
0000
0100
1000
0001
0100
0001
0000
0100
0001
1000
0100
0010
0000
0001
0100
0001
0100
0010
0000
1000
0100
1000
0100
,
0010
0000
0001
0000
0001
0000
0010
0000
0000
0000
0100
0000
1000
0000
0010
0000
0010
0000
1000
0000
0000
0000
0100
1000
0001
0000
0100
0000
0100
0000
0001
0000
1000
0001
1000
0001
0010
0000
0000
0000
0000
0000
0000
0000
0000
0000
0000
0000
,
0000
0000
0100
0000
0000
0000
1000
0000
0100
0100
0010
0000
0001
0000
0100
0000
0100
0000
0001
0000
0100
0001
0000
0001
,
1000
0000
0001
0000
1000
0000
0100
0000
0010
0000
0100
0000
1000
0000
0100
0000
0100
0000
1000
0000
0100
1000
0000
1000
,
0001
0000
1000
0000
0001
0000
0100
0000
0010
0000
0100
0010
1000
0000
0100
0000
1000
0000
0100
0000
0010
0001
2000
0000
,
3001
0000
0100
0000
0001
0000
0100
0000
0010
1000
0002
0000
0013
0000
0001
0000
0010
0000
0100
0000
1000
0010
0200
0000
,
0310
0000
0000
0000
1000
0000
0000
0000
0010
0000
0000
0000
0100
0000
0000
0000
0001
0000
0000
0000
0010
0001
0010
0000
0100
0000
1000
0000
0010
0000
0100
0000
0001
0000
1000
0000
0001
0000
0010
0000
0100
0000
1000
0000
0010
0000
0100
0000
,
0001
0100
0001
0010
0001
1000
0000
0001
0001
1000
1000
0100
0020
0000
0001
0000
0001
0000
0230
0000
0000
0310
0002
0000
,
2003
0000
0000
0000
0000
0000
0000
0000
0000
0000
0000
0000
0000
0000
0000
0000
0010
0000
0000
0000
0000
0000
0000
0000
0000
0000
0000
0000
0000
0000
0000
0000
0010
0000
0000
0000
0000
0000
0000
0000
0000
0000
0000
0000
0000
0000
0000
0000
3002
0000
0000
0000
0000
0000
0000
0000
0000
0000
0000
0000
0000
0000
0000
0000
0203
0000
0000
0000
0000
0000
0000
0000
0000
0000
0000
0000
0000
0000
0000
0000
0310
0000
0000
0000
0000
0000
0000
0000
0000
0000
0000
0000
0000
0000
0000
0000
1000
0000
0000
0000
0000
0000
0000
0000
0000
0000
0000
0000
0000
0000
0001
0000
0010
0000
0000
0000
0000
0000
0000
0000
0000
0000
0000
0000
0000
0000
0001
0000
1000
0000
0000
0000
0000
0000
0000
0000
0000
0000
0000
0000
0000
0000
0100
0000
2000
0000
0000
0000
0000
0000
0000
0000
0000
0000
0000
0000
0000
0000
0000
0000
3000
0000
0000
0000
0000
0000
0000
0000
0000
0000
0000
0000
0000
0000
0001
0000
1000
0000
0000
0000
0000
0000
0000
0000
0000
0000
0000
0000
0000
0000
0000
0000
,
0100
0000
0000
0000
0000
0000
0000
0000
0010
0000
0000
0000
0000
0000
0000
0000
0001
0000
0000
0000
0000
0000
0000
0000
0000
0000
0000
0000
0000
0000
1000
0000
0001
0000
0000
0000
0000
0000
0000
0000
0000
0000
0000
0000
0000
0000
0000
0000
0100
0000
0000
0000
0000
0000
0000
0000
0010
0000
0000
0000
0000
0000
0000
0000
1000
0000
0000
0000
0000
0000
0000
0000
0000
0000
0000
0000
0000
0000
0001
0000
1000
0000
0000
0000
0000
0000
0000
0000
0000
0000
0000
0000
0000
0000
0000
0000
0000
0000
0000
0000
0000
0000
0000
0000
0001
0000
0000
0000
0010
0000
0000
0000
0001
0000
0000
0000
0000
0000
0000
0000
0000
0000
0000
0000
0000
0000
1000
0000
0020
0000
0000
0000
0000
0000
0000
0000
0000
0000
0000
0000
0000
0000
0000
0000
0130
0000
0000
0000
0000
0000
0000
0000
0000
0000
0000
0000
0000
0000
0001
0000
1000
0000
0000
0000
0000
0000
0000
0000
0000
0000
0000
0000
0000
0000
0000
0000
0100
0000
0000
0000
0000
0000
0000
0000
0000
0000
0000
0000
0000
0000
0000
0000
,
0010
0000
0000
0000
0100
0000
1000
0001
1000
0000
0000
0000
0001
0000
0100
0000
0010
0000
0110
0000
0001
0000
1000
0000
0001
0000
0010
0000
0100
0000
0110
0000
0001
0000
1000
0000
1000
0000
0100
0000
0010
0000
0100
0000
1000
0000
0001
0000
,
1000
0000
0010
0000
0100
0000
0010
0000
1000
0001
1000
0001
0000
0000
0000
0000
2010
0000
0000
0000
3001
0010
0000
0000
0100
1000
0000
0000
0010
1000
0000
0000
0001
1000
0000
0000
0001
0100
0000
0000
0001
1000
0000
0000
0100
0010
0000
0000
,
0011
0000
0000
0000
1000
0000
1000
0000
0001
0000
0001
0000
0110
0000
0000
0000
1000
0001
1000
0000
0010
1000
0001
1000
0100
0000
1000
0000
0001
0000
0010
0000
0100
0000
0010
0000
1000
0000
0010
0000
0100
0000
0010
0000
0001
0000
1000
0000
,
0010
1000
0001
0100
0010
0100
1000
0100
0010
0100
0001
1000
0010
1000
0100
1000
0001
0000
0010
0001
0100
0001
1000
0000
,
0100
0000
1000
0000
0010
0000
1000
0000
0001
0000
0000
0000
0100
0000
0001
0000
1000
0000
0001
0000
0010
0100
0000
0000
0010
0000
0001
0000
1000
0000
0100
0000
0010
0000
0100
0000
0001
0000
0100
0000
0010
0000
0100
0000
1000
0000
0001
0000
,
0100
0001
1000
0010
0100
0010
0001
0010
0100
0010
1000
0001
0100
0001
0010
0001
1000
0000
0100
1000
0010
1000
0001
0000
,
0010
0000
0001
0000
0100
0000
0001
0000
1000
0000
0000
0000
0010
0000
1000
0000
0001
0000
1000
0000
0100
0010
0000
0000
1002
0000
0000
0000
0203
0000
0000
0000
0320
0000
0000
0000
0032
0000
0000
0000
0023
0000
0000
0000
1030
0000
0000
0000
,
1000
0000
0100
1000
0001
0000
0010
0000
0001
0000
0001
0000
2000
0000
3200
0000
0320
0000
2030
0000
3020
0000
0031
0000
,
0001
0000
0100
0001
1000
0000
0010
0000
1000
0000
1000
0000
2010
0000
3002
0000
0203
0000
2300
0000
3200
0000
0301
0000
,
0001
0000
0010
0100
1000
0000
0100
0000
1000
0000
1000
0000
0012
0000
2003
0000
3200
0000
0302
0000
0203
0000
1300
0000
,
1000
0000
0010
0100
0001
0000
0100
0000
0001
0000
0001
0000
1000
0100
1000
0000
0001
0000
0200
0000
0001
0000
0301
0000
,
2000
0000
3001
1000
0001
0000
0020
0000
0001
0000
0031
0000
2000
0000
0000
3001
1000
0000
1001
0000
0000
0001
0010
0000
,
0200
0000
1000
0000
1300
0000
0002
0000
1000
0000
1003
0000
0020
0000
1030
0001
1000
0000
1001
0000
0000
0001
0100
0000
,
0001
1000
0000
1000
0010
0000
0200
0000
0301
0100
0001
0000
2000
0000
3001
1000
0001
0000
0020
0000
0130
1000
0100
0000
,
2000
0001
0000
3001
0000
0000
1001
0000
0000
1000
0100
0000
0020
0000
0000
0000
0000
0000
0032
0000
0000
0000
0000
0000
,
0000
2003
0000
3001
,
0000
1000
0000
0000
;

//---------------dance-single - ----------------
#NOTES:
     dance-single:
     :
     Medium:
     11:
     0.300512,0.311721,0.042411,0.466521,0.602236,248.000000,243.000000,5.000000,55.000000,0.000000,0.000000,0.300512,0.311721,0.042411,0.466521,0.602236,248.000000,243.000000,5.000000,55.000000,0.000000,0.000000:
0000
0000
0000
0000
,
1000
0010
1000
0001
0010
0001
1000
0010
0100
0001
0010
0100
,
0110
0000
0000
0010
0000
0000
0011
0000
0000
0001
0000
0000
1001
0000
0000
1000
0010
0000
0100
0000
0000
0000
0000
0000
,
0000
0000
0001
0000
0000
0000
1000
0000
0100
0000
0010
0000
0001
0000
1000
0000
0001
0000
2000
0000
0000
3020
0000
0000
,
1030
0000
0200
0000
0000
0000
0300
0000
0010
0000
0100
0000
1000
0000
0001
0000
1000
0000
0002
0000
0000
0023
0000
0000
,
0031
0200
0000
0310
1000
0001
1000
0100
1000
0100
0000
1000
,
0001
0100
0001
0100
0000
0001
0010
0100
0010
0100
0000
1000
,
0010
0100
0010
0100
0000
0001
0001
0100
0001
1000
0100
1000
,
0001
0000
0100
0000
0010
0000
0000
1000
0001
0000
0010
0000
0002
0000
0000
0000
0000
0000
0203
0000
0000
0000
0001
0000
,
0302
0000
0000
2003
0000
3001
0100
0010
1000
0001
0000
1000
,
0100
0010
0010
0001
1000
0001
0000
0010
0001
0000
1000
0001
,
0010
0001
1000
0001
0100
0100
0001
0010
0100
1000
0100
0100
,
1000
0100
0010
0000
1001
1000
0100
0010
0100
1000
0010
0100
,
0010
0000
0110
0000
0100
0000
0001
0000
1000
0001
1000
0000
0200
0000
2300
0000
3002
0000
0023
0000
0032
0000
0103
0000
,
0200
0302
2003
3020
2030
3002
0023
0230
2300
3020
0230
0302
,
0023
0230
2300
3020
0230
0320
2030
3002
2003
3200
2300
3010
,
0020
2030
3002
0203
0302
2003
3200
0320
0032
0203
0320
2030
,
3200
0320
0032
0203
0320
0100
1030
0100
0010
0001
0100
0010
,
0010
0000
1000
1000
0000
0001
0001
0100
0010
1000
0100
0010
,
0010
0000
0001
0001
0000
1000
0001
0010
0100
1000
0010
0100
,
0100
0000
0001
0001
0000
1000
1000
0010
0100
0001
0010
0100
,
0100
0000
1000
1000
0000
0001
1000
0100
0000
0010
0100
0000
,
1000
0100
0000
0010
0100
0000
1000
0001
0000
0010
0001
0000
,
0100
0010
0000
0100
0001
0000
0010
0100
0000
1000
0100
0000
,
1000
0001
0100
0010
,
1000
0001
1000
0001
,
0000
1000
0000
0000
;

//---------------dance-single - ----------------
#NOTES:
     dance-single:
     :
     Easy:
     6:
     0.147833,0.194666,0.050893,0.212055,0.097545,122.000000,116.000000,6.000000,25.000000,0.000000,0.000000,0.147833,0.194666,0.050893,0.212055,0.097545,122.000000,116.000000,6.000000,25.000000,0.000000,0.000000:
0000
0000
0000
0000
,
1000
0100
1000
0001
,
1001
0110
1001
1000
,
0000
0000
0001
0010
,
0100
0100
1000
0010
,
0100
0100
0001
0001
,
1000
1000
0100
0100
,
0010
0000
0010
0000
0001
0100
0001
0000
,
1000
0000
0000
0100
0000
0000
0000
1000
0000
0000
0000
0000
0002
0000
0000
0000
0000
0000
0100
0000
0000
0000
0000
0000
,
2003
0100
3001
0001
,
0100
0000
0000
0010
0000
0000
0000
1000
0000
0000
0100
0000
,
0010
0002
2003
3002
,
2003
0000
0000
3000
0220
0000
0000
0000
0000
0000
0000
0330
,
1001
0000
0000
1000
0000
0100
0100
0000
0010
0010
0000
0001
,
0001
0000
1000
1000
0000
0010
0010
0100
0000
0001
0100
0000
,
0001
1000
0000
0100
0010
0001
1000
0000
0010
0010
0000
0100
,
0100
0000
0001
0001
0000
1000
1000
0100
0000
0010
0100
0000
,
1000
0001
0000
0100
0010
1000
0002
0000
0000
0010
0000
0000
,
1000
0100
2003
0010
,
0001
0100
3002
0010
,
0100
1000
2003
0010
,
0100
0001
3002
0203
,
0302
0023
0230
1300
,
0200
2300
3020
0230
,
0301
0200
0302
0023
,
0230
1300
1001
0000
;

//---------------dance-single - ----------------
#NOTES:
     dance-single:
     :
     Beginner:
     2:
     0.058164,0.064889,0.016964,0.000000,0.004241,48.000000,46.000000,2.000000,0.000000,0.000000,0.000000,0.058164,0.064889,0.016964,0.000000,0.004241,48.000000,46.000000,2.000000,0.000000,0.000000,0.000000:
// measure 0
0000
0000
0000
0000
,  // measure 1
1000
0000
0001
0000
,  // measure 2
1000
0000
0000
0001
,  // measure 3
0000
0000
1000
0000
,  // measure 4
0100
0000
1000
0000
,  // measure 5
0001
0000
0001
0000
,  // measure 6
0100
0000
0010
0000
,  // measure 7
0100
0000
0001
0000
,  // measure 8
1000
0000
0001
0000
,  // measure 9
0000
0000
0010
0000
,  // measure 10
0000
0000
0100
0000
,  // measure 11
0000
1000
0000
0001
,  // measure 12
0000
0000
0000
0000
1001
0000
0000
0000
0000
0000
0000
0000
,  // measure 13
1001
0000
1000
0000
,  // measure 14
0001
0000
0010
0000
,  // measure 15
0100
0000
1000
0000
,  // measure 16
1000
0000
0010
0000
,  // measure 17
0100
0000
0001
0000
,  // measure 18
1000
0000
0001
0000
,  // measure 19
1000
0000
0001
0000
,  // measure 20
1000
0000
0001
0000
,  // measure 21
1000
0000
0001
0000
,  // measure 22
0010
0000
0100
0000
,  // measure 23
1000
0000
0010
0000
,  // measure 24
0100
0000
0001
0000
,  // measure 25
1000
0000
0001
0000
;
