#TITLE:Gangnam Style;
#SUBTITLE:;
#ARTIST:PSY;
#TITLETRANSLIT:;
#SUBTITLETRANSLIT:;
#ARTISTTRANSLIT:;
#GENRE:;
#CREDIT:;
#MUSIC:Gangnam Style.ogg;
#BANNER:Gangnam Style-bn.png;
#BACKGROUND:Gangnam Style-bg.png;
#CDTITLE:cdtitle.png;
#SAMPLESTART:66.441;
#SAMPLELENGTH:12.000;
#SELECTABLE:YES;
#OFFSET:-0.042;
#BPMS:0.000=131.990;
#STOPS:;
#BGCHANGES:0.250=Gangnam Style.avi=1.000=0=0=1,
296.000=Gangnam Style-bg.png=1.000=0=0=1,
99999.000=-nosongbg-=1.000=0=0=0=StretchNoLoop====
;
#FGCHANGES:;

//--------------- dance-single - ----------------
#NOTES:
     dance-single:
     :
     Beginner:
     2:
     0.092323,0.185708,0.022032,0.051407,0,88,85,3,7,0,0,0.092323,0.185708,0.022032,0.051407,0,88,85,3,7,0,0:
0000
0000
0000
0000
,
0000
0000
0000
0000
,
0000
0000
0000
0000
,
0000
0000
0000
0000
,
0000
1001
0000
0000
,
0000
0000
0000
0000
,
0000
0000
0000
0000
,
0000
1000
0000
0001
,
0000
1000
0000
0000
,
0000
0010
0000
0000
,
0000
0100
0000
0000
,
0000
0010
0000
0000
,
0000
1000
0000
0000
,
0000
0001
0000
0000
,
0000
0010
0000
0010
,
0000
0000
0200
0000
0000
0000
0000
0300
,
0000
1000
0000
0000
,
0001
0000
0001
0000
,
0100
0100
0000
0000
,
0010
0000
0010
0000
,
1000
1000
0000
0000
,
0001
0000
0001
0000
,
0010
0010
0000
0100
,
0100
0200
0000
0300
,
0000
1000
0000
0000
,
0000
0001
0000
0000
,
0000
0100
0000
0000
,
0000
0010
0000
0000
,
0000
1000
0000
0000
,
0000
0001
0000
0000
,
0000
0010
0000
0000
,
0000
0100
0000
0000
,
0000
0010
0000
0010
,
0000
0100
0100
0100
,
0100
0200
0000
0000
,
0000
0300
0000
0000
,
0000
0000
0000
0000
,
0000
1000
0000
0001
,
0000
0100
0000
0010
,
0000
0100
0000
0000
,
0000
0010
0000
0000
,
0000
1001
0000
0000
,
0000
1000
0000
0000
,
0000
0100
0000
0000
,
0000
0010
0000
0010
,
0000
0200
0000
0000
,
0000
0300
0000
1000
,
0000
0001
0000
0000
,
0000
0001
0000
0000
,
0000
2000
0000
0000
,
0000
3000
0000
0010
,
0000
0010
0000
0000
,
0000
0100
0000
0100
,
0000
0010
0000
0000
,
0000
1000
0000
0000
,
0000
0001
0000
0000
,
0000
0010
0000
0000
,
0000
0100
0000
0000
,
0000
1000
0000
0000
,
0000
0001
0000
0000
,
0000
0100
0000
0000
,
0000
0010
0000
0000
,
0000
1000
0000
1000
,
0000
0002
0000
0000
,
0000
0003
0000
1000
,
0000
0010
0000
0000
,
0000
0010
0000
0000
,
0000
0200
0000
0000
,
0000
0300
0000
0010
,
0000
1000
0000
0000
,
0000
1000
0000
1000
,
0000
0001
0000
0000
,
0000
1001
0000
0000
;

//--------------- dance-single - ----------------
#NOTES:
     dance-single:
     :
     Easy:
     5:
     0.230807,0.271723,0.066095,0.058751,0.044063,220,211,9,8,0,0,0.230807,0.271723,0.066095,0.058751,0.044063,220,211,9,8,0,0:
0000
0000
0000
0000
,
0000
0000
0000
0000
,
0000
0000
0000
0000
,
0000
0000
0000
0000
,
0000
1001
0000
0000
,
0000
0000
0000
0000
,
0000
0000
0000
0000
,
0000
0000
0000
0000
1000
0000
0000
1000
0000
0000
0000
0000
0001
0000
0000
0001
,
0000
0100
0000
0010
,
0000
0100
0010
1000
,
0000
0001
0010
0100
,
0010
0001
0001
1000
,
0000
0010
0000
0100
,
0010
1000
0001
0010
,
0100
0010
0010
0001
,
1000
0000
0000
0000
0010
0000
0000
0010
0000
0000
0000
0000
0100
0000
0000
0100
,
0000
0010
0000
1000
,
0100
0010
0100
1000
,
0010
0100
0000
0010
,
1000
0001
0001
0010
,
0100
1000
0000
0100
,
0010
0001
1000
0010
,
0100
0010
0010
0100
,
0001
0000
0000
0000
0001
0000
0000
0001
0000
0000
0000
0000
1000
0000
0000
1000
,
0000
0000
0100
0000
0000
0010
0000
0000
,
0010
0000
0001
0000
0000
1000
0000
0000
,
0010
0000
0100
0000
0000
1001
0000
0000
,
1000
0000
0100
0000
0000
1001
0000
0000
,
0000
0000
0001
0000
0000
0001
0000
0000
,
0100
0000
0010
0000
0000
0010
0000
0000
,
0100
0000
0001
0000
0000
1001
0000
0000
,
1000
0000
0100
0000
0000
0110
0000
0000
,
0010
0001
0001
1000
,
1000
0010
0010
0010
,
0010
0020
0000
0000
,
0000
0000
0000
0030
,
0000
0000
0000
0000
,
0000
1001
1000
0100
,
0100
0010
0001
1000
,
1000
0000
0010
0000
0000
0010
0000
0010
,
0000
0010
0000
0000
0100
0000
0010
0000
,
1000
1001
1000
0100
,
0010
0001
1000
0010
,
0010
0000
0100
0000
0000
0100
0000
0100
,
0000
0100
0000
0000
0010
0000
1000
0000
,
0001
0020
0100
1000
,
0100
0000
0001
0030
1000
0000
1000
0000
,
0010
0000
0100
0000
0000
0010
0000
0100
,
0000
0010
0000
0000
0100
0000
0001
0000
,
1000
0200
0010
0001
,
0010
1300
0001
0100
,
0010
0000
1000
0000
0000
0001
0000
1000
,
0000
0000
0000
0000
0001
0000
0000
0001
0000
0000
0000
0000
1000
0000
0000
1000
,
0000
0010
0000
0100
,
0000
0010
0000
1000
,
0000
0001
0000
0010
,
0000
0100
0000
0010
,
0000
0001
1000
0000
,
0010
0100
0001
0000
,
1000
1000
0100
0010
,
0001
0001
1000
0010
,
1001
0000
0000
0000
,
0000
0000
0000
0000
0001
0000
0000
0001
0000
0000
0000
0000
1000
0000
0000
1000
,
0000
0002
0100
0010
,
0100
1003
0001
1000
,
0010
0000
0100
0000
0000
0010
0000
0100
,
0000
0010
0000
0000
1000
0000
0001
0000
,
0001
2000
0010
0001
,
0100
3001
1000
0010
,
0100
0000
0010
0000
0000
1000
0000
0001
,
0000
0000
0000
0000
1000
0000
0000
1000
0000
0000
0000
0000
0001
0000
0000
0001
,
0000
0000
0200
0300
0000
0000
0000
0000
,
0000
2002
0000
0000
,
0000
0000
0000
0000
,
3003
0000
0000
0000
;

//--------------- dance-single - ----------------
#NOTES:
     dance-single:
     :
     Medium:
     10:
     0.321032,0.461929,0.073439,0.168909,0.223988,306,296,10,23,0,0,0.321032,0.461929,0.073439,0.168909,0.223988,306,296,10,23,0,0:
0000
0000
0000
0000
,
0000
0000
0000
0000
,
0000
0000
0000
0000
,
0000
0000
0000
0000
,
0000
1001
0000
0000
,
0000
0000
0000
0000
,
0000
0000
0000
0000
,
0000
0000
0000
0000
1000
0000
0000
1000
0000
0000
0000
0000
0001
0000
0000
0001
,
0000
0100
0010
0100
,
0001
0000
1000
0000
0100
0000
0010
0100
,
0000
0010
0001
1000
,
0010
0000
0100
0000
0010
0000
1000
0001
,
0000
1000
0100
0010
,
0100
1000
1000
0001
,
0100
0110
1001
1000
,
0100
0000
0000
0000
0010
0000
0000
0010
0000
0000
0000
0000
0100
0000
0000
0100
,
0000
0000
0010
0001
1000
0000
0010
0000
,
0100
0010
1000
0001
,
0010
0000
0100
0010
0001
0000
1000
0000
,
0010
0100
0010
1000
,
0001
0000
1000
0100
0010
0000
0100
0000
,
1000
0001
0100
0010
,
0100
0000
0001
1000
0100
0000
0010
0000
,
0100
0000
1000
0000
0001
0000
0000
0001
0000
0000
0000
0000
1000
0000
0000
1000
,
0000
0000
0020
0000
0000
0130
0000
0000
,
0010
0000
2000
0000
0000
3001
0000
0000
,
0010
0100
0010
0000
0000
1001
0000
0000
,
1000
0001
1000
0000
0000
0110
0000
0000
,
1000
0000
0002
0000
0000
1003
0000
0100
,
0010
0000
0200
0000
0000
1300
0000
0000
,
0001
0000
0100
0000
0000
1001
0000
0000
,
1000
0000
0100
0000
0000
0110
0000
0000
,
0100
1000
0001
1000
,
0001
1000
1000
1000
,
1000
0000
0001
0100
0001
0100
0001
0100
,
0001
0100
0002
0000
0000
0000
0003
0000
,
0000
0000
0000
0000
,
0000
0000
0000
1000
0001
0000
0000
0001
1000
0000
0000
1000
0001
0000
0000
1000
,
0001
0000
0000
0001
1000
0000
0000
1000
0001
0000
0000
0001
1000
0000
0000
0001
,
1000
0000
0000
1000
0001
0000
0000
0001
1000
0000
0000
1000
0001
0000
0000
1000
,
0001
0000
0000
0001
1000
0000
0000
1000
0001
0000
0000
0001
1000
0000
0000
0001
,
1000
0000
0000
1000
0001
0000
0000
0001
1000
0000
0000
1000
0001
0000
0000
1000
,
0001
0000
0000
0001
1000
0000
0000
1000
0001
0000
0000
0001
1000
0000
0000
0001
,
1000
0000
0000
1000
0001
0000
0000
0001
1000
0000
0000
1000
0001
0000
0000
1000
,
0001
0000
0000
0002
2000
0000
0000
0000
0000
0000
0000
0000
0000
0000
0000
0000
,
0000
0000
0000
3003
0001
0000
1000
0000
0001
0000
1000
0000
0001
0000
1000
0000
,
0001
2000
0002
0000
0000
0000
0000
0000
,
3003
0000
0000
1000
0001
0000
0000
0001
1000
0000
0000
1000
0001
0000
0000
1000
,
0001
0000
0000
0001
1000
0000
0000
1000
0001
0000
0000
0001
1000
0000
0000
0001
,
1000
0001
1000
0001
1000
0001
1000
0001
,
1000
0002
2000
0000
0000
0000
0000
0000
,
0000
0000
3003
0001
1000
0000
0000
1000
0001
0000
0000
0001
1000
0000
0000
0001
,
1000
2002
0000
0000
,
0000
3003
0001
0000
0100
0000
0000
0000
,
0010
0100
0010
0000
,
0100
0100
0010
1000
,
0100
0010
0010
0000
,
0000
0100
0010
0000
,
0100
1000
0001
0000
,
0100
0100
0010
0100
,
0010
1000
0001
0010
,
0200
0300
0000
0000
,
0000
0000
0000
0000
1000
0000
0000
1000
0000
0000
0000
0000
0001
0000
0000
0001
,
0000
0000
1000
0001
1000
0001
1000
0001
,
1000
0002
2000
0000
0000
0000
0000
0000
,
3003
0000
0000
0001
1000
0000
0000
1000
0001
0000
0000
0001
1000
0000
0000
0001
,
1000
0000
0000
1000
0001
0000
0000
0001
1000
0000
0000
1000
0001
0000
0000
1000
,
0001
1000
0001
1000
0001
1000
0001
1000
,
0001
2000
0002
0000
0000
0000
0000
0000
,
0000
0000
3003
1000
0001
0000
0000
0001
1000
0000
0000
1000
0001
0000
0000
1000
,
0001
2002
0000
0000
,
0000
3003
2000
3000
0000
0000
0000
0000
,
0000
0220
0000
0000
,
0000
0000
0000
0000
,
0330
0000
0000
0000
;

//--------------- dance-single - ----------------
#NOTES:
     dance-single:
     :
     Hard:
     12:
     0.47945,0.489102,0.13219,0.470008,0.183597,457,439,18,64,0,0,0.47945,0.489102,0.13219,0.470008,0.183597,457,439,18,64,0,0:
0000
0000
0000
0000
,
0000
0000
0000
0000
,
0000
0000
0000
0000
,
0000
0000
0000
0000
,
0000
1001
0000
0000
,
0000
0000
0000
0000
,
0000
0000
0000
0000
,
0000
0000
0000
0000
1000
0000
0000
1000
0000
0000
0010
0000
0100
0000
0000
0100
,
0001
1000
0100
0010
0001
2000
0000
3010
,
0100
0010
1000
1000
0001
0001
0010
0100
,
0000
0000
0010
0000
0001
0000
1000
0000
0010
0000
1000
0000
0001
0000
0001
1000
,
0100
0010
0001
1000
0010
1000
0001
0100
,
0000
0010
1000
0002
0003
0010
0100
0010
,
0001
1000
0010
0100
0010
1000
0001
0010
,
0100
1000
1001
0000
0110
0000
1000
0001
,
0010
0000
0100
0000
1000
0000
0000
1000
0000
0000
0001
0000
0100
0000
0000
0100
,
0010
1000
0001
0010
0012
0000
1003
0010
,
0100
0010
1000
0001
0010
0100
0010
0001
,
1000
0010
0100
0001
0201
0000
0310
1000
,
0001
1000
0100
1000
0001
1000
0010
0100
,
0001
0100
0010
1000
2001
0000
3001
0010
,
0100
0010
0001
1000
0001
0100
0010
0010
,
1000
0001
1000
0100
1200
0000
0310
0001
,
1000
0000
0010
0000
1020
0000
0000
1030
0000
0000
0001
0000
0010
0000
0000
0010
,
0100
0000
1000
0000
0002
0000
0000
0100
0000
0000
2003
0000
0000
0100
0000
0000
,
3020
0000
0000
0000
2030
0000
0000
0010
0000
0000
3002
0000
0000
0010
0000
0000
,
1003
0000
0010
0000
0100
0000
0000
0001
0000
0000
1001
0000
0000
1000
0000
0000
,
0200
0000
0000
0000
0310
0000
0000
0001
0000
0000
1000
0000
0010
0000
0010
0000
,
0100
0000
0100
0000
0002
0000
0000
0010
0000
0000
2003
0000
0000
0100
0000
0000
,
3020
0000
0000
0000
2030
0000
0000
0010
0000
0000
3002
0000
0000
0100
0000
0000
,
1003
0000
0001
0000
0010
0000
0000
0010
0000
0000
1001
0000
0000
1000
0000
0000
,
0001
0000
0100
0000
0010
0000
0000
0010
0000
0000
0100
0000
0000
0001
0000
0000
,
1000
0100
0010
0010
0001
0001
1000
1000
,
0010
0000
0010
0000
0202
0000
0000
0303
2200
0000
0000
3300
2020
0000
0000
3030
,
0022
0000
0000
0033
1000
0000
0100
0000
0001
0000
0100
0000
1000
0000
0010
0000
,
0001
0010
2000
0000
0000
0000
3000
0000
,
0000
0000
0000
0000
,
0000
0000
0000
0000
1001
0000
0000
0001
0010
0000
0100
0000
1000
0000
0001
0000
,
0100
0000
0100
0000
0010
0000
0000
0100
0001
0000
1000
0000
0001
0000
0100
0000
,
1000
0000
0100
0000
0002
0003
0000
1000
0100
0000
0002
0003
0100
0000
0002
0003
,
0100
0000
0002
0003
0200
0000
0000
1300
0001
0000
1000
0000
0001
0000
0100
0000
,
1000
0000
0100
0000
0101
0000
0000
0001
1000
0000
0100
0000
0010
0000
0001
0000
,
0100
0000
0010
0000
1000
0000
0000
0001
0010
0000
0100
0000
1000
0000
0010
0000
,
0001
0000
0010
0000
1000
0000
0000
0001
0010
0000
2000
3000
0010
0000
2000
3000
,
0010
0000
2000
3000
0010
0000
0000
0010
0002
0003
1000
0000
0001
0000
0100
0000
,
1000
0000
0100
0000
0002
0000
0003
1000
0100
0000
0010
0000
0001
0000
1000
0000
,
0010
0000
0010
0000
0100
0000
0000
0010
0100
0000
0001
0000
1000
0000
0100
0000
,
1000
0000
0001
0000
0200
0300
0000
0010
0100
0000
2000
3000
0100
0000
2000
3000
,
0100
0000
2000
3000
0100
0000
0000
0001
1000
0000
0001
0000
1000
0000
0100
0000
,
0001
0000
0100
0000
0020
0000
0000
0130
1000
0000
0010
0000
0100
0000
0001
0000
,
1000
0000
1000
0000
0100
0000
0000
0010
0100
0000
1000
0000
0001
0000
0100
0000
,
0010
0000
0100
0000
0002
0003
0000
1000
0100
0000
0002
0003
0100
0000
0002
0003
,
0100
0000
0002
0003
0100
0000
0000
0100
0000
0000
0010
0000
0001
0000
0000
1000
,
0010
0100
0001
1000
0002
0000
0013
0100
,
0010
0001
1000
0010
0200
0000
0310
0000
,
1000
1000
0001
0001
0010
0100
0010
0000
,
0001
0000
1000
0010
0200
0000
0301
0000
,
1000
0000
0100
0010
0200
0000
1300
0001
,
1000
0010
0100
0001
2000
0000
3001
0000
,
0010
0010
0100
0100
1000
0001
0100
0000
,
0010
0000
0100
0001
1000
0000
0001
0000
,
0020
0030
0000
0000
,
0000
0000
0000
0000
1001
0000
0000
0001
0000
0000
0100
0000
0100
0000
0000
0010
,
1000
0000
0001
0000
2000
0000
3000
0001
0100
0000
0010
0000
1000
0000
0001
0000
,
0010
0000
0010
0000
0100
0000
0000
0010
0100
0000
1000
0000
0001
0000
0100
0000
,
0001
0000
1000
0000
0200
0300
0000
0010
0100
0000
0002
0003
0100
0000
0002
0003
,
0100
0000
0002
0003
0100
0000
0000
1000
0001
0000
1000
0000
0001
0000
0100
0000
,
1000
0000
0100
0000
0020
0000
0000
0130
0001
0000
0010
0000
0100
0000
1000
0000
,
0001
0000
0001
0000
0100
0000
0000
0010
0100
0000
0001
0000
1000
0000
0100
0000
,
0010
0000
0100
0000
2000
3000
0000
0001
0100
0000
2000
3000
0100
0000
2000
3000
,
0100
0000
2000
3000
0100
0000
0000
0100
0000
0000
0010
0000
1000
0000
0000
0001
,
0010
0100
1000
0000
0000
0000
0000
0000
,
0000
2002
0000
0000
,
0000
0000
0000
0000
,
3003
0000
0000
0000
;

//--------------- dance-single - Oppan Haipeullaieo Seutail ----------------
#NOTES:
     dance-single:
     Oppan Haipeullaieo Seutail:
     Challenge:
     15:
     0.582264,0.760825,0.35985,0.675636,0.345162,555,506,49,92,9,0,0.582264,0.760825,0.35985,0.675636,0.345162,555,506,49,92,9,0:
0000
0000
0000
0000
,
0000
0000
0000
0000
,
0000
0000
0000
0000
,
0000
0000
0000
0000
,
0000
1001
0000
0000
,
0000
0000
0000
0000
,
0000
0000
0000
0000
,
0000
0000
0000
0000
1000
0000
0000
1000
0000
0000
0010
0000
0100
0000
0000
0010
,
0100
0000
0001
0000
1001
0000
1000
0000
0100
0000
0010
0001
0010
0000
0100
0000
,
1000
0001
2000
0100
3002
0100
1003
1000
,
0100
0000
0010
0000
0100
0000
1000
0000
0001
0000
0100
0000
1000
0000
0100
0010
,
0100
0000
0010
0000
1010
0000
1000
0000
0100
0000
0010
0000
0100
00M0
0100
0000
,
0001
1000
0100
0020
0000
0031
1000
0010
,
0100
0000
0001
0000
0100
00M0
0100
0000
1000
0000
0001
0000
0010
0M00
0010
0000
,
1000
0001
0011
0000
1001
0000
0001
0100
,
0010
0000
0010
0000
1001
0000
0000
0011
0000
0000
1010
0000
0110
0000
0000
1000
,
0100
0010
0002
0100
2003
3200
0302
0203
,
1300
0000
0001
0000
0100
00M0
0100
0000
1000
0000
0001
0000
0010
0M00
0010
0000
,
0100
0001
2000
0010
3002
0203
2300
3200
,
0301
0000
0010
0000
0011
0000
0001
0100
0010
0000
1000
0000
0100
00M0
0100
0000
,
0001
1000
0020
0100
2030
3020
0032
0023
,
1030
0000
0100
0000
0020
0000
0000
0130
1000
0000
0010
0000
0100
00M0
0100
0000
,
1000
0001
0200
0010
0301
1000
1001
1000
,
0200
0000
0010
0000
1300
0000
0000
1000
0000
0000
0100
0000
1000
0010
0M00
0010
,
0001
0000
1000
0000
1001
0000
0000
0001
0000
0000
0010
0000
0000
0100
0000
0000
,
2000
0000
0000
0000
3010
0000
0000
0100
0000
0000
0001
0000
0000
0010
0000
0000
,
0001
0000
0100
0000
1000
0000
0000
0100
0000
0000
1001
0000
0000
1000
0001
0000
,
0020
0000
0000
0000
0031
0000
0000
0100
0000
0000
0110
0000
0001
0000
0001
0000
,
1000
0000
1000
0000
0100
0000
0000
0010
0000
0000
0100
0000
0000
1000
0000
0000
,
0020
0000
0000
0000
1030
0000
0000
0001
0000
0000
0010
0000
0000
0001
0000
0000
,
1000
0000
0100
0000
0001
0000
0000
0100
0000
0000
1001
0000
1000
0010
0000
0000
,
0100
0000
0001
0000
0011
0000
0000
0010
0000
0000
0110
0000
0100
1000
0000
0000
,
0001
1000
0001
0100
1000
0100
0001
0010
,
1000
0010
0002
0013
0002
1003
0002
0103
,
0002
0000
0013
0000
0100
1000
0100
1000
0001
0100
0001
0100
0010
1000
0010
1000
,
0001
0010
0001
0010
0200
0000
0000
0000
0000
0000
0000
0000
0300
0000
0000
0000
,
0000
0000
0000
0000
,
0000
0000
0000
0000
1001
0000
1000
0001
0100
0000
0010
0000
0100
0001
2000
0000
,
0100
0000
3001
0000
0200
0000
0310
0100
0001
0000
0010
0000
0200
0000
2300
0000
,
3020
1030
0012
0103
0001
1020
0130
2010
,
3100
0000
2010
0000
3002
0000
0000
0000
0013
0M00
0010
0000
2000
0000
3020
0000
,
0230
0000
0301
0000
2020
0000
3030
0001
0010
0000
0100
0000
0010
0001
2000
0000
,
0100
0000
3001
0000
0200
0000
0000
0310
1000
0000
0001
0000
0200
0000
0320
0000
,
2030
3001
2100
3001
1000
0102
1003
0201
,
0310
0000
0102
0000
0013
0000
0000
0100
2000
3000
0010
0000
0100
0000
0000
0001
,
1000
0000
0100
0000
1000
0001
1000
0010
1000
0001
1000
0100
1000
0001
1000
0100
,
1000
0001
1000
0010
1000
0000
0010
0100
0001
0000
0010
0000
0100
0000
2000
0000
,
0001
3100
2010
3001
1000
0012
1003
0021
,
0130
0000
0012
0000
0103
0000
0010
1000
0001
0000
1000
0000
0020
0000
0230
0000
,
0302
0000
1003
0000
0001
0010
0001
1000
0001
0100
0001
1000
0001
0100
0001
1000
,
0001
0010
0001
1000
0001
0000
0100
0010
1000
0000
0100
0000
0010
0000
0002
0000
,
1000
0013
0102
1003
0001
2100
3001
1200
,
0310
0000
2100
0000
3010
0000
0000
0010
0100
0000
0001
0000
1000
0000
0000
1000
,
0100
0010
0001
0100
0020
0030
0100
0010
,
1000
1000
0100
0010
0002
0003
1000
0000
,
0001
0001
1000
1000
0010
1000
0200
0300
,
0020
0030
0001
1000
0020
0030
0100
0000
,
0100
0000
0001
0010
0100
0000
0010
0001
,
0001
1000
0010
0100
0002
0003
0010
0000
,
0100
0100
1000
1000
0010
0100
0002
0003
,
2000
3000
0001
0010
0100
0000
0010
0000
,
2002
3003
0000
0000
,
0000
0000
0000
0000
1010
0000
0000
1001
0000
0000
0101
0000
1100
0000
0000
0100
,
0010
0000
0001
0000
1000
0010
1000
0001
1000
0100
1000
0010
1000
0001
1000
0100
,
1000
0001
1000
0010
1000
0000
0001
0010
0100
0000
0010
0000
0001
0000
1000
0000
,
0010
0100
0012
1003
0010
2100
3001
2010
,
3001
0000
2100
0000
3020
0000
0000
1030
0001
0000
0010
0000
0200
0000
2300
0000
,
3020
0000
0130
0000
0001
0100
0001
1000
0001
0010
0001
0100
0001
1000
0001
0010
,
0001
1000
0001
0100
0001
0000
1000
0100
0010
0000
0001
0000
1000
0000
0010
0000
,
0100
0001
2100
3010
1000
0012
1003
0102
,
1003
0000
0012
0000
0103
0000
0000
0010
1000
0000
0001
0000
0010
0000
0000
0001
,
0100
0010
0200
0300
0000
0000
0000
0000
,
0000
2002
0000
0000
,
0000
0000
0000
0000
,
3003
0000
0000
0000
;
