#VERSION:0.83;
#TITLE:GRAVITY SQUEEZE;
#SUBTITLE:;
#ARTIST:Dj Dicks;
#TITLETRANSLIT:;
#SUBTITLETRANSLIT:;
#ARTISTTRANSLIT:;
#GENRE:;
#CREDIT:D0omsday;
#MUSIC:Gravity Squeeze.ogg;
#BANNER:;
#BACKGROUND:;
#JACKET:;
#DISCIMAGE:;
#CDIMAGE:;
#SELECTABLE:YES;
#LYRICSPATH:;
#CDTITLE:;
#SAMPLESTART:14.174;
#SAMPLELENGTH:18.462;
#OFFSET:-0.328;
#BPMS:0.000=104.000;
#STOPS:;
#WARPS:;
#DELAYS:;
#SPEEDS:;
#SCROLLS:;
#TICKCOUNTS:;
#TIMESIGNATURES:;
#LABELS:;
#COMBOS:;
#FAKES:;
#BGCHANGES:;
#FGCHANGES:;
#ATTACKS:;

//---------------dance-single - ---------------
#NOTEDATA:;
#CHARTNAME:GRAVITY SQUEEZE;
#CHARTSTYLE:;
#CREDIT:D0omsday;
#STEPSTYPE:dance-single;
#DESCRIPTION:;
#DIFFICULTY:Beginner;
#METER:1;
#METERF:1;
#RADARVALUES:0,0,0,0,0;
#NOTES:
// measure 0
0000
0000
0000
0000
,  // measure 1
0000
0000
0000
0000
,  // measure 2
0000
0000
0000
0000
,  // measure 3
0000
0000
0000
0000
,  // measure 4
0000
0000
0000
0000
,  // measure 5
0000
0000
0000
0001
,  // measure 6
0000
0001
0000
0001
,  // measure 7
0000
0000
0000
1000
,  // measure 8
0000
0000
0000
0000
,  // measure 9
0000
0000
0000
0000
,  // measure 10
0000
1000
0000
1000
,  // measure 11
0000
0000
0000
0100
,  // measure 12
0000
0000
0000
0000
,  // measure 13
0000
0000
0000
0000
,  // measure 14
0000
1001
0000
0000
,  // measure 15
0000
0000
0000
0000
,  // measure 16
0000
0000
0000
0000
,  // measure 17
0000
1001
0000
0000
,  // measure 18
0000
0000
0000
0000
,  // measure 19
0000
0000
0000
0000
,  // measure 20
0000
0001
0000
0000
0000
0000
0000
0000
,  // measure 21
0000
0000
0000
0000
,  // measure 22
0000
0000
0000
0000
0000
0010
0000
0000
,  // measure 23
0000
0000
0000
0000
,  // measure 24
0000
0000
0000
0000
,  // measure 25
0000
0000
0000
0000
,  // measure 26
0000
0000
0000
0000
,  // measure 27
0000
0000
0000
0000
,  // measure 28
0000
0000
0000
0000
,  // measure 29
0000
0000
0000
1000
,  // measure 30
0000
1000
0000
1000
,  // measure 31
0000
0000
0000
0010
,  // measure 32
0000
0000
0000
0000
,  // measure 33
0000
0000
0000
0000
,  // measure 34
0000
0010
0000
0010
,  // measure 35
0000
0000
0000
0100
,  // measure 36
0000
0000
0000
0000
,  // measure 37
0000
0000
0000
0000
,  // measure 38
0000
0001
0000
0001
,  // measure 39
0000
0000
0000
1001
,  // measure 40
0000
0000
0000
0000
,  // measure 41
0000
0000
0000
0000
,  // measure 42
0000
1000
0000
1000
,  // measure 43
0000
0000
0000
1001
,  // measure 44
0000
0000
0000
0000
,  // measure 45
0000
0000
0000
0000
,  // measure 46
0010
0000
0000
0000
;

//---------------dance-single - ---------------
#NOTEDATA:;
#CHARTNAME:;
#CHARTSTYLE:;
#CREDIT:D0omsday;
#STEPSTYPE:dance-single;
#DESCRIPTION:;
#DIFFICULTY:Easy;
#METER:4;
#METERF:4;
#RADARVALUES:0,0,0,0,0;
#NOTES:
// measure 0
0000
0000
0000
0000
,  // measure 1
0000
0000
0000
0000
,  // measure 2
0000
1000
0000
0100
,  // measure 3
0000
0010
0000
0001
,  // measure 4
0000
1000
0000
0010
,  // measure 5
0000
0100
0000
0001
,  // measure 6
1000
0000
1000
0000
,  // measure 7
0100
0010
0100
0010
,  // measure 8
0001
0000
0001
0000
,  // measure 9
0100
0010
0000
1000
,  // measure 10
0001
0000
0001
0000
,  // measure 11
0010
0100
0010
0100
,  // measure 12
1000
0000
1000
0000
,  // measure 13
0001
1001
0000
0000
,  // measure 14
0100
0110
0000
0001
,  // measure 15
0010
0000
0010
0100
,  // measure 16
0100
0000
1000
0001
,  // measure 17
1000
1001
0000
0100
,  // measure 18
0000
0010
0000
0010
,  // measure 19
0001
1000
0000
1000
,  // measure 20
0010
0000
0100
0000
,  // measure 21
0001
0001
0001
0001
,  // measure 22
0010
0000
0100
0100
,  // measure 23
1000
0000
0010
0000
,  // measure 24
1000
1000
0000
0100
,  // measure 25
0100
0000
0010
0000
,  // measure 26
0001
1000
0001
1000
,  // measure 27
1001
0000
0000
0000
,  // measure 28
0100
0000
0100
0000
,  // measure 29
0010
0010
0010
0010
,  // measure 30
0001
0000
0001
0000
,  // measure 31
0100
0010
0100
0010
,  // measure 32
1000
0000
1000
0000
,  // measure 33
0100
0010
0000
0001
,  // measure 34
1000
0000
1000
0000
,  // measure 35
0010
0100
0010
0100
,  // measure 36
0001
0000
0001
0000
,  // measure 37
0010
0110
0000
0000
,  // measure 38
1000
0000
1000
0000
,  // measure 39
0010
0100
0010
0100
,  // measure 40
0001
0000
0001
0000
,  // measure 41
0010
0100
0000
1000
,  // measure 42
0001
0000
0001
0000
,  // measure 43
0100
0010
0100
0010
,  // measure 44
1000
0000
1000
0000
,  // measure 45
0100
0110
0000
0000
,  // measure 46
0001
0000
0000
0000
;

//---------------dance-single - ---------------
#NOTEDATA:;
#CHARTNAME:;
#CHARTSTYLE:;
#CREDIT:D0omsday;
#STEPSTYPE:dance-single;
#DESCRIPTION:;
#DIFFICULTY:Medium;
#METER:9;
#METERF:9;
#RADARVALUES:0,0,0,0,0;
#NOTES:
// measure 0
0000
0000
0000
0000
,  // measure 1
0000
0000
0000
0000
,  // measure 2
0000
1000
0000
1010
,  // measure 3
0000
0001
0000
0011
,  // measure 4
0000
1000
0000
1100
,  // measure 5
0000
0001
0000
0101
,  // measure 6
1000
0010
1000
0000
0001
0010
0001
0000
,  // measure 7
1000
0010
0001
0010
1000
0001
0010
0000
,  // measure 8
0100
1000
1001
0001
,  // measure 9
0100
0010
0001
0000
0010
0000
1000
0000
,  // measure 10
0001
0100
0001
0000
1000
0100
1000
0000
,  // measure 11
0001
0100
1000
0100
0001
1000
0100
0000
,  // measure 12
0010
0001
1001
1000
,  // measure 13
0010
0100
0001
1000
0100
0010
0001
1000
,  // measure 14
0010
0000
0110
0000
0100
0001
0100
0000
,  // measure 15
0001
0000
0010
0000
0100
1000
0100
0000
,  // measure 16
0010
0000
0001
0000
0100
0010
0100
0000
,  // measure 17
0001
0000
1001
0000
1000
0010
1000
0000
,  // measure 18
0001
0000
0010
0000
0001
1000
0001
0000
,  // measure 19
0100
0000
0010
0000
1000
0100
1000
0000
,  // measure 20
0001
1000
0001
0000
0010
0000
0100
0000
,  // measure 21
1000
0001
0100
0010
1000
0100
0010
0001
,  // measure 22
1000
0000
0010
0000
1000
1000
0001
0000
,  // measure 23
0001
0000
0000
0000
0010
0000
0000
0000
0100
0000
0100
0000
1000
0000
0000
0001
,  // measure 24
1000
0000
0010
0000
1000
1000
0100
0010
,  // measure 25
0001
1000
0000
0001
0000
1000
0001
0000
0100
0000
0000
0000
0010
0000
0000
0000
,  // measure 26
1000
0100
0010
0100
0001
0100
0010
0000
,  // measure 27
0001
0001
0100
0100
0010
0010
1000
0000
,  // measure 28
0001
0000
0010
0000
0100
1000
0100
0000
,  // measure 29
1000
0010
1000
0000
0001
0000
0110
0000
,  // measure 30
1000
0010
0100
0000
0001
0010
0100
0000
,  // measure 31
1000
0010
0001
0010
1000
0100
0010
0000
,  // measure 32
0100
1000
1001
0001
,  // measure 33
0100
0010
0001
0000
0010
0000
0100
0000
,  // measure 34
0001
0010
0100
0000
1000
0010
0100
0000
,  // measure 35
0001
0010
1000
0010
0001
0100
0010
0000
,  // measure 36
0100
0001
1001
1000
,  // measure 37
0100
0010
0001
0010
0100
1000
0010
0100
,  // measure 38
0001
0010
0100
0000
1000
0010
0100
0000
,  // measure 39
0001
0010
1000
0001
0100
1000
0001
0000
,  // measure 40
1000
0010
0110
0100
,  // measure 41
0001
0010
1000
0000
0010
0000
0001
0000
,  // measure 42
1000
0010
0100
0000
0001
0010
0100
0000
,  // measure 43
1000
0010
0001
1000
0100
0001
1000
0000
,  // measure 44
0100
0010
0110
0100
,  // measure 45
1000
0001
0100
0010
1000
0100
0010
1000
;

//---------------dance-single - ---------------
#NOTEDATA:;
#CHARTNAME:Milk Toast 13;
#CHARTSTYLE:;
#CREDIT:D0omsday;
#STEPSTYPE:dance-single;
#DESCRIPTION:;
#DIFFICULTY:Hard;
#METER:14;
#METERF:14;
#RADARVALUES:0,0,0,0,0;
#NOTES:
// measure 0
0000
0000
0000
0000
,  // measure 1
0000
0000
0000
0000
,  // measure 2
0000
1000
0000
1010
,  // measure 3
0000
0001
0000
0011
,  // measure 4
0000
1000
0000
1100
,  // measure 5
0000
0001
0000
0101
,  // measure 6
0001
0010
0100
0000
0001
0000
0100
0000
1000
0010
0100
0000
1000
0000
0100
0000
,  // measure 7
0001
0100
0010
0001
0010
0100
0001
0010
1000
0010
0100
0000
1000
0010
0100
0000
,  // measure 8
0001
0000
0010
0001
1000
0000
0100
0000
0001
0000
0100
0000
0010
0000
0001
0000
,  // measure 9
0100
0001
1000
0000
1100
0000
0100
0000
0010
0001
0100
0000
0010
1000
0100
0000
,  // measure 10
1000
0010
0100
0000
1000
0000
0100
0000
0001
0010
0100
0000
0001
0000
0100
0000
,  // measure 11
1000
0100
0010
1000
0010
0100
1000
0010
0001
0010
0100
0000
0001
0010
0100
0000
,  // measure 12
1000
0000
0010
0100
0001
0000
0100
0000
1000
0000
0100
0000
0001
0000
0010
0000
,  // measure 13
0001
0100
0010
0100
0001
1000
0100
1000
0001
0010
0100
1000
0001
0100
0010
1000
,  // measure 14
0010
0000
0010
0100
1000
0000
0100
0000
0001
0000
0010
0000
0100
0000
0000
0000
,  // measure 15
1000
0000
0010
0100
0010
0000
1000
0000
0100
0000
0010
0000
0001
0000
0000
0000
,  // measure 16
1000
0000
0010
0100
0001
0000
1000
0000
0100
0000
0010
0000
0100
0000
0000
0000
,  // measure 17
0010
0001
0100
0010
0001
0000
0010
0000
1000
0001
0010
0100
1000
0000
0000
0000
,  // measure 18
1000
0000
0001
0100
0010
0000
0100
0000
0001
0000
0010
0000
0100
0000
0000
0000
,  // measure 19
1000
0000
0100
1000
0010
0000
1000
0000
0001
0000
0010
0000
0100
0000
0000
0000
,  // measure 20
1000
0010
0001
0010
1000
0000
0001
0010
0100
0000
0010
0000
0001
0100
0010
0000
,  // measure 21
1000
0010
0100
0010
1000
0100
0010
0100
1000
0001
0100
0010
1000
0001
0010
0100
,  // measure 22
1000
0000
0100
0010
0001
0000
0100
0010
0100
0000
1000
0000
0100
0000
0000
0000
,  // measure 23
0010
0000
0100
0001
0010
0100
1000
0000
0010
0000
0100
0000
0001
0000
0000
0100
,  // measure 24
0010
0001
0010
0100
0001
0000
1001
0000
1000
0100
0010
0000
1000
0010
0100
0000
,  // measure 25
1000
0010
0000
0001
0000
1000
0100
0001
1000
0100
0010
0000
0001
0000
0100
0010
,  // measure 26
0000
0100
0010
0100
1000
0100
0010
0100
0001
0000
0010
0000
1100
0000
0000
0000
,  // measure 27
0011
0000
1010
0000
1100
0000
0101
0000
1000
0010
0001
0000
0010
0000
0100
0001
,  // measure 28
1000
0000
0100
0010
0001
0000
0100
0010
1000
0000
0100
0000
0010
0000
0100
1000
,  // measure 29
0001
0100
0010
0100
0001
0010
0100
0010
0001
0100
0010
0100
1000
0100
0010
0100
,  // measure 30
0001
0010
0100
0000
0001
0000
0100
0000
1000
0010
0100
0000
1000
0000
0100
0000
,  // measure 31
0001
0010
0100
0001
0100
0010
0001
0100
1000
0100
0010
0000
1000
0001
0010
0000
,  // measure 32
0001
0000
0100
0010
1000
0000
0100
0000
0001
0000
0100
0000
1000
0000
0010
0000
,  // measure 33
0100
0001
0010
0000
0110
0000
0100
0000
1000
0010
0100
0000
0001
0010
0100
0000
,  // measure 34
1000
0010
0100
0000
1000
0000
0100
0000
0001
0010
0100
0000
0001
0000
0100
0000
,  // measure 35
1000
0010
0100
1000
0100
0010
1000
0100
0001
0100
0010
0000
0001
1000
0010
0000
,  // measure 36
0100
0000
0010
1000
0001
0000
0100
0000
1000
0000
0100
0000
0001
0000
0010
0000
,  // measure 37
0001
0100
0010
0100
0001
1000
0100
1000
0001
0010
0100
0001
0100
1000
0010
0100
,  // measure 38
0001
1000
0010
0000
0001
0000
0010
0000
1000
0001
0010
0000
1000
0000
0010
0000
,  // measure 39
0001
0100
0010
0001
0010
0100
1000
0100
0001
0010
0100
0000
1000
0001
0100
0000
,  // measure 40
0001
0000
0100
0010
1000
0000
0100
0000
0001
0000
0100
0000
1000
0000
0010
0000
,  // measure 41
0100
0001
0010
0000
0110
0000
0100
0000
1000
0001
0010
0000
0001
1000
0010
0000
,  // measure 42
1000
0001
0100
0000
1000
0000
0100
0000
0001
1000
0100
0000
0001
0000
0100
0000
,  // measure 43
1000
0010
0100
1000
0100
0010
0001
0010
1000
0100
0010
0000
0001
1000
0010
0000
,  // measure 44
1000
0000
0010
0100
0001
0000
0010
0000
1000
0000
0010
0000
0001
0000
0100
0000
,  // measure 45
0010
1000
0001
1000
0100
0010
0001
0010
0100
0001
0100
1000
0001
0100
0010
0010
;
