#VERSION:0.83;
#TITLE:GIGI BABA;
#SUBTITLE:;
#ARTIST:ヒゲドライバー;
#TITLETRANSLIT:;
#SUBTITLETRANSLIT:;
#ARTISTTRANSLIT:Hige Driver;
#GENRE:;
#CREDIT:;
#MUSIC:GIGI BABA.ogg;
#BANNER:GIGI BABA.png;
#BACKGROUND:GIGI BABA-bg.png;
#CDTITLE:;
#SAMPLESTART:45.092;
#SAMPLELENGTH:21.818;
#SELECTABLE:YES;
#OFFSET:1.453;
#BPMS:0.000=165.000;
#STOPS:;
#BGCHANGES:;
#FGCHANGES:;

//--------------- dance-single - chronon ----------------
#NOTEDATA:;
#STEPSTYPE:dance-single;
#DESCRIPTION:chronon;
#DIFFICULTY:Beginner;
#METER:4;
#RADARVALUES:0,0,0,0,0;
#NOTES:
0000
0000
0000
0000
,
0000
0000
0000
0000
,
0000
0000
0000
0000
,
0000
0000
0000
0000
,
0000
0000
0000
0000
,
0000
0000
0000
0000
,
0001
0000
0100
0000
,
0001
0000
0000
0000
,
1000
0000
0100
0000
,
1000
0000
0000
0000
,
0001
0000
0100
0001
,
1000
0000
0100
1000
,
0001
0000
0010
0001
,
1000
0000
0010
1000
,
1000
0000
0010
1000
,
0001
0000
0010
0001
,
1000
0000
0100
1000
,
0001
0000
0100
0001
,
0001
0100
0001
0000
,
1000
0100
1000
0000
,
0001
0010
0001
0000
,
1000
0010
1000
0000
,
1000
0010
1000
0000
,
0001
0010
0001
0000
,
1000
0100
1000
0000
,
0001
0100
0001
0000
,
2000
0000
0000
3000
,
0020
0000
0000
0030
,
1000
0000
0010
0000
,
0100
0000
0001
0000
,
0002
0000
0000
0003
,
0020
0000
0000
0030
,
0100
0100
0200
0300
,
1000
1000
2000
3000
,
0001
0001
0001
0000
,
0100
0000
0010
0000
,
0010
0010
0020
0030
,
1000
1000
2000
3000
,
0001
0001
0001
0000
,
0010
0000
0100
0000
,
0010
0010
0020
0030
,
0001
0001
0002
0003
,
1000
1000
1000
0000
,
0010
0000
0100
0000
,
0100
0100
0200
0300
,
0001
0001
0002
0003
,
1000
1000
1000
0000
,
0001
0000
0000
0000
,
0000
0000
0000
0000
,
0000
0000
0000
0000
,
0000
0000
0000
0000
,
0000
0000
0000
0000
,
0000
0000
0000
0000
,
0000
0000
0000
0000
,
0000
0000
0000
0000
,
1000
0000
1000
0000
,
1000
0000
0000
0000
,
0100
0000
0100
0000
,
0100
0000
0000
0000
,
0010
0000
0010
0000
,
0010
0000
0000
0000
,
0001
0010
0200
0300
,
1000
0010
0200
0300
,
0001
0010
0100
0000
,
1000
0000
0001
0000
,
1000
0010
0200
0300
,
0001
0010
0200
0300
,
1000
0010
0100
0000
,
0001
0000
1000
0000
,
0001
0100
0020
0030
,
1000
0100
0020
0030
,
0001
0100
0010
0000
,
1000
0000
0001
0000
,
1000
0100
0020
0030
,
0001
0100
0020
0030
,
1000
0100
0010
0000
,
0001
0000
0000
0000
,
1001
0000
0000
0000
;

//--------------- dance-single - chronon ----------------
#NOTEDATA:;
#STEPSTYPE:dance-single;
#DESCRIPTION:chronon;
#DIFFICULTY:Easy;
#METER:8;
#RADARVALUES:0,0,0,0,0;
#NOTES:
0000
0000
0000
0000
,
0000
0000
0000
0000
,
0000
0000
0000
0000
,
0000
0000
0000
0000
,
0000
0000
0000
0000
,
0000
0000
0000
0000
,
1000
0010
0100
0100
,
0001
0010
0100
0100
,
1000
0010
0100
0100
,
0001
0000
0010
0000
0100
0010
0100
0000
,
1000
0100
0010
0001
,
1000
0010
0010
0000
,
1000
0001
0001
0000
,
1000
0100
0100
0010
,
0001
0010
0100
1000
,
0001
0100
0100
0000
,
0001
1000
1000
0000
,
0001
0000
0010
0000
0010
0100
0010
0000
,
0001
0000
0010
0100
1000
0000
0001
0000
,
1000
0010
0010
0010
,
1000
0001
0001
0001
,
1000
0100
0100
0100
,
1000
0000
0100
0010
0001
0000
1000
0000
,
0001
0100
0100
0100
,
0001
0000
1000
0000
1000
0000
0001
0010
,
0001
0000
1000
0010
1000
0000
0001
0000
,
0020
0000
0000
0000
0000
0000
0000
0230
,
0000
2300
0000
3002
0000
0000
1003
0000
,
0001
0000
1000
0000
0010
0100
0010
0000
,
1000
0000
0001
0000
0010
0100
0010
0000
,
0200
0000
0000
0000
0000
0000
0000
0320
,
0000
0032
0000
2003
0000
0000
3001
0000
,
1000
0000
0010
0000
1000
0001
0010
0000
,
0001
0000
0010
0000
0001
1000
0010
0000
,
1000
0001
1000
0100
,
0010
0000
0010
0000
0010
0001
1000
0000
,
0001
0000
0100
0000
0001
1000
0100
0000
,
1000
0000
0100
0000
1000
0001
0100
0000
,
0001
0100
0010
1000
,
0001
0000
0010
0000
0100
1000
0001
0000
,
1000
0000
0010
0000
0100
0010
1000
0000
,
0001
0000
0010
0000
0100
0010
0001
0000
,
1000
0001
1000
0100
,
0010
0000
0010
0000
0010
0001
1000
0000
,
0001
0000
0100
0000
0010
0100
0001
0000
,
1000
0000
0100
0000
0010
0100
1000
0000
,
0001
0100
0010
1000
,
0002
0000
0000
0000
,
2003
0000
0000
0000
,
3200
0000
0000
0000
,
0320
0000
0000
0000
,
0032
0000
0000
0000
,
2003
0000
0000
0000
,
3020
0000
0000
0000
,
0230
0000
0000
0300
,
0001
0001
0001
0000
,
1000
1000
1000
0000
,
0100
0100
0100
0000
,
0010
0010
0010
0000
,
0001
0001
0001
0000
,
1000
0010
0100
0001
,
1000
0000
0010
0000
0100
0001
1000
0000
,
0001
0000
0010
0000
0100
1000
0001
0000
,
1000
0001
1000
0100
,
0010
0100
0010
0000
0010
0001
1000
0000
,
0001
0000
0100
0000
0010
1000
0001
0000
,
1000
0000
0100
0000
0010
0001
1000
0000
,
0001
0100
1000
0100
,
0010
0000
0100
0000
0010
1000
0001
0000
,
1000
0000
0100
0000
0010
0001
0100
0000
,
0001
0000
0100
0000
0010
1000
0100
0000
,
1000
0100
0010
0001
,
0010
0100
0010
0000
0010
0001
1000
0000
,
0001
0000
0100
0000
0010
1000
0100
0000
,
1000
0000
0100
0000
0010
0001
0100
0000
,
0001
0100
1000
0100
,
0010
0000
0000
0100
0000
0000
0010
0000
,
1001
0000
0000
0000
;

//--------------- dance-single - chronon ----------------
#NOTEDATA:;
#STEPSTYPE:dance-single;
#DESCRIPTION:chronon;
#DIFFICULTY:Medium;
#METER:12;
#RADARVALUES:0,0,0,0,0;
#NOTES:
0000
0000
0000
0000
,
0000
0000
0000
0000
,
0000
0000
0000
0000
,
0000
0000
0000
0000
,
0000
0000
0000
0000
,
0000
0000
0000
0000
,
0001
0000
0000
0010
0000
0000
0100
0000
0000
0000
1000
0000
0010
0000
0000
0000
,
1000
0000
0000
0010
0000
0000
0100
0000
0000
0000
0001
0000
0010
0000
0000
0000
,
0001
0000
0000
0010
0000
0000
0100
0000
0000
0000
1000
0000
0010
0000
0000
0000
,
0100
0000
0000
0000
0000
0000
0100
0000
0000
0000
0000
0000
0100
0000
0000
0000
0000
0000
0000
0000
0002
0003
0000
0000
0002
0003
0000
0000
0000
0000
0000
0000
,
1000
0100
0010
0000
0001
0100
0010
0000
,
1000
0000
0000
0010
0000
0000
0100
0000
0000
0000
0001
0000
1000
0000
0000
0000
,
0010
0000
0000
1000
0000
0000
0001
0000
0000
0000
0010
0000
0001
0000
0000
0000
,
0010
0000
0000
0001
0000
0000
1000
0000
0000
0000
0010
0000
1000
0000
0000
0000
,
0001
0010
0100
0000
1000
0010
0100
0000
,
0001
0000
0000
0100
0000
0000
0010
0000
0000
0000
1000
0000
0001
0000
0000
0000
,
0100
0000
0000
0001
0000
0000
1000
0000
0000
0000
0100
0000
1000
0000
0000
0000
,
0100
0000
0000
0000
0000
0000
0100
0000
0000
0000
0000
0000
0100
0000
0000
0000
0000
0000
0000
0000
2000
3000
0000
0000
2000
3000
0000
0000
0000
0000
0000
0000
,
0001
0100
0010
1000
0001
1000
0100
0010
,
0100
0000
0000
1000
0000
0000
0010
0000
0000
0000
0100
0000
0001
0000
0000
0000
,
1000
0000
0000
0100
0000
0000
0010
0000
0000
0000
0001
0000
1000
0000
0000
0000
,
0001
0000
0000
0100
0000
0000
0010
0000
0000
0000
1000
0000
0001
0000
0000
0000
,
1000
0010
0100
0001
1000
0001
0010
0100
,
0010
0000
0000
0001
0000
0000
0100
0000
0000
0000
0001
0000
1000
0000
0000
0000
,
0001
0000
0000
0010
0000
0000
0100
0000
0000
0000
1000
0000
0010
0000
0200
0000
,
0000
0301
0010
0200
0000
1300
0001
0020
,
0001
0000
0000
0001
0000
0000
0130
0000
0000
0000
0010
0000
0001
0000
0200
0000
,
0000
0320
0000
2030
0000
0000
3200
0300
,
1000
0000
0000
0100
0000
0000
0010
0000
0001
0000
0100
0000
0010
0000
1000
0000
,
0001
0000
0000
1000
0000
0000
0100
0000
0000
0000
0100
0000
0010
0000
0200
0000
,
1000
0000
0000
0010
0000
0000
0310
0000
0000
0000
0100
0000
1000
0000
0020
0000
,
0000
0000
0000
0000
0230
0000
0000
0000
0000
0000
0000
0000
0302
0000
0000
0000
0000
0000
0000
0000
2003
3000
0000
0000
2000
3000
0000
0000
0000
0000
0000
0000
,
0001
0000
0000
0000
0000
0000
0100
0000
0000
0000
0000
0000
0020
0000
0000
0000
0000
0000
0000
0000
0200
0300
0000
0000
0200
0300
0000
0000
0000
0000
0000
0000
,
1030
0000
0000
0000
0000
0000
0100
0000
0000
0000
0000
0000
0020
0000
0000
0000
0000
0000
0000
0000
0200
0300
0000
0000
0200
0300
0000
0000
0000
0000
0000
0000
,
0031
0000
0000
0100
0000
0000
0010
0000
0000
0000
1000
0000
0100
0000
0010
0000
,
0001
0000
0000
0000
0000
0000
0010
0000
0000
0000
0000
0000
0100
0000
0000
0000
0000
0000
0000
0000
2000
3000
0000
0000
2000
3000
0000
0000
0000
0000
0000
0000
,
1000
0000
0000
0000
0000
0000
0100
0000
0000
0000
0000
0000
0020
0000
0000
0000
0000
0000
0000
0000
0200
0300
0000
0000
0200
0300
0000
0000
0000
0000
0000
0000
,
0031
0000
0000
0000
0000
0000
0100
0000
0000
0000
0000
0000
0020
0000
0000
0000
0000
0000
0000
0000
0200
0300
0000
0000
0230
0300
0000
0000
0000
0000
0000
0000
,
0010
0000
0000
1000
0000
0000
0200
0000
0000
0000
0310
0000
0001
0000
0000
0000
,
0010
0000
0000
0000
0000
0000
0010
0000
0000
0000
0000
0000
0010
0000
0000
0000
0000
0000
0000
0000
0002
0003
0000
0000
0002
0003
0000
0000
0000
0000
0000
0000
,
1000
0000
0000
0000
0001
0000
0100
0000
0000
0000
0000
0000
0020
0000
0000
0000
0000
0000
0000
0000
0200
0300
0000
0000
0230
0300
0000
0000
0000
0000
0000
0000
,
0001
0000
0000
0000
1000
0000
0100
0000
0000
0000
0000
0000
0020
0000
0000
0000
0000
0000
0000
0000
0200
0300
0000
0000
0230
0300
0000
0000
0000
0000
0000
0000
,
1000
0000
0001
0100
0000
0000
0010
0000
0000
0000
1000
0000
0100
0000
0010
0000
,
0001
0000
0000
0000
1000
0000
0100
0000
0000
0000
0000
0000
0010
0000
0000
0000
0000
0000
0000
0000
0002
0003
0000
0000
0002
0003
0000
0000
0000
0000
0000
0000
,
0001
0000
0000
0000
1000
0000
0100
0000
0000
0000
0000
0000
0020
0000
0000
0000
0000
0000
0000
0000
0200
0300
0000
0000
0230
0300
0000
0000
0000
0000
0000
0000
,
1000
0000
0000
0000
0001
0000
0100
0000
0000
0000
0000
0000
0020
0000
0000
0000
0000
0000
0000
0000
0200
0300
0000
0000
0230
0300
0000
0000
0000
0000
0000
0000
,
0001
0000
0100
0001
0000
0000
0020
0000
0000
0000
0031
0000
0010
0000
0100
0000
,
2000
0000
0000
3200
0000
0000
0000
0000
,
0320
0000
0032
0000
,
2003
0000
0000
3020
0000
0000
0000
0000
,
0230
0000
0302
0003
,
0002
0000
0000
0203
0000
0000
0000
0000
,
0320
0000
2030
0000
,
3002
0000
0000
0023
0000
0000
0000
0000
,
0230
0000
2300
3020
,
1030
0000
0000
0010
1000
0000
0001
0000
1000
0000
0000
0000
1000
0000
0000
0000
,
0001
0000
0000
0010
0001
0000
1000
0000
0001
0000
0000
0000
0001
0000
0000
0000
,
1000
0000
0000
0100
1000
0000
0001
0000
1000
0000
0000
0000
1000
0000
0000
0000
,
0001
0000
0000
0100
0001
0000
1000
0000
0001
0000
0000
0000
0001
0000
0000
0000
,
1000
0000
0000
0100
1000
0000
0001
0000
1000
0000
0000
0000
1000
0000
0000
0000
,
0010
0000
0000
0000
0000
0000
0010
0000
0000
0000
0000
0000
0010
0000
0000
0000
1000
0000
0000
0000
0002
0003
0000
0000
0002
0003
0000
0000
0000
0000
0000
0000
,
0100
0000
0000
0000
0001
0000
1000
0000
0000
0000
0000
0000
0200
0000
0000
0000
0000
0000
0000
0000
0020
0030
0000
0000
0320
0030
0000
0000
0000
0000
0000
0000
,
0100
0000
0000
0000
1000
0000
0001
0000
0000
0000
0000
0000
0200
0000
0000
0000
0000
0000
0000
0000
0020
0030
0000
0000
0320
0030
0000
0000
0000
0000
0000
0000
,
0100
0000
0001
1000
0000
0000
0100
0000
0000
0000
1000
0000
0010
0000
0100
0000
,
0010
0000
0000
0000
1000
0000
0001
0000
0000
0000
0000
0000
0010
0000
0000
0000
0000
0000
0000
0000
0002
0003
0000
0000
0002
0003
0000
0000
0000
0000
0000
0000
,
0010
0000
0000
0000
0001
0000
1000
0000
0000
0000
0000
0000
0020
0000
0000
0000
0000
0000
0000
0000
0200
0300
0000
0000
0230
0300
0000
0000
0000
0000
0000
0000
,
0010
0000
0000
0000
1000
0000
0001
0000
0000
0000
0000
0000
0020
0000
0000
0000
0000
0000
0000
0000
0200
0300
0000
0000
0230
0300
0000
0000
0000
0000
0000
0000
,
0010
0000
0100
1000
0000
0000
0020
0000
0000
0000
1030
0000
0010
0000
0100
0000
,
0010
0000
0000
0000
0000
0000
0010
0000
0000
0000
0000
0000
0010
0000
0000
0000
1000
0000
0000
0000
0002
0003
0000
0000
0002
0003
0000
0000
0010
0000
0000
0000
,
0100
0000
0000
0000
1000
0000
0001
0000
0000
0000
0000
0000
0200
0000
0000
0000
0000
0000
0000
0000
0002
0003
0000
0000
0320
0030
0000
0000
0000
0000
0000
0000
,
0100
0000
0000
0000
0001
0000
1000
0000
0000
0000
0000
0000
0200
0000
0000
0000
0000
0000
0000
0000
2000
3000
0000
0000
0320
0030
0000
0000
0000
0000
0000
0000
,
0100
0000
1000
0001
0000
0000
0100
0000
0000
0000
0001
0000
0010
0000
0100
0000
,
0010
0000
0000
0000
0001
0000
1000
0000
0000
0000
0000
0000
0010
0000
0000
0000
0000
0000
0000
0000
2000
3000
0000
0000
2000
3000
0000
0000
0000
0000
0000
0000
,
0010
0000
0000
0000
1000
0000
0001
0000
0000
0000
0000
0000
0020
0000
0000
0000
0000
0000
0000
0000
0002
0003
0000
0000
0230
0300
0000
0000
0000
0000
0000
0000
,
0010
0000
0000
0000
0001
0000
1000
0000
0000
0000
0000
0000
0020
0000
0000
0000
0000
0000
0000
0000
2000
3000
0000
0000
0230
0300
0000
0000
0000
0000
0000
0000
,
0010
0000
0100
0001
0000
0000
0020
0000
0000
0000
0031
0000
0010
0000
0100
0000
,
1000
0100
0000
0010
0000
0100
0000
0010
0000
0100
0000
0010
0100
0000
0000
0000
,
1001
0000
0000
0000
;

//--------------- dance-single - chronon ----------------
#NOTEDATA:;
#STEPSTYPE:dance-single;
#DESCRIPTION:chronon;
#DIFFICULTY:Hard;
#METER:15;
#RADARVALUES:0,0,0,0,0;
#NOTES:
0000
0000
0000
0000
,
0000
0000
0000
0000
,
0000
0000
0000
0000
,
0000
0000
0000
0000
,
0000
0000
0000
0000
,
0000
0000
0000
0000
,
1000
0100
0000
0010
0000
0000
0010
0100
0000
0000
1000
0000
0010
0000
0100
0000
,
0001
0100
0000
0010
0000
0000
0010
0100
0000
0000
0001
0000
0010
0000
0100
0000
,
1000
0100
0000
0010
0000
0000
0010
0100
0000
0000
1000
0000
0010
0000
0100
0000
,
0001
0000
0100
0000
0000
0000
0010
0000
1000
0000
0000
0000
0001
0000
1000
0000
0000
0000
0000
0000
0002
0003
0000
0000
0002
0003
0000
0000
1000
0000
0000
0000
,
0010
0000
1000
0000
0100
0000
0010
0100
1000
0000
0100
0000
0010
0000
0001
0000
,
0010
0000
0000
0001
0000
0000
0100
0000
0000
0000
0001
0000
0100
0000
0010
0000
,
0100
0000
0000
0001
0000
0000
1000
0000
0000
0000
0001
0000
1000
0000
0000
0000
,
0100
0000
0000
1000
0000
0000
0001
0000
0000
0000
1000
0000
0001
0000
0000
0000
,
0010
0000
0001
0000
0100
0000
0010
0100
0001
0000
0100
0000
0010
0000
1000
0000
,
0010
0000
0000
1000
0000
0000
0100
0000
0000
0000
1000
0000
0100
0000
0010
0000
,
0100
0000
0000
1000
0000
0000
0001
0000
0000
0000
1000
0000
0001
0000
0000
0000
,
1000
0000
0010
0000
0000
0000
0100
0000
0001
0000
0000
0000
1000
0000
0001
0000
0000
0000
0000
0000
2000
3000
0000
0000
2000
3000
0000
0000
0001
0000
1000
0000
,
0001
0000
1000
0001
0010
0000
0001
1000
0010
0000
1000
0000
0010
0000
0100
0000
,
0010
1000
0000
0001
0100
0000
0001
0010
0000
0000
0100
0000
0010
0000
0001
0000
,
0010
0001
0000
1000
0100
0000
1000
0001
0000
0000
1000
0000
0010
0000
0100
0000
,
0010
1000
0000
0001
0100
0000
0001
1000
0000
0000
0001
0000
0010
0000
0100
0000
,
1000
0000
0001
1000
0100
0000
1000
0001
0100
0000
0001
0000
0100
0000
0010
0000
,
0100
0001
0000
1000
0010
0000
1000
0100
0000
0000
0010
0000
0100
0000
1000
0000
,
0100
1000
0000
0001
1000
0000
0001
0100
0000
0000
0001
0000
0010
0000
0200
0000
,
0000
1300
0010
0200
0000
0310
0100
0002
,
1000
0000
0000
0010
0000
0000
0103
0000
0000
0000
0001
0000
0100
0000
0010
0000
,
0000
1000
0000
0100
0000
1000
0200
0310
,
0001
0010
0000
0100
0010
0000
0001
0000
0100
0000
0010
0000
0100
0000
0001
0000
,
0100
0000
0000
0010
0000
0000
1000
0000
0010
0000
1000
0000
0001
0000
2000
0000
,
0001
0000
0000
0100
0000
0000
3010
0000
0000
0000
1000
0000
0010
0000
0100
0000
,
0000
0000
0001
0000
0000
0000
0010
0000
0001
0010
0001
0000
1000
0100
1000
0000
,
0001
0000
0000
0000
0000
0000
0000
0000
0000
1000
0000
0000
0000
0000
0000
0000
0000
0000
0200
0000
0000
0000
0000
0000
0000
0000
0000
0000
0000
0000
0002
0003
0000
0000
0000
0000
0302
0003
0000
0000
0000
0000
0100
0000
0000
0000
0000
0000
,
1000
0000
0000
0000
0000
0000
0000
0000
0000
0001
0000
0000
0000
0000
0000
0000
0000
0000
0200
0000
0000
0000
0000
0000
0000
0000
0000
0000
0000
0000
2000
3000
0000
0000
0000
0000
2300
3000
0000
0000
0000
0000
0100
0000
0000
0000
0000
0000
,
0010
0000
0000
0100
0000
0000
0001
0000
0000
0000
0010
0000
0100
0000
1000
0000
,
0001
0000
0000
0000
0000
0000
0000
0000
0000
1000
0000
0000
0000
0000
0000
0000
0000
0000
0010
0000
0000
0000
0000
0000
0100
0000
0000
0000
0000
0000
0002
0003
0000
0000
0000
0000
0002
0003
0000
0000
0000
0000
1000
0000
0000
0000
0000
0000
,
0001
0000
0000
0000
0000
0000
0000
0000
0000
1000
0000
0000
0000
0000
0000
0000
0000
0000
0020
0000
0000
0000
0000
0000
0000
0000
0000
0000
0000
0000
0002
0003
0000
0000
0000
0000
0032
0003
0000
0000
0000
0000
0010
0000
0000
0000
0000
0000
,
1000
0000
0000
0000
0000
0000
0000
0000
0000
0001
0000
0000
0000
0000
0000
0000
0000
0000
0020
0000
0000
0000
0000
0000
0000
0000
0000
0000
0000
0000
2000
3000
0000
0000
0000
0000
2030
3000
0000
0000
0000
0000
0010
0000
0000
0000
0000
0000
,
0100
0000
0000
1000
0000
0000
0020
0000
0000
0000
0130
0000
0001
0000
1000
0000
,
0001
0010
0000
0100
1000
0000
0001
0000
1000
0010
1000
0000
0001
0100
0001
0000
,
1000
0000
0000
0001
0000
0000
0000
0000
0000
1000
0000
0000
0010
0000
0000
0000
0000
0000
0200
0000
0000
0000
0000
0000
0000
0000
0000
0000
0000
0000
2000
3000
0000
0000
0000
0000
2300
3000
0000
0000
0000
0000
0100
0000
0000
0000
0000
0000
,
0001
0000
0000
1000
0000
0000
0000
0000
0000
0001
0000
0000
0010
0000
0000
0000
0000
0000
0200
0000
0000
0000
0000
0000
0000
0000
0000
0000
0000
0000
0002
0003
0000
0000
0000
0000
0302
0003
0000
0000
0000
0000
0100
0000
0000
0000
0000
0000
,
0010
0001
0000
0010
0100
0000
1000
0000
0000
0000
0010
0000
0100
0000
0001
0000
,
1000
0000
0000
0000
0000
0000
0001
0000
0000
0010
0000
0000
0000
0000
0000
0100
0000
0000
0010
0000
0000
0000
0000
0000
0100
0000
0000
0000
0000
0000
2000
3000
0000
0000
0000
0000
2000
3000
0000
0000
0000
0000
0001
0000
0000
0000
0000
0000
,
1000
0000
0000
0001
0000
0000
0000
0000
0000
1000
0000
0000
0100
0000
0000
0000
0000
0000
0020
0000
0000
0000
0000
0000
0000
0000
0000
0000
0000
0000
2000
3000
0000
0000
0000
0000
2030
3000
0000
0000
0000
0000
0010
0000
0000
0000
0000
0000
,
0001
0000
0000
1000
0000
0000
0000
0000
0000
0001
0000
0000
0100
0000
0000
0000
0000
0000
0020
0000
0000
0000
0000
0000
0000
0000
0000
0000
0000
0000
0002
0003
0000
0000
0000
0000
0032
0003
0000
0000
0000
0000
0010
0000
0000
0000
0000
0000
,
0100
0010
0000
0100
0001
0000
0020
0000
0000
0000
0031
0000
0010
0000
0100
0000
,
1000
0000
0000
0100
0000
0000
0020
0000
0000
0000
0000
0000
0000
0000
0000
0000
,
0031
0000
0000
1000
0000
0000
0010
0000
0100
0000
0010
0000
1000
0000
0001
0000
,
1000
0000
0000
0100
0000
0000
0020
0000
0000
0000
0000
0000
0000
0000
0000
0000
,
0031
0000
0000
1000
0000
0000
0010
0000
0100
0000
0010
0000
1000
0000
0001
0000
,
0010
0000
0000
0001
0000
0000
2000
0000
0000
0000
0000
0000
0000
0000
0000
0000
,
3001
0000
0000
1000
0000
0000
0001
0000
0100
0000
0010
0000
1000
0000
0001
0000
,
0010
0000
0000
0001
0000
0000
2000
0000
0000
0000
0000
0000
0000
0000
0000
0000
,
3001
0000
0000
1000
0000
0000
0001
0000
0100
0000
0001
0000
0020
0000
0000
0000
,
0031
0000
0000
0010
0001
0000
1000
0000
0001
0000
0000
0000
0001
0000
1000
0000
,
0010
0000
0000
1000
0010
0000
0100
0000
0010
0000
1000
0000
0010
0000
0000
0000
,
1000
0000
0000
0010
1000
0000
0001
0000
1000
0000
0100
0000
1000
0000
0100
0000
,
0010
0000
0000
0100
0010
0000
0001
0000
0010
0000
0000
0000
0010
0000
0000
0000
,
0001
0000
0000
0010
0001
0000
1000
0000
0001
0000
0000
0000
0001
0000
1000
0000
,
0001
0100
0000
0010
0100
0000
0010
1000
0001
0010
0001
0000
1000
0100
0010
0100
,
1000
0000
0000
0000
0000
0000
0000
0000
0000
0100
0000
0000
0000
0000
0000
0000
0000
0000
0002
0000
0000
0000
0000
0000
0000
0000
0000
0000
0000
0000
2000
3000
0000
0000
0000
0000
2003
3000
0000
0000
0000
0000
0010
0000
0000
0000
0000
0000
,
0001
0000
0000
0000
0000
0000
0000
0000
0000
0100
0000
0000
0000
0000
0000
0000
0000
0000
2000
0000
0000
0000
0000
0000
0000
0000
0000
0000
0000
0000
0002
0003
0000
0000
0000
0000
3002
0003
0000
0000
0000
0000
0010
0000
0000
0000
0000
0000
,
0100
0000
0000
0010
0000
0000
1000
0000
0000
0000
0100
0000
0010
0000
0001
0000
,
1000
0000
0000
0000
0000
0000
0000
0000
0000
0001
0000
0000
0000
0000
0000
0000
0000
0000
0100
0000
0000
0000
0000
0000
0010
0000
0000
0000
0000
0000
2000
3000
0000
0000
0000
0000
2000
3000
0000
0000
0000
0000
0001
0000
0000
0000
0000
0000
,
1000
0000
0000
0000
0000
0000
0000
0000
0000
0010
0000
0000
0000
0000
0000
0000
0000
0000
0002
0000
0000
0000
0000
0000
0000
0000
0000
0000
0000
0000
2000
3000
0000
0000
0000
0000
2003
3000
0000
0000
0000
0000
0100
0000
0000
0000
0000
0000
,
0001
0000
0000
0000
0000
0000
0000
0000
0000
0010
0000
0000
0000
0000
0000
0000
0000
0000
2000
0000
0000
0000
0000
0000
0000
0000
0000
0000
0000
0000
0002
0003
0000
0000
0000
0000
3002
0003
0000
0000
0000
0000
0100
0000
0000
0000
0000
0000
,
0010
0000
0000
0001
0000
0000
0200
0000
0000
0000
0310
0000
1000
0000
0001
0000
,
1000
0100
0000
0010
0100
0000
0010
0001
1000
0010
1000
0000
0001
0100
0010
0100
,
0001
0000
0000
1000
0000
0000
0000
0000
0000
0010
0000
0000
0100
0000
0000
0000
0000
0000
2000
0000
0000
0000
0000
0000
0000
0000
0000
0000
0000
0000
0002
0003
0000
0000
0000
0000
3200
0300
0000
0000
0000
0000
0010
0000
0000
0000
0000
0000
,
1000
0000
0000
0001
0000
0000
0000
0000
0000
0010
0000
0000
0100
0000
0000
0000
0000
0000
0002
0000
0000
0000
0000
0000
0000
0000
0000
0000
0000
0000
2000
3000
0000
0000
0000
0000
0203
0300
0000
0000
0000
0000
0010
0000
0000
0000
0000
0000
,
0100
1000
0000
0100
0010
0000
0001
0000
0000
0000
0100
0000
0010
0000
1000
0000
,
0001
0000
0000
0000
0000
0000
1000
0000
0000
0100
0000
0000
0000
0000
0000
0010
0000
0000
0100
0000
0000
0000
0000
0000
0010
0000
0000
0000
0000
0000
0002
0003
0000
0000
0000
0000
0002
0003
0000
0000
0000
0000
1000
0000
0000
0000
0000
0000
,
0001
0000
0000
1000
0000
0000
0000
0000
0000
0100
0000
0000
0010
0000
0000
0000
0000
0000
2000
0000
0000
0000
0000
0000
0000
0000
0000
0000
0000
0000
0002
0003
0000
0000
0000
0000
3020
0030
0000
0000
0000
0000
0100
0000
0000
0000
0000
0000
,
1000
0000
0000
0001
0000
0000
0000
0000
0000
0100
0000
0000
0010
0000
0000
0000
0000
0000
0002
0000
0000
0000
0000
0000
0000
0000
0000
0000
0000
0000
2000
3000
0000
0000
0000
0000
0023
0030
0000
0000
0000
0000
0100
0000
0000
0000
0000
0000
,
0010
0100
0000
0010
1000
0000
0200
0000
0000
0000
1300
0000
0100
0000
0010
0000
,
0001
0010
0000
0100
0000
0100
0000
1000
0000
1000
0000
0001
1000
0010
0100
0000
,
1001
0000
0000
0000
;
