#TITLE:GET WILD;
#SUBTITLE:;
#ARTIST:NMR;
#TITLETRANSLIT:;
#SUBTITLETRANSLIT:;
#ARTISTTRANSLIT:;
#GENRE:;
#CREDIT:;
#MUSIC:GET WILD.ogg;
#BANNER:GET WILD.png;
#BACKGROUND:GET WILD-bg.png;
#CDTITLE:;
#SAMPLESTART:50.449;
#SAMPLELENGTH:15.000;
#SELECTABLE:YES;
#OFFSET:0.526;
#BPMS:0.000=150.000;
#STOPS:;
#BGCHANGES:;
#FGCHANGES:;

//--------------- dance-single - Princess Pamela ----------------
#NOTES:
     dance-single:
     Princess Pamela:
     Medium:
     11:
     0,0,0,0,0:
0000
0000
0000
0000
,
0000
0000
0000
0000
,
0000
0000
0000
0000
,
0000
0000
0000
0000
,
0000
0000
0000
0000
,
1000
0000
0000
0000
0001
0000
0000
0000
0100
0000
0000
0100
0000
0000
0100
0000
,
0001
0000
0000
0000
1000
0000
0000
0000
0100
0000
0000
0010
0000
0000
0100
0000
,
1000
0000
0000
0000
0001
0000
0000
0000
0010
0000
0000
0010
0000
0000
0010
0000
,
0001
0000
0000
0000
1000
0000
0000
0000
0010
0000
0000
0100
0000
0000
0010
0000
,
1000
0000
0000
0000
0001
0000
0001
0000
1000
0000
0000
1000
0000
0000
1000
0000
,
0001
0000
0000
0000
1000
0000
1000
0000
0001
0000
0000
0010
0000
0000
0001
0000
,
1000
0000
0000
0000
0010
0000
0010
0000
1000
0000
0000
1000
0000
0000
1000
0000
,
0001
0000
0000
0000
0010
0000
0010
0000
0001
0000
0000
1000
0000
0000
0001
0000
,
0100
0000
0000
0100
0000
0000
0100
0000
0000
0000
0010
0000
0000
0000
0010
0000
,
1000
0000
0001
0000
1000
0001
0100
0001
,
1000
0000
0010
0000
1000
0100
0010
0000
,
0001
0000
0010
0000
0100
1000
0100
1000
,
0001
0000
0100
0000
0010
1000
0010
0000
,
0100
0000
0001
0000
0010
0001
0010
0001
,
1000
0000
0010
0000
0100
0001
1000
0000
,
0100
0000
1000
0000
0010
0100
0010
0000
,
0110
0000
0110
0000
0001
1000
0001
0000
,
2000
0000
3200
0000
,
0320
0000
0032
0003
,
1000
1000
0001
0100
,
0010
0000
0000
0010
0000
0000
0100
0000
0001
0000
0000
0001
0000
0000
1000
0000
,
0100
0000
0100
0010
0001
0000
0100
0010
,
1000
0000
0010
0100
0001
0000
0110
0000
,
2002
0000
3003
0000
1000
0001
1000
0000
,
0020
0230
0302
2003
,
3010
0000
0110
0000
1000
0001
1000
0000
,
0001
0100
0001
1000
0100
1000
0000
0000
,
1001
0110
2002
3003
,
0001
0000
0000
0100
0000
0000
0010
0000
2000
0000
0000
0000
3000
0000
0000
0000
,
0100
1000
0100
0000
0010
0001
0010
0000
,
0100
0000
0000
1000
0000
0000
0001
0000
0200
0000
0000
0000
0300
0000
0000
0000
,
1001
0110
2002
3003
,
1000
0000
0000
0010
0000
0000
0100
0000
0002
0000
0000
0000
0003
0000
0000
0000
,
0010
0001
0010
0000
0100
1000
0100
0000
,
0010
0000
0000
0001
0000
0000
1000
0000
0020
0000
0000
0000
0030
0000
0000
0000
,
1001
0000
0110
0000
2002
0000
3003
0001
,
0010
0000
0000
0001
0000
0000
1000
0000
0200
0000
0000
0000
0300
0000
1000
0000
,
0001
1000
0001
0000
0100
0001
0100
0000
,
0010
0000
0000
1000
0000
0000
0001
0000
0020
0000
0000
0000
0030
0000
0000
0000
,
1001
0000
0110
0000
2002
0000
3003
1000
,
0100
0000
0000
1000
0000
0000
0001
0000
0200
0000
0000
0000
0300
0000
0010
0000
,
1000
0010
1000
0000
0001
0010
0100
0000
,
0010
0000
0000
0010
0000
0000
0001
0000
1000
0000
0000
0000
1001
0000
0000
0000
,
0001
0000
0000
0000
0100
0000
0100
0000
0001
0000
0000
0001
0000
0000
0001
0000
,
1000
0000
0000
0000
0010
0000
0010
0000
1000
0000
0000
0001
0000
0000
1000
0000
,
0100
0000
0000
0000
0010
0000
0010
0000
0100
0000
0000
0100
0000
0000
0100
0000
,
1000
0000
0000
0000
0001
0000
0001
0000
1000
0000
0000
0010
0000
0000
1000
0000
,
0001
0000
0000
0000
0010
0000
0100
0000
0010
0000
0000
0001
0000
0000
1000
0000
,
0001
0000
0000
0000
0100
0000
0010
0000
0100
0000
0000
0001
0000
0000
1000
0000
,
0010
0000
0000
0000
1000
0000
0001
0000
1000
0000
0000
0100
0000
0000
0010
0000
,
0001
0000
0100
0001
0100
0000
0010
0000
,
1001
0110
2002
3003
,
1000
0000
0000
0100
0000
0000
0010
0000
0002
0000
0000
0000
0003
0000
0000
0000
,
1000
0010
1000
0000
0001
0010
0001
0000
,
0100
0000
0000
0100
0000
0000
0010
0000
2000
0000
0000
0000
3000
0000
0000
0000
,
1001
0110
2002
3003
,
0001
0000
0000
0010
0000
0000
0100
0000
2000
0000
0000
0000
3000
0000
0000
0000
,
0001
0100
0001
0000
1000
0100
1000
0000
,
0010
0000
0000
0010
0000
0000
0100
0000
0002
0000
0000
0000
0003
0000
0000
0000
,
0011
0000
1100
0000
0022
0000
0033
0001
,
0010
0000
0000
0100
0000
0000
1000
0000
0002
0000
0000
0000
0003
0000
1000
0000
,
0010
1000
0010
0100
0001
0100
0001
1000
,
0100
0000
0000
1000
0000
0000
0001
0000
0200
0000
0000
0000
0300
0000
0000
0000
,
0101
0000
1010
0000
0202
0000
0303
0001
,
0100
0000
0000
0010
0000
0000
1000
0000
0002
0000
0000
0000
0003
0000
0100
0000
,
0001
0100
0001
1000
0010
1000
0010
0100
,
0001
0000
0000
1000
0000
0000
0100
0000
0110
0000
0000
0000
2002
0000
0000
0000
,
0000
0000
0000
3003
;

//--------------- dance-single - Princess Pamela ----------------
#NOTES:
     dance-single:
     Princess Pamela:
     Hard:
     15:
     0,0,0,0,0:
0000
0000
0000
0000
,
0000
0000
0000
0000
,
0000
0000
0000
0000
,
0000
0000
0000
0000
,
0000
0000
0000
0000
,
1000
0000
0001
0000
0100
0001
0100
0001
0100
0000
0010
1000
0000
0010
0100
0000
,
0001
0000
1000
0000
0100
1000
0100
1000
0100
0000
0010
0001
0000
1000
0010
0000
,
0100
0000
0001
0000
0010
0001
0010
0001
0010
0000
0100
1000
0000
0001
0100
0000
,
0010
0000
1000
0000
0100
1000
0100
1000
0100
0000
0010
0001
0000
1000
0010
0000
,
0100
0000
0001
0000
0010
0100
1000
0100
0010
0000
0001
1000
0000
0100
1000
0000
,
0001
0000
0100
0000
0010
0100
0001
0100
0010
0000
1000
0001
0000
0100
0001
0000
,
1000
0000
0010
0000
0100
0001
1000
0001
0100
0000
0010
1000
0000
0001
1000
0000
,
0100
0000
0010
0000
0001
1000
0100
1000
0001
0000
0010
0100
0000
1000
0001
0000
,
0100
0000
0000
0100
0000
0000
0100
0010
0100
0000
0001
0000
1000
0000
0010
0000
,
0100
0000
0100
0001
0100
0001
0010
0100
,
0010
0001
0100
0001
1000
0100
1000
0001
,
1000
0000
1000
0100
0010
0100
1000
0001
,
1000
0000
0010
0000
0100
0000
0001
0000
0010
0000
0001
0010
0000
0000
0100
0000
,
1000
0001
0100
0001
1000
0010
1000
0001
,
0010
0000
0100
0000
0010
0000
0001
0000
1000
0000
0100
1000
0000
0000
0001
0000
,
1000
0010
1000
0001
0010
0001
1000
0010
,
0110
0000
0000
0000
1001
0000
0000
1000
0001
0000
0100
0001
0100
0000
0010
0000
,
2000
0000
0000
0010
0000
0010
0000
3001
,
0200
0010
0020
0330
,
1001
0000
0001
1000
0100
1000
0001
0000
,
0010
0000
0000
0010
0000
0000
0100
0000
1000
0000
0000
1000
0000
0001
1000
0000
,
0010
0000
0100
0000
0001
0000
0100
0010
0000
0010
0000
0100
0010
0000
1000
0000
,
0001
0000
0010
0000
0001
0000
1000
0001
0000
0001
0000
1000
0100
0000
1000
0000
,
0020
0000
0000
0000
0130
0000
0010
0100
0000
0100
0000
0001
0100
0000
0010
0000
,
1010
1100
0011
0101
,
1000
0000
0001
0100
0001
0000
1000
0100
1000
0000
0001
0010
0001
0000
1000
0000
,
0100
0010
0100
0010
0001
0000
0100
0010
0100
0010
2000
0000
0000
0000
3001
0000
,
0010
0000
0110
0000
2002
0000
3003
1000
,
0010
0000
0000
0100
0000
0000
0001
0000
0202
0000
0000
0000
0303
0000
0001
1000
,
0001
0010
0100
0010
0001
1000
0100
1000
,
0010
0000
0000
0100
0000
0000
0001
0000
2002
0000
0000
0000
3003
0000
1000
0000
,
0010
0000
0110
0000
2002
0000
3003
0001
,
0010
0000
0000
0100
0000
0000
1000
0000
2200
0000
0000
0000
3300
0000
1000
0001
,
1000
0000
0010
0000
0100
0000
0001
1000
0001
0000
0010
0000
0100
0000
1000
0000
,
0010
0000
0000
0110
0000
0000
0100
0000
0001
1000
0001
1000
0001
0000
0100
0000
,
0101
0000
1000
0000
1100
0000
0001
0000
1001
0000
0000
0000
1000
0000
0100
1000
,
0100
0000
0010
0001
0000
0010
0100
0000
2000
0000
0000
0000
3001
0000
1000
0100
,
1000
0000
0001
0100
0001
0000
1000
0010
0100
0000
0001
0100
0010
0000
1000
0000
,
0001
0000
0010
0001
0000
1000
0010
0000
0100
0010
0100
0010
0100
0000
0001
0000
,
0101
0000
1000
0000
1100
0000
0001
0000
1001
0000
0000
0000
0001
0000
0100
0001
,
0100
0000
0010
1000
0000
0010
0100
0000
0002
0000
0000
0000
1003
0000
0001
0100
,
0001
0000
1000
0100
1000
0000
0001
0010
0100
0000
1000
0100
0010
0000
0001
0000
,
1000
0000
0010
1000
0000
0001
0010
0000
0100
0010
0100
0010
0001
1000
0001
0000
,
1000
0000
0100
0000
0010
0100
0010
0100
1000
0000
0001
0100
0000
0010
1000
0000
,
0001
0000
0010
0000
0100
0010
0100
0010
0001
0000
1000
0010
0000
0100
0001
0000
,
1000
0000
0100
0000
1000
0001
1000
0001
0010
0000
0100
1000
0000
0100
0010
0000
,
0001
0000
0100
0000
0001
1000
0001
1000
0010
0000
0100
0001
0000
0010
0100
0000
,
1000
0000
0001
0000
0010
0001
1000
0001
0010
0000
0100
1000
0000
0100
0010
0000
,
0001
0000
1000
0000
0010
1000
0001
1000
0010
0000
0100
0001
0000
0100
0010
0000
,
1000
0000
0001
0000
0010
0100
1000
0100
0010
0000
0001
0010
0000
0100
1000
0000
,
0001
0000
1000
0000
0010
0100
0001
0100
0010
0000
1000
0001
0000
0010
0100
0000
,
0010
0000
0110
0000
2002
0000
3003
0001
,
0010
0000
0000
0100
0000
0000
1000
0000
2200
0000
0000
0000
3300
0000
1000
0001
,
1000
0010
0100
0010
1000
0001
0100
0001
,
0010
0000
0000
0110
0000
0000
0100
0000
1001
0000
0000
0000
0001
1000
0001
0000
,
0100
0000
0110
0000
2002
0000
3003
1000
,
0010
0000
0000
0100
0000
0000
0001
0000
0202
0000
0000
0000
0303
0000
0001
1000
,
0100
0000
0010
0000
0100
0000
1000
0001
0100
0000
0010
0000
1000
0000
0001
0000
,
0010
0000
0000
0110
0000
0000
0100
0000
1000
0001
1000
0001
1000
0000
0010
0000
,
1001
0000
0100
0000
0110
0000
0010
0000
2001
0000
0000
0000
3001
0000
0100
0001
,
0100
0000
0010
1000
0000
0100
1000
0000
0002
0000
0000
0000
1003
0000
0001
0100
,
0010
0000
1000
0100
0010
0000
0001
1000
0010
0000
1000
0001
0010
0000
0100
0000
,
1000
0000
0010
1000
0000
0001
0010
0000
0100
0010
0100
0010
0100
0000
1000
0000
,
1001
0000
0010
0000
0110
0000
0100
0000
1002
0000
0000
0000
1003
0000
0100
1000
,
0100
0000
0010
0001
0000
0100
0001
0000
2000
0000
0000
0000
3001
0000
1000
0100
,
0010
0000
0001
0100
0010
0000
1000
0001
0010
0000
0001
1000
0100
0000
0010
0000
,
0110
0000
0000
1001
0000
0000
0001
0100
0001
1000
0100
1000
0020
0000
0000
0000
,
0000
0000
0000
0030
;

//--------------- dance-double - Princess Pamela ----------------
#NOTES:
     dance-double:
     Princess Pamela:
     Medium:
     11:
     0,0,0,0,0:
00000000
00000000
00000000
00000000
,
00000000
00000000
00000000
00000000
,
00000000
00000000
00000000
00000000
,
00000000
00000000
00000000
00000000
,
00000000
00000000
00000000
00000000
,
00001000
00000000
00000000
00000000
00010000
00000000
00000000
00000000
00000100
00000000
00000000
00000100
00000000
00000000
00000100
00000000
,
00010000
00000000
00000000
00000000
00001000
00000000
00000000
00000000
00100000
00000000
00000000
00010000
00000000
00000000
00100000
00000000
,
00001000
00000000
00000000
00000000
01000000
00000000
00000000
00000000
00010000
00000000
00000000
00010000
00000000
00000000
00010000
00000000
,
10000000
00000000
00000000
00000000
00100000
00000000
00000000
00000000
01000000
00000000
00000000
00100000
00000000
00000000
01000000
00000000
,
00010000
00000000
00000000
00000000
00100000
00000000
00100000
00000000
00001000
00000000
00000000
00001000
00000000
00000000
00001000
00000000
,
00010000
00000000
00000000
00000000
00000100
00000000
00000100
00000000
00001000
00000000
00000000
00000100
00000000
00000000
00000010
00000000
,
00000001
00000000
00000000
00000000
00000100
00000000
00000100
00000000
00000001
00000000
00000000
00000001
00000000
00000000
00000001
00000000
,
00001000
00000000
00000000
00000000
00000100
00000000
00000100
00000000
00010000
00000000
00000000
00001000
00000000
00000000
00010000
00000000
,
00100000
00000000
00000000
00100000
00000000
00000000
00100000
00000000
00000000
00000000
01000000
00000000
00000000
00000000
01000000
00000000
,
00100000
00000000
10000000
00000000
00100000
01000000
00010000
00000000
,
00100000
00000000
00010000
00000000
00100000
00001000
00010000
00000000
,
00000100
00000000
00001000
00000000
00000100
00000010
00000001
00000000
,
00000101
00001000
00000100
00010000
,
00001000
00000000
00100000
00000000
00010000
00100000
01000000
00000000
,
10000000
00000000
00010000
00000000
01000000
00100000
10000000
00000000
,
01000000
00000000
00100000
00000000
00001000
00010000
00001000
00000000
,
00000100
00000000
00000110
00000000
00000010
00001000
00000001
00000000
,
00000020
00000000
00000230
00000000
,
00020300
00000000
00032000
00003000
,
00100000
00100000
00010000
00100000
,
01000000
00000000
00000000
01000000
00000000
00000000
10000000
00000000
00010000
00000000
00000000
00010000
00000000
00000000
01000000
00000000
,
00001000
00000000
00001000
00010000
00000100
00000000
00001100
00000000
,
00001000
00000000
00000001
00000100
00000010
00000000
00000110
00000000
,
00002002
00000000
00003003
00000000
00001000
00000001
00001000
00000000
,
00000020
00000230
00002300
00023000
,
00130000
00000000
01100000
00000000
10000000
00010000
10000000
00000000
,
00010000
00100000
00001000
00010000
00000100
00001000
00000000
00000000
,
00001001
00000110
00002002
00003003
,
00001000
00000000
00000000
00000100
00000000
00000000
00010000
00000000
00002000
00000000
00000000
00000000
00003000
00000000
00000000
00000000
,
01000000
00010000
01000000
00000000
00100000
10000000
00100000
00000000
,
01000000
00000000
00000000
00010000
00000000
00000000
00010000
00000000
00200000
00000000
00000000
00000000
00300000
00000000
00000000
00000000
,
10010000
01100000
20020000
30030000
,
10000000
00000000
00000000
00010000
00000000
00000000
00100000
00000000
00020000
00000000
00000000
00000000
00030000
00000000
00000000
00000000
,
01000000
00010000
01000000
00000000
00001000
00010000
00001000
00000000
,
00010000
00000000
00000000
00000100
00000000
00000000
00001000
00000000
00000020
00000000
00000000
00000000
00000030
00000000
00000000
00000000
,
00001001
00000000
00000110
00000000
00002002
00000000
00003003
00001000
,
00000100
00000000
00000000
00010000
00000000
00000000
00001000
00000000
00020000
00000000
00000000
00000000
00030000
00000000
00100000
00000000
,
01000000
00100000
01000000
00000000
00100000
10000000
00100000
00000000
,
01000000
00000000
00000000
00010000
00000000
00000000
00100000
00000000
02000000
00000000
00000000
00000000
03000000
00000000
00000000
00000000
,
10010000
00000000
01100000
00000000
20020000
00000000
30030000
00010000
,
01000000
00000000
00000000
00001000
00000000
00000000
00010000
00000000
00002000
00000000
00000000
00000000
00003000
00000000
00100000
00000000
,
00010000
00100000
00010000
00000000
00100000
00001000
00010000
00000000
,
00000100
00000000
00000000
00000100
00000000
00000000
00001000
00000000
00000001
00000000
00000000
00000000
00001001
00000000
00000000
00000000
,
00001000
00000000
00000000
00000000
00000010
00000000
00000010
00000000
00010000
00000000
00000000
00010000
00000000
00000000
00010000
00000000
,
00001000
00000000
00000000
00000000
00100000
00000000
00100000
00000000
00010000
00000000
00000000
10000000
00000000
00000000
00010000
00000000
,
01000000
00000000
00000000
00000000
00100000
00000000
00100000
00000000
10000000
00000000
00000000
10000000
00000000
00000000
10000000
00000000
,
01000000
00000000
00000000
00000000
00100000
00000000
00100000
00000000
00001000
00000000
00000000
00010000
00000000
00000000
00001000
00000000
,
00000100
00000000
00000000
00000000
00000001
00000000
00000100
00000000
00000001
00000000
00000000
00001000
00000000
00000000
00000001
00000000
,
00001000
00000000
00000000
00000000
00000100
00000000
00010000
00000000
00000100
00000000
00000000
00010000
00000000
00000000
00001000
00000000
,
00100000
00000000
00000000
00000000
00010000
00000000
10000000
00000000
00010000
00000000
00000000
01000000
00000000
00000000
00100000
00000000
,
10000000
00000000
01000000
00100000
01000000
00000000
00100000
00000000
,
10010000
01100000
20020000
30030000
,
00010000
00000000
00000000
00100000
00000000
00000000
00001000
00000000
00020000
00000000
00000000
00000000
00030000
00000000
00000000
00000000
,
00000010
00001000
00000010
00000000
00000100
00000001
00000100
00000000
,
00000010
00000000
00000000
00000010
00000000
00000000
00001000
00000000
00000200
00000000
00000000
00000000
00000300
00000000
00000000
00000000
,
00001001
00000110
00002002
00003003
,
00001000
00000000
00000000
00000100
00000000
00000000
00010000
00000000
00002000
00000000
00000000
00000000
00003000
00000000
00000000
00000000
,
01000000
00010000
01000000
00000000
00100000
10000000
00100000
00000000
,
01000000
00000000
00000000
01000000
00000000
00000000
00010000
00000000
00200000
00000000
00000000
00000000
00300000
00000000
00000000
00000000
,
00110000
00000000
11000000
00000000
00220000
00000000
00330000
00010000
,
00100000
00000000
00000000
00001000
00000000
00000000
00010000
00000000
00000200
00000000
00000000
00000000
00000300
00000000
00001000
00000000
,
00000010
00001000
00000010
00000100
00000001
00000100
00000001
00001000
,
00000100
00000000
00000000
00010000
00000000
00000000
00000010
00000000
00002000
00000000
00000000
00000000
00003000
00000000
00000000
00000000
,
00000101
00000000
00001010
00000000
00000202
00000000
00000303
00000100
,
00000010
00000000
00000000
00001000
00000000
00000000
00000100
00000000
00020000
00000000
00000000
00000000
00030000
00000000
00001000
00000000
,
00100000
00001000
00100000
00010000
01000000
00010000
01000000
00100000
,
10000000
00000000
00000000
01000000
00000000
00000000
00100000
00000000
01100000
00000000
00000000
00000000
20020000
00000000
00000000
00000000
,
00000000
00000000
00000000
30030000
;

//--------------- dance-double - Princess Pamela ----------------
#NOTES:
     dance-double:
     Princess Pamela:
     Hard:
     15:
     0,0,0,0,0:
00000000
00000000
00000000
00000000
,
00000000
00000000
00000000
00000000
,
00000000
00000000
00000000
00000000
,
00000000
00000000
00000000
00000000
,
00000000
00000000
00000000
00000000
,
00001000
00000000
00010000
00000000
00001000
00010000
00001000
00010000
00001000
00000000
00100000
00010000
00000000
00100000
00010000
00000000
,
10000000
00000000
00100000
00000000
01000000
00100000
01000000
00100000
01000000
00000000
00010000
01000000
00000000
00001000
00010000
00000000
,
00000100
00000000
00001000
00000000
00000100
00001000
00000100
00001000
00000100
00000000
00000010
00000001
00000000
00000010
00000001
00000000
,
00001000
00000000
00000010
00000000
00010000
00001000
00010000
00001000
00010000
00000000
00001000
00100000
00000000
00010000
00100000
00000000
,
01000000
00000000
10000000
00000000
00010000
10000000
00010000
10000000
00100000
00000000
01000000
00010000
00000000
01000000
00010000
00000000
,
00100000
00000000
00001000
00000000
00010000
00001000
00010000
00001000
00100000
00000000
00001000
00010000
00000000
00000100
00010000
00000000
,
00001000
00000000
00000010
00000000
00000001
00000010
00000001
00000010
00000100
00000000
00001000
00000100
00000000
00001000
00000100
00000000
,
00010000
00000000
00001000
00000000
01000000
00010000
01000000
00010000
10000000
00000000
00100000
01000000
00000000
00010000
10000000
00000000
,
00100000
00000000
00000000
00100000
00000000
00000000
00100000
01000000
00100000
00000000
10000000
00000000
00010000
00000000
01000000
00000000
,
00100000
00000000
00100000
00010000
00001000
00000000
00010000
00001000
,
00000010
00000000
00000100
00000010
00000001
00001000
00000100
00000010
,
00000001
00000000
00000001
00000100
00001000
00000000
00010000
00100000
,
10000000
00000000
00000000
00000000
00100000
00000000
01000000
00000000
00010000
00000000
01000000
00010000
00000000
00000000
00010000
00000000
,
01000000
00100000
00010000
00001000
00010000
00100000
00010000
00001000
,
00000100
00000000
00000010
00000000
00000100
00000000
00001000
00000000
00010000
00000000
00001000
00010000
00000000
00000000
00010000
00000000
,
00001000
00000010
00000001
00000010
00001000
00010000
01000000
00010000
,
00011000
00000000
00000000
00000000
00011000
00000000
00000000
00010000
00001000
00000000
00010000
00001000
00100000
00000000
00010000
00000000
,
02000000
00000000
00000000
00010000
00000000
00010000
00000000
03010000
,
20000000
00100000
00020000
30030000
,
10010000
00000000
00010000
00100000
00001000
00010000
00001000
00000000
,
00000010
00000000
00000000
00000010
00000000
00000000
00000001
00000000
00000100
00000000
00000000
00000100
00000000
00000001
00000100
00000000
,
00000010
00000000
00001000
00000000
00000100
00000000
00010000
00000100
00000000
00000100
00000000
00010000
00001000
00000000
00100000
00000000
,
00010000
00000000
01000000
00000000
00010000
00000000
10000000
00100000
00000000
00100000
00000000
01000000
00100000
00000000
10000000
00000000
,
00020000
00000000
00000000
00000000
01030000
00000000
00010000
01000000
00000000
01000000
00000000
00001000
00010000
00000000
00001000
00000000
,
00100000
00011000
00000010
00011000
,
00010000
00000000
00001000
00010000
00100000
00000000
00010000
00001000
00000010
00000000
00001000
00010000
00100000
00000000
00010000
00000000
,
00001000
00010000
00000100
00001000
00000100
00000000
00010000
00001000
01000000
00010000
02000000
00000000
00000000
00000000
03100000
00000000
,
01000000
00000000
01100000
00000000
20020000
00000000
30030000
10000000
,
01000000
00000000
00000000
00010000
00000000
00000000
00001000
00000000
00022000
00000000
00000000
00000000
00033000
00000000
00010000
00001000
,
00010000
00000100
00001000
00000100
00010000
00001000
00000010
00000100
,
00000010
00000000
00000000
00000001
00000000
00000000
00000100
00000000
00000220
00000000
00000000
00000000
00000330
00000000
00000010
00000000
,
00000100
00000000
00000110
00000000
00002002
00000000
00003003
00000001
,
00000010
00000000
00000000
00001000
00000000
00000000
00010000
00000000
00022000
00000000
00000000
00000000
00033000
00000000
00001000
00010000
,
00000100
00000000
00001000
00000000
00000100
00000000
00010000
00001000
01000000
00000000
00010000
00000000
01000000
00000000
00100000
00000000
,
10000000
00000000
00000000
01000000
00000000
00000000
00010000
00000000
01000000
10000000
01000000
10000000
01000000
00000000
00100000
00000000
,
01100000
00000000
00000000
00000000
00011000
00000000
00000000
00000000
00000220
00000000
00000000
00000000
00000330
00000000
00000001
00001000
,
00000001
00000000
00000100
00000001
00000000
00000100
00000010
00000000
00002000
00000000
00000000
00000000
00003010
00000000
00001000
00000100
,
00010000
00000000
00001000
00010000
00001000
00000000
00100000
00010000
00100000
00000000
00001000
00010000
00001000
00000000
00010000
00000000
,
00000100
00000000
00001000
00000100
00000000
00000010
00000001
00000000
00001000
00000010
00001000
00000010
00001000
00000000
00000010
00000000
,
00000110
00000000
00000000
00000000
00011000
00000000
00000000
00000000
02200000
00000000
00000000
00000000
03300000
00000000
10000000
00010000
,
10000000
00000000
01000000
10000000
00000000
01000000
00100000
00000000
00020000
00000000
00000000
00000000
00130000
00000000
00010000
01000000
,
00001000
00000000
00010000
00001000
00010000
00000000
00000010
00001000
00000010
00000000
00010000
00001000
00010000
00000000
00001000
00000000
,
01000000
00000000
00010000
10000000
00000000
00100000
01000000
00000000
00010000
10000000
00010000
10000000
01000000
00100000
01000000
00000000
,
00100000
00000000
00001000
00000000
00010000
00001000
00010000
00001000
00010000
00000000
00000100
00001000
00000000
00000100
00001000
00000000
,
00000001
00000000
00000100
00000000
00000010
00001000
00000010
00001000
00000001
00000000
00000010
00000100
00000000
00001000
00000100
00000000
,
00010000
00000000
00001000
00000000
00100000
00010000
00100000
00010000
10000000
00000000
00100000
10000000
00000000
00100000
10000000
00000000
,
00010000
00000000
01000000
00000000
00001000
00010000
00001000
00010000
00000100
00000000
00001000
00000001
00000000
00000100
00000010
00000000
,
00001000
00000000
00000100
00000000
00010000
00001000
00010000
00001000
00100000
00000000
00010000
01000000
00000000
00010000
01000000
00000000
,
00100000
00000000
10000000
00000000
01000000
10000000
01000000
10000000
00010000
00000000
00100000
01000000
00000000
00100000
00001000
00000000
,
00010000
00000000
00000100
00000000
00001000
00000010
00001000
00000010
00001000
00000000
00000001
00000100
00000000
00000001
00000100
00000000
,
00001000
00000000
00010000
00000000
00000010
00001000
00000010
00001000
00000001
00000000
00000010
00000100
00000000
00001000
00000001
00000000
,
00000010
00000000
00000110
00000000
00002002
00000000
00003003
00000001
,
00000100
00000000
00000000
00001000
00000000
00000000
00010000
00000000
00022000
00000000
00000000
00000000
00033000
00000000
00001000
00010000
,
00001000
01000000
01000000
00001000
00010000
00100000
01000000
00100000
,
10000000
00000000
00000000
11000000
00000000
00000000
00010000
00000000
00220000
00000000
00000000
00000000
00330000
00000000
00100000
00000000
,
01000000
00000000
01100000
00000000
20020000
00000000
30030000
10000000
,
00100000
00000000
00000000
00010000
00000000
00000000
00001000
00000000
00022000
00000000
00000000
00000000
00033000
00000000
00010000
00001000
,
01000000
00000000
00010000
00000000
01000000
00000000
00001000
00010000
00000100
00000000
00001000
00000000
00000100
00000000
00000010
00000000
,
00000001
00000000
00000000
00001000
00000000
00000000
00000010
00000000
00000100
00000001
00000100
00000001
00001000
00000000
00000001
00000000
,
00001001
00000000
00000000
00000000
00011000
00000000
00000000
00000000
20020000
00000000
00000000
00000000
30030000
00000000
10000000
00010000
,
10000000
00000000
01000000
10000000
00000000
01000000
00100000
00000000
00020000
00000000
00000000
00000000
00130000
00000000
00010000
01000000
,
00001000
00000000
00010000
00000100
00001000
00000000
00000010
00010000
00001000
00000000
00100000
00010000
01000000
00000000
00100000
00000000
,
10000000
00000000
00010000
00100000
00000000
01000000
10000000
00000000
00010000
01000000
00010000
01000000
00010000
00000000
10000000
00000000
,
10010000
00000000
00000000
00000000
00011000
00000000
00000000
00000000
00002002
00000000
00000000
00000000
00003003
00000000
00000001
00001000
,
00000001
00000000
00000100
00000001
00000000
00000100
00000010
00000000
00002000
00000000
00000000
00000000
00003010
00000000
00001000
00000100
,
00010000
00000000
00001000
00100000
00010000
00000000
01000000
00001000
00010000
00000000
00000100
00001000
00000001
00000000
00000010
00000000
,
00000110
00000000
00000000
00001001
00000000
00000000
00001000
00000100
00010000
00001000
00010000
00001000
00200000
00000000
00000000
00000000
,
00000000
00000000
00000000
00300000
;
