#VERSION:0.83;
#TITLE:GET IT ALL;
#SUBTITLE:;
#ARTIST:BRASS TRICKS;
#TITLETRANSLIT:;
#SUBTITLETRANSLIT:;
#ARTISTTRANSLIT:;
#GENRE:HORN ENSEMBLE;
#ORIGIN:;
#CREDIT:;
#BANNER:GET IT ALL.png;
#BACKGROUND:GET IT ALL-bg.png;
#PREVIEWVID:;
#JACKET:GET IT ALL-jacket.png;
#CDIMAGE:;
#DISCIMAGE:;
#LYRICSPATH:;
#CDTITLE:;
#MUSIC:GET IT ALL.ogg;
#OFFSET:0.007000;
#SAMPLESTART:20.548376;
#SAMPLELENGTH:11.999998;
#SELECTABLE:YES;
#BPMS:0.000=140.000;
#STOPS:;
#DELAYS:;
#WARPS:;
#TIMESIGNATURES:0.000=4=4;
#TICKCOUNTS:0.000=4;
#COMBOS:0.000=1;
#SPEEDS:0.000=1.000=0.000=0;
#SCROLLS:0.000=1.000;
#FAKES:;
#LABELS:0.000=Song Start;
#BGCHANGES:0.000=GET IT ALL.mp4=1.000=0=0=0=StretchNoLoop====,
99999=-nosongbg-=1.000=0=0=0 // don't automatically add -songbackground-
;
#KEYSOUNDS:;
#ATTACKS:
;

//---------------dance-single - ----------------
#NOTEDATA:;
#CHARTNAME:;
#STEPSTYPE:dance-single;
#DESCRIPTION:;
#CHARTSTYLE:;
#DIFFICULTY:Hard;
#METER:13;
#RADARVALUES:0.641241,0.635527,0.288876,0.377761,0.733301,404.000000,378.000000,26.000000,34.000000,0.000000,0.000000,0.000000,0.000000,0.000000,0.641241,0.635527,0.288876,0.377761,0.733301,404.000000,378.000000,26.000000,34.000000,0.000000,0.000000,0.000000,0.000000,0.000000;
#CREDIT:Ben Speirs;
#NOTES:
0000
0000
0000
0000
,
0000
0000
0000
0000
,
0000
0000
0000
0000
,
0000
0000
0000
0000
,
0001
0100
2010
0000
0001
0000
0100
0000
,
3010
0000
0100
0000
0001
0000
1000
0100
1000
0000
0001
0000
0100
0000
0010
0100
,
0000
0000
0002
0000
0000
0023
0000
0000
2030
0000
0000
3020
0000
0000
0032
0000
,
0103
0000
0010
0000
0010
0000
1000
0000
0001
0000
0010
0100
0000
0010
0100
0000
,
1000
0010
0102
0000
1000
0000
0010
0000
,
0103
0000
0010
0000
1000
0000
0001
0010
0001
0000
1000
0000
0010
0000
0100
0010
,
0000
0000
2000
0000
0000
3200
0000
0000
0302
0000
0000
0203
0000
0000
2300
0000
,
3010
0000
0100
0000
0000
0100
0000
0000
0010
0000
1000
0001
0000
0001
1000
0000
,
0001
0010
0000
0000
0010
0100
0000
0000
0100
1000
0000
1000
0001
0000
0000
0000
,
1000
0000
0001
0000
1000
0100
0000
1000
0001
1000
0000
0010
0100
0000
0001
0000
,
1000
0100
0000
0000
0100
0010
0000
0000
0010
0001
0000
0001
1000
0000
0000
0000
,
0001
0000
1000
0000
0001
0010
0000
0001
0200
0000
0000
0320
0000
0000
1030
0000
,
0001
0010
0000
0000
0100
1000
0000
0000
0001
0100
0000
0100
0010
0000
0000
0000
,
1000
0000
0001
0000
1000
0100
0000
0010
0000
0010
0000
0001
1000
0000
0010
0000
,
1000
0100
0000
0000
0010
0001
0000
0000
1000
0010
0000
0010
0100
0000
0000
0000
,
0001
0000
1000
0000
0001
0010
0000
0100
2000
0000
0000
0000
3010
0100
0010
0000
,
1000
0100
0000
0000
0000
0000
0010
0001
0000
0011
0000
1001
0000
1000
0001
0000
,
0100
0000
0010
0000
1000
0010
0000
0100
0020
0000
0000
2030
0000
0000
3001
3000
,
0001
0010
0000
0000
0000
0000
0100
1000
0000
1100
0000
1001
0000
0001
1000
0000
,
0010
0000
0100
0000
0001
0100
0000
0010
0200
0000
0000
0302
0000
0000
1003
0003
,
0100
0000
0010
0000
0001
1000
0000
0001
0000
0100
0000
0100
0000
0100
0000
0000
,
1001
1000
0010
0100
0001
1000
0100
0001
,
0100
1000
0010
0100
0001
0010
1000
0020
,
0000
0000
0031
0000
1000
0000
0010
0000
0100
0010
0000
2000
0000
0000
3001
0000
,
1000
0100
1000
0100
0000
1000
0001
0000
0001
0100
0000
0101
0000
0110
0000
1010
,
0000
0000
1002
0000
0013
0100
0010
0001
,
1000
0000
0010
0000
0100
0000
1000
0000
0100
0000
0010
2000
0000
0000
3002
0000
,
0000
0013
0100
0010
0100
0000
1000
0000
0001
0100
0001
0000
1000
0010
1000
0000
,
0001
0010
1000
0010
0100
1000
0010
0100
,
0001
1000
0001
1000
0020
0000
0000
0000
0130
0000
0001
0010
0000
0100
1000
0000
,
0001
0100
0000
0010
0100
0010
0000
0000
0100
0001
0000
0001
1000
0000
0000
0000
,
0001
0000
1000
0000
0100
0010
0000
0001
1000
0001
0000
0100
0010
0000
0000
0000
,
1000
0010
0000
0100
0010
0100
0000
0000
0010
1000
0000
1000
0001
0000
0000
0000
,
1000
0000
0001
0000
0010
0100
0000
1000
0020
0000
0000
0230
0000
0000
0301
0000
,
1000
0100
0000
0000
0010
0001
0000
0000
1000
0010
0000
0010
0100
0000
0001
0000
,
0010
0000
1000
0000
0010
0100
0000
1000
0000
0001
0000
0100
0010
0000
1000
0000
,
0001
0010
0000
0000
0100
1000
0000
0000
0001
0100
0000
0100
0010
0000
1000
0000
,
0100
0000
0001
0000
0100
0010
0000
0001
2000
0000
0000
0000
3010
0000
0100
0000
,
0101
0000
0000
0102
0000
0000
1000
0000
1003
0000
0000
0000
1001
0000
0000
0000
,
1100
0000
0000
2100
0000
0000
3001
0000
0001
0000
1000
0001
0100
0000
0000
0000
,
1010
0000
0000
2010
0000
0000
0001
0000
3001
0000
0000
0000
1001
0000
0000
0000
,
0011
0000
0000
0012
0000
0000
1003
0000
1013
0000
0003
0000
0101
0000
0000
0000
,
1001
0000
0000
1000
0100
0000
0001
0000
0100
0000
0010
0100
0010
0000
0001
0000
,
1000
0000
0000
0001
0100
0000
1000
0000
0100
0000
0010
0100
0010
0000
0000
0000
,
1001
0000
0000
0001
0010
0000
1000
0000
0010
0000
0100
0010
0100
0000
1000
0000
,
0001
0000
0000
1000
0010
0000
0001
0000
0010
0100
0010
0000
1000
0000
0001
0000
,
0000
0000
1000
0000
0000
3100
0000
0000
0031
0000
0103
0010
0000
0100
0010
0100
,
0010
2002
0000
0000
,
3303
0000
0000
0000
;

//---------------dance-single - ----------------
#NOTEDATA:;
#CHARTNAME:;
#STEPSTYPE:dance-single;
#DESCRIPTION:;
#CHARTSTYLE:;
#DIFFICULTY:Medium;
#METER:9;
#RADARVALUES:0.414267,0.462202,0.266655,0.277765,0.161104,261.000000,237.000000,24.000000,25.000000,0.000000,0.000000,0.000000,0.000000,0.000000,0.414267,0.462202,0.266655,0.277765,0.161104,261.000000,237.000000,24.000000,25.000000,0.000000,0.000000,0.000000,0.000000,0.000000;
#CREDIT:Ben Speirs;
#NOTES:
0000
0000
0000
0000
,
0000
0000
0000
0000
,
0000
0000
0000
0000
,
0000
0000
0000
0000
,
1000
2010
0001
0001
,
3100
0000
0000
1000
0100
0010
0001
0000
,
1000
0000
0001
0000
0100
0100
0100
0000
,
0010
0100
0010
0000
1000
0100
0010
0001
,
1000
0012
1000
1000
,
0103
0000
0000
0001
0100
0010
1000
0000
,
0001
0000
1000
0000
0100
0010
0100
0000
,
0110
0000
0110
1001
,
0001
0100
0000
0000
0100
0000
0000
0000
0010
1000
0000
0000
1000
0000
0000
0000
,
0001
0001
1000
0000
0100
0010
0001
0000
,
1000
0100
0000
0000
0100
0000
0000
0000
0010
0001
0000
0000
0001
0000
0000
0000
,
1000
1000
0010
0000
0100
0001
1000
0000
,
0002
0203
0010
0310
,
0100
0010
1000
0000
0001
1000
0001
0000
,
2000
3200
0010
0310
,
0100
0010
0001
0000
2002
0000
3003
0000
,
0101
0000
0000
0101
0000
0000
1000
0001
,
1000
0000
0000
0000
0001
0000
0000
0000
0010
0000
0000
0010
0000
0000
0000
0000
,
1100
0000
0000
1100
0000
0000
0001
1000
,
0001
0000
0000
0000
0100
0000
0000
0000
0010
0000
0000
0010
0000
0000
0010
0000
,
0000
0000
0000
0000
0000
0000
0000
0000
0000
0100
0000
0100
0000
0100
0000
0000
,
0001
0100
0020
0000
0100
0000
1000
0000
,
0130
0001
0020
0000
0100
0000
0031
0000
,
0010
0001
0100
0000
0001
1000
0001
0000
,
1000
0000
0100
0000
0010
0000
0000
0000
0001
0000
0000
1000
0000
0001
0000
0100
,
0000
2002
0000
3003
,
0001
0100
0010
0000
1000
0010
0100
0000
,
0002
0013
0200
1300
,
0001
0100
0010
0000
1000
0100
0010
0001
,
0100
2002
0000
3003
,
1000
0100
0000
0000
1000
0100
0000
0000
0010
0001
0000
0010
0000
0000
0000
0000
,
0000
0001
1000
0000
0001
0001
0100
0000
,
0001
0100
0000
0000
0001
0100
0000
0000
0010
1000
0000
0010
0000
0000
0000
0000
,
0000
1000
0001
0000
1000
1000
0100
0000
,
2100
3001
0102
1003
,
0001
0100
0010
0000
0100
0100
0100
0000
,
1002
0103
2001
3100
,
1000
0100
0010
0001
0200
0000
0313
0000
,
1000
0000
0000
0010
0000
0000
0100
0000
0100
0000
0000
0000
1001
0000
0000
0000
,
0001
0000
0000
0010
0000
0000
0100
0000
0100
0000
0000
0000
1001
0000
0000
0000
,
1000
0000
0000
0001
0000
0000
0100
0000
0100
0000
0000
0000
1001
0000
0000
0000
,
0001
0000
0000
1000
0000
0000
0010
0000
0010
0000
0000
0000
1001
0000
0000
0000
,
1000
0000
0000
0010
1000
0000
0010
0000
0100
0000
0000
0000
0110
0000
0000
0000
,
0001
0000
0000
0010
0001
0000
0010
0000
0100
0000
0000
0000
0110
0000
0000
0000
,
1000
0000
0000
1000
3001
0000
0010
0000
0100
0000
0000
0000
1100
0000
0000
0000
,
0001
0000
0000
0001
1003
0000
0010
0000
0200
0000
0000
0000
0320
0000
0000
0000
,
0130
0000
0000
0000
0000
0000
0000
0000
0010
0000
0000
0010
0000
0000
0010
0000
,
0100
2002
0000
0000
,
3003
0000
0000
0000
;

//---------------dance-single - ----------------
#NOTEDATA:;
#CHARTNAME:;
#STEPSTYPE:dance-single;
#DESCRIPTION:;
#CHARTSTYLE:;
#DIFFICULTY:Easy;
#METER:5;
#RADARVALUES:0.214276,0.288876,0.055553,0.077774,0.000000,135.000000,130.000000,5.000000,7.000000,0.000000,0.000000,0.000000,0.000000,0.000000,0.214276,0.288876,0.055553,0.077774,0.000000,135.000000,130.000000,5.000000,7.000000,0.000000,0.000000,0.000000,0.000000,0.000000;
#CREDIT:Ben Speirs;
#NOTES:
0000
0000
0000
0000
,
0000
0000
0000
0000
,
0000
0000
0000
0000
,
0000
0000
0000
0000
,
0001
0200
0000
0000
,
0000
0300
0001
1000
,
0100
0100
0010
0000
,
0001
1000
0001
0000
,
1000
0020
0000
0000
,
0000
0030
1000
0001
,
0010
0010
0100
0000
,
1001
0000
0000
0000
,
1000
1000
0100
0100
,
0000
0010
0001
0000
,
0001
0001
0100
0100
,
0000
0010
1000
0000
,
0001
0001
0001
0000
,
0001
0010
0100
0000
,
1000
1000
1000
0000
,
1000
0010
0100
0000
,
0010
0000
0000
0010
0000
0000
0000
0000
,
1000
0000
0001
0000
,
0010
0000
0000
0010
0000
0000
0000
0000
,
0001
0000
1000
0000
,
0100
0000
0000
0000
,
1000
0010
0100
0000
,
0001
0010
0100
0000
,
1000
1000
0001
0001
,
0100
0010
0100
0000
,
0010
0020
0000
0030
,
1000
0001
1000
0001
,
0010
0000
0100
0000
,
1000
0010
0100
0000
,
0000
2002
0000
3003
,
0001
0001
0100
0100
,
0000
0001
0010
0000
,
0100
0100
1000
1000
,
0000
1000
0010
0000
,
1000
1000
0001
0001
,
0000
1000
0100
0000
,
0010
0010
0001
0001
,
0000
1000
0010
0000
,
0100
0000
0000
0100
0100
0000
0000
0000
,
0010
0000
0000
0010
0010
0000
0000
0000
,
1000
0000
0000
1000
1000
0000
0000
0000
,
0001
0000
1001
1001
,
0001
0010
0100
0000
,
1000
0010
0100
0000
,
0010
0000
0010
0010
0010
0000
0000
0000
,
0100
0000
0100
0100
0100
0000
0100
0000
,
0000
0000
0010
0100
,
0000
2002
0000
0000
,
3003
0000
0000
0000
;

//---------------dance-single - ----------------
#NOTEDATA:;
#CHARTNAME:;
#STEPSTYPE:dance-single;
#DESCRIPTION:;
#CHARTSTYLE:;
#DIFFICULTY:Beginner;
#METER:3;
#RADARVALUES:0.128566,0.227768,0.088885,0.000000,0.000000,81.000000,73.000000,8.000000,0.000000,0.000000,0.000000,0.000000,0.000000,0.000000,0.128566,0.227768,0.088885,0.000000,0.000000,81.000000,73.000000,8.000000,0.000000,0.000000,0.000000,0.000000,0.000000,0.000000;
#CREDIT:Ben Speirs;
#NOTES:
0000
0000
0000
0000
,
0000
0000
0000
0000
,
0000
0000
0000
0000
,
0000
0000
0000
0000
,
0000
1000
0000
0000
,
0000
0000
0100
0000
,
0100
0000
0000
0000
,
0010
0000
0010
0000
,
0000
0001
0000
0000
,
0000
0000
1000
0000
,
1000
0000
0000
0000
,
0010
0000
0000
0000
,
1000
0000
1000
1000
,
0000
0000
0100
0000
,
0010
0000
0010
0010
,
0000
0000
0001
0000
,
0100
0000
0000
0000
,
0010
0000
0010
0000
,
0010
0000
0000
0000
,
1000
0000
1000
0000
,
1000
0000
0000
0000
,
0001
0000
0001
0000
,
0001
0000
0000
0000
,
0010
0000
0010
0010
,
0000
0000
0000
0000
,
1001
0000
0000
0000
,
1000
0000
0000
0000
,
0010
0000
0010
0000
,
0010
0000
0000
0000
,
0100
0000
0100
0000
,
0100
0000
0000
0000
,
0001
0000
0001
0000
,
0001
0000
0000
0000
,
0010
0010
0000
0000
,
0001
0000
0001
0001
,
0000
0000
0100
0000
,
0010
0000
0010
0010
,
0000
0000
1000
0000
,
1000
0000
0000
0000
,
0100
0000
0100
0000
,
0100
0000
0000
0000
,
0010
0000
0010
0000
,
0010
0000
0000
1001
,
0000
0000
0000
0110
,
0000
0000
0000
1001
,
0000
0000
1000
1000
,
1000
0000
0000
1001
,
0001
0000
0000
1001
,
1000
0000
0000
1001
,
0001
0000
0100
0100
,
0000
0000
0000
0000
,
0000
1001
0000
0000
;

//---------------dance-double - ----------------
#NOTEDATA:;
#CHARTNAME:;
#STEPSTYPE:dance-double;
#DESCRIPTION:;
#CHARTSTYLE:;
#DIFFICULTY:Hard;
#METER:13;
#RADARVALUES:0.585688,0.606640,0.299987,0.455535,0.655526,369.000000,342.000000,27.000000,41.000000,0.000000,0.000000,0.000000,0.000000,0.000000,0.585688,0.606640,0.299987,0.455535,0.655526,369.000000,342.000000,27.000000,41.000000,0.000000,0.000000,0.000000,0.000000,0.000000;
#CREDIT:Ben Speirs;
#NOTES:
// measure 0
00000000
00000000
00000000
00000000
,  // measure 1
00000000
00000000
00000000
00000000
,  // measure 2
00000000
00000000
00000000
00000000
,  // measure 3
00000000
00000000
00000000
00000000
,  // measure 4
00010000
00001000
00201000
00000000
00010000
00000000
01000000
00000000
,  // measure 5
00301000
00000000
00010000
00000000
00000010
00000000
00001000
00000100
00001000
00000000
00000001
00000000
00000100
00000000
00000010
00000100
,  // measure 6
00000000
00000000
00000002
00000000
00000000
00000023
00000000
00000000
00002030
00000000
00000000
00023000
00000000
00000000
00030020
00000000
,  // measure 7
00000000
00000000
00000130
00000000
00000100
00000000
00000001
00000000
00000010
00000000
00000100
00010000
00000000
00001000
00010000
00000000
,  // measure 8
00001000
00010020
00001000
00000100
,  // measure 9
00010330
00000000
00001000
00000000
00100000
00000000
00010000
01000000
00010000
00000000
10000000
00000000
01000000
00000000
00100000
01000000
,  // measure 10
00000000
00000000
20000000
00000000
00000000
30200000
00000000
00000000
03320000
00000000
00000000
00032000
00000000
00000000
00203000
00000000
,  // measure 11
00301000
00300000
00000000
00000000
00000000
00000000
00000000
00000000
00100000
00000000
00001000
00010000
00000000
00001000
00010000
00000000
,  // measure 12
00000010
00001000
00000000
00000000
00001000
00000100
00000000
00000000
00000010
00000001
00000000
00000001
00001000
00000000
00000000
00000000
,  // measure 13
00000001
00000000
00000100
00000000
00000010
00001000
00000000
00000000
00000100
00010000
00000000
00010000
00001000
00000000
00000000
00000000
,  // measure 14
01000000
00010000
00000000
00000000
00010000
00100000
00000000
00000000
01000000
10000000
00000000
10000000
00010000
00000000
00000000
00000000
,  // measure 15
10000000
00000000
00100000
00000000
01000000
00010000
00000000
00010000
00200000
00000000
00000000
00302000
00000000
00030000
00013000
00000000
,  // measure 16
00000010
00000100
00000000
00000000
00000010
00000100
00000000
00000000
00000001
00000010
00000000
00000100
00001000
00000000
00000000
00000000
,  // measure 17
00000010
00000000
00010000
00000000
00000100
00010000
00000000
00001000
00000000
01000000
00000000
00100000
00000000
00000000
00000000
00000000
,  // measure 18
01000000
00100000
00000000
00000000
01000000
00100000
00000000
00000000
10000000
01000000
00000000
00100000
00010000
00000000
00000000
00000000
,  // measure 19
10000000
00000000
00010000
00000000
01000000
00100000
00000000
00100000
00010000
00000000
00000000
00000000
00011000
00000000
00000000
00000000
,  // measure 20
00001000
00100000
00000000
00000000
00000000
00000000
00001000
01000000
00000000
00011000
00000000
00011000
00000000
00010000
00000100
00000000
,  // measure 21
00001000
00000000
00000010
00000000
00000100
00000020
00000000
00000000
00001030
00000000
00000000
00001010
00000000
00000000
00013010
00000000
,  // measure 22
00010000
00000100
00000000
00000000
00000000
00000000
00010000
00000010
00000000
00011000
00000000
00011000
00000000
00001000
00100000
00000000
,  // measure 23
00010000
00000000
01000000
00000000
00100000
02000000
00000000
00000000
03010000
00000000
00000000
01010000
00000000
00000000
01032000
00000000
,  // measure 24
00000000
00000000
00013000
00000000
00010000
00001000
00000000
00000100
00000000
00000010
00000000
00000010
00000000
00030010
00000000
00000000
,  // measure 25
00001001
00000001
00000010
00000100
00000001
00000100
00001000
00000010
,  // measure 26
00000100
00001000
00020000
00000000
00100000
00000000
00031000
00200000
,  // measure 27
00000000
00000000
01300000
00000000
00010000
00000000
01000000
00000000
10000000
00010000
00000000
20000000
00000000
00000000
30100000
00000000
,  // measure 28
01000000
00100000
01000000
00100000
00000000
00000000
10000000
00000000
00010000
00100000
00000000
00001000
00000000
01000000
00000000
00100000
,  // measure 29
00000000
00000000
10020000
00000000
00100000
00000000
00031000
00000100
,  // measure 30
00000001
00000000
00000100
00000000
00001000
00000000
00000010
00000000
00000200
00000000
00000000
00002300
00000000
00000000
00023000
00000000
,  // measure 31
00000000
00000000
00031000
01000000
00001000
00000000
00010000
00000000
00000100
00000000
00000010
00000000
00000001
00000000
00000100
00000000
,  // measure 32
00000010
00000000
00000100
00000000
00000100
00000000
00000001
00000000
00000020
00000000
00000000
00000230
00000000
00000000
00010300
00000000
,  // measure 33
00001000
00010000
00001000
00000000
00022000
00000000
00000000
00000000
00000000
00000000
00000000
00000000
00033000
00000000
00000000
00000000
,  // measure 34
00100000
00001000
00000000
00000000
00010000
00000100
00000000
00000000
00010000
00001000
00000000
00001000
00010000
00000000
00000000
00000000
,  // measure 35
00001000
00000000
01000000
00000000
00100000
10000000
00000000
00010000
00100000
00010000
00000000
01000000
00001000
00000000
00000000
00000000
,  // measure 36
01000000
00001000
00000000
00000000
00010000
00000010
00000000
00000000
00010000
00001000
00000000
00001000
00010000
00000000
00000000
00000000
,  // measure 37
00001000
00000000
00000100
00000000
00000010
00001000
00000000
00001000
00000002
00000000
00000000
00000023
00000000
00000000
00000130
00000000
,  // measure 38
00001000
00000001
00000000
00000000
00010000
00001000
00000000
00000000
00001000
01000000
00000000
01000000
00100000
00000000
00000000
00000000
,  // measure 39
10000000
00000000
00010000
00000000
00100000
01000000
00000000
00100000
00000000
00100000
00000000
00010000
01000000
00000000
00000000
00000000
,  // measure 40
00010000
10000000
00000000
00000000
00001000
00010000
00000000
00000000
00010000
00000100
00000000
00000100
00000010
00000000
00000000
00000000
,  // measure 41
00000001
00000000
00001000
00000000
00000010
00000100
00000000
00000100
00002000
00000000
00000000
00000000
00013000
00000000
00000000
00000000
,  // measure 42
00102000
00000000
00000000
02003000
00000000
00000000
00001000
00000000
03001000
00000000
00000000
00000000
00011000
00000000
00000000
00000000
,  // measure 43
00020010
00000000
00000000
00030200
00000000
00000000
00010000
00000000
00010300
00000000
00001000
00010000
00001000
00000000
00000000
00000000
,  // measure 44
01001000
00000000
00000000
02001000
00000000
00000000
00010000
00000000
03010000
00000000
00000000
00000000
00011000
00000000
00000000
00000000
,  // measure 45
00010100
00000000
00000000
00010200
00000000
00000000
00001000
00000000
00001300
00000000
00000000
00000000
00011000
00000000
00000000
00000000
,  // measure 46
01001000
00000000
00000000
00001000
01000000
00000000
10000000
00000000
01000000
00000000
00100000
01000000
00100000
00000000
10000000
00000000
,  // measure 47
01000000
00000000
00000000
01000000
00100000
00000000
00001000
00000000
00010000
00000000
00000000
00000000
00011000
00000000
00000000
00000000
,  // measure 48
00010010
00000000
00000000
00010000
00000010
00000000
00000001
00000000
00000010
00000000
00000100
00000010
00000100
00000000
00000001
00000000
,  // measure 49
00000010
00000000
00000000
00000010
00000100
00000000
00010000
00000000
00001000
00100000
00001000
00000000
00010000
00000000
00001000
00000000
,  // measure 50
00000000
00000000
00020000
00000000
00000000
00230000
00000000
00000000
10300000
00000000
00010000
00100000
00000000
01000000
00100000
01000000
,  // measure 51
00100000
20020000
00000000
00000000
,  // measure 52
30030000
00000000
00000000
00000000
;

//---------------dance-double - ----------------
#NOTEDATA:;
#CHARTNAME:;
#STEPSTYPE:dance-double;
#DESCRIPTION:;
#CHARTSTYLE:;
#DIFFICULTY:Medium;
#METER:9;
#RADARVALUES:0.415855,0.433314,0.244434,0.488867,0.261100,262.000000,240.000000,22.000000,44.000000,0.000000,0.000000,0.000000,0.000000,0.000000,0.415855,0.433314,0.244434,0.488867,0.261100,262.000000,240.000000,22.000000,44.000000,0.000000,0.000000,0.000000,0.000000,0.000000;
#CREDIT:Ben Speirs;
#NOTES:
00000000
00000000
00000000
00000000
,
00000000
00000000
00000000
00000000
,
00000000
00000000
00000000
00000000
,
00000000
00000000
00000000
00000000
,
00001000
00020100
00000100
00001000
,
00031000
00000000
00010000
00001000
01000000
00000000
01010000
00000000
,
10000000
00000000
10000000
00000000
01000000
00100000
01000000
00000000
,
00100000
00010000
01000000
00000000
00002000
00000000
00013000
00000000
,
00010000
00102000
00100000
00010000
,
00013000
00000000
00001000
00010000
00000010
00000000
00001010
00000000
,
00000001
00000000
00000001
00000000
00000010
00000100
00000010
00000000
,
00000110
00000000
00002000
00003001
,
00000001
00000100
00000000
00000000
00000001
00000000
00000000
00000000
00001000
00000100
00000000
00000000
00001000
00000000
00000000
00000000
,
00000010
00010000
00001000
00000000
00200000
00000000
00310000
00000000
,
10000000
00100000
00000000
00000000
10000000
00000000
00000000
00000000
00010000
00100000
00000000
00000000
00010000
00000000
00000000
00000000
,
01000000
00001000
00010000
00000000
00000200
00000000
00000310
00000000
,
00000001
00000010
00000000
00000000
00000001
00000010
00000000
00000000
00000001
00000000
00000000
00000000
00001000
00000000
00000000
00000000
,
00000010
00001000
00000100
00000000
00010000
00001000
00100000
00000000
,
00010000
00100000
00000000
00000000
00010000
00100000
00000000
00000000
00010000
00000000
10000000
00000000
00100000
00000000
00000000
00000000
,
10000000
00010000
01000000
00000000
02020000
00000000
03030000
00000000
,
10010000
00000000
00000000
10010000
00000000
00000000
10000000
00000000
,
01000000
00100000
00002000
00000000
00023000
00000000
00030010
00000000
,
00001001
00000000
00000000
00001001
00000000
00000000
00000000
00000000
,
00001000
00000000
00000010
00000000
00020000
00000000
00000000
00000000
00032000
00000000
00000000
00203000
00003000
00000000
01300000
00000000
,
00000000
00000000
00000000
00000000
00000000
00000000
00000000
00000000
00000000
01000000
00000000
01000000
00000000
01000000
00000000
00000000
,
10000000
00200000
00000000
02300000
00000000
03010000
00100000
00002000
,
00000000
00000000
00023000
00000000
00000000
00030000
00000020
00000000
00000000
00000000
00000130
00000000
00000001
00000000
00002000
00000000
,
00000000
00003002
00000000
00000023
00000000
00000130
00010000
00002000
,
00000000
00000000
00203000
00000000
00000000
00000000
00310000
00000000
01000000
00000000
00000000
00100000
00000000
00100000
00000000
00100000
,
00000000
10000000
01000000
20000000
00000000
30010000
01000000
00002000
,
00000000
00013000
00000100
00020000
00000000
00030100
00001000
00000020
,
00000000
00000130
00000001
00000200
00000000
00000310
00001000
00000200
,
00000000
00010300
00001000
00010000
00002000
00000000
00103000
00000000
,
00010000
00202000
00000000
00303000
,
00001000
00010000
00000000
00000000
00001000
00010000
00000000
00000000
00001000
00100000
00000000
00001000
00000000
00000000
00000000
00000000
,
00000000
00000000
00200000
00000000
00000000
00320000
00000000
00000000
02030000
00000000
00000000
03002000
00000000
00000000
00003000
00000000
,
00010000
00001000
00000000
00000000
00010000
00001000
00000000
00000000
00010000
00000010
00000000
00010000
00000000
00000000
00000000
00000000
,
00000000
00000000
00000020
00000000
00000000
00002030
00000000
00000000
00003200
00000000
00000000
00020300
00000000
00000000
00030000
00000000
,
00001000
01000000
00000000
00000000
00001000
01000000
00000000
00000000
00010000
10000000
00000000
00010000
00000000
00000000
00000000
00000000
,
10000000
01000000
00100000
00000000
00010000
01000000
00001000
00000000
,
00010000
00000100
00000000
00000000
00010000
00000100
00000000
00000000
00001000
00000001
00000000
00001000
00000000
00000000
00000000
00000000
,
00000001
00000100
00000010
00000000
00002002
00000000
00003003
00000000
,
00001000
00000000
00000000
00000100
00000000
00000000
00010000
00000000
00010000
00000000
00000000
00000000
00010100
00000000
00000000
00000000
,
00010000
00000000
00000000
00001000
00000000
00000000
01000000
00000000
01000000
00000000
00000000
00000000
01010000
00000000
00000000
00000000
,
00010000
00000000
00000000
10000000
00000000
00000000
00100000
00000000
00100000
00000000
00000000
00100000
10000000
00000000
00000000
00000000
,
10000000
00000000
00000000
00010000
00000000
00000000
00100000
00000000
00110000
00000000
00000000
00000000
00110000
00000000
00000000
00000000
,
00001000
00000000
00000000
00001000
00010000
00000000
00000000
00000000
00001000
00000000
00000000
00000000
00010100
00000000
00000000
00000000
,
00010000
00000000
00000000
00010000
00001000
00000000
00000000
00000000
00010000
00000000
00000000
00000000
01001000
00000000
00000000
00000000
,
00001000
00000000
00000000
00001000
00010000
00000000
00000000
00000000
00001000
00000000
00000000
00000000
00010010
00000000
00000000
00000000
,
00010000
00000000
00000000
00010000
00001000
00000000
00000000
00000000
00101000
00000000
00000000
00000000
00010010
00000000
00000000
00000000
,
00000000
00000000
00010000
00000000
00000000
00010000
00000000
00000000
00001000
00000000
00000000
00001000
00000000
00000000
00010000
00000000
,
00000000
00022000
00000000
00000000
,
00033000
00000000
00000000
00000000
;

//---------------dance-double - ----------------
#NOTEDATA:;
#CHARTNAME:;
#STEPSTYPE:dance-double;
#DESCRIPTION:;
#CHARTSTYLE:;
#DIFFICULTY:Easy;
#METER:6;
#RADARVALUES:0.226974,0.288876,0.066664,0.188881,0.000000,143.000000,137.000000,6.000000,17.000000,0.000000,0.000000,0.000000,0.000000,0.000000,0.226974,0.288876,0.066664,0.188881,0.000000,143.000000,137.000000,6.000000,17.000000,0.000000,0.000000,0.000000,0.000000,0.000000;
#CREDIT:Ben Speirs;
#NOTES:
00000000
00000000
00000000
00000000
,
00000000
00000000
00000000
00000000
,
00000000
00000000
00000000
00000000
,
00000000
00000000
00000000
00000000
,
00010000
00002000
00000000
00000000
,
00000000
00003000
00100000
00010000
,
10000000
00000000
00010000
00000000
,
01000000
01000000
00001000
00000000
,
00010000
00000200
00000000
00000000
,
00000000
00000300
00001000
00001000
,
00000001
00000000
00001000
00000010
,
00000100
00000000
00000000
00000000
,
00000001
00000100
00001000
00010000
,
00000000
00001000
00100000
00100000
,
00010000
10000000
00100000
01000000
,
00000000
00100000
00100000
00000000
,
20000000
30000000
02000000
03000000
,
00100000
00001000
00010000
00000000
,
00000020
00000030
00002000
00003000
,
00000001
00000010
00000200
00000300
,
00010000
00000000
00000000
00010000
00000000
00000000
00000000
00000000
,
00001000
00100000
00010000
01000000
,
00001000
00000000
00000000
00001000
00000000
00000000
00000000
00000000
,
00010000
00000010
00001000
00000100
,
00010000
00000000
00000000
00000000
,
00001000
00100000
00010000
10000000
,
00100000
01000000
00010000
00100000
,
00001000
00010000
00000010
00000100
,
00000001
00000010
00000200
00000300
,
00000010
00000001
00000100
00000010
,
00001000
00000100
00010000
00001000
,
00100000
00010000
01000000
00100000
,
10000000
01000000
00100000
00001000
,
00000000
00022000
00000000
00033000
,
00100000
00100000
00001000
00001000
,
00000000
00010000
00000010
00010000
,
00001000
00001000
01000000
01000000
,
00000000
00001000
00010000
00000100
,
00000020
00000030
00000020
00000030
,
00000001
00000100
00000010
00001000
,
00000200
00000300
00000200
00000300
,
00010000
00001000
02000000
03000000
,
00100000
00000000
00100000
01100000
,
10000000
00000000
10000000
10010000
,
00010000
00000000
00010000
01100000
,
00001000
00001000
00010000
00010000
,
00000010
00000100
00000001
00000000
,
00000001
00001000
00000100
00000000
,
00010000
00010000
00001000
00000000
,
00001000
00001000
00100000
01100000
,
00000000
00000000
00000000
00000000
,
00000000
00022000
00000000
00000000
,
00033000
00000000
00000000
00000000
;
