#TITLE:Funkytown;
#SUBTITLE:;
#ARTIST:Pseudo Echo;
#TITLETRANSLIT:;
#SUBTITLETRANSLIT:;
#ARTISTTRANSLIT:;
#GENRE:;
#CREDIT:azureHaights;
#BANNER:Funkytown-bn.png;
#BACKGROUND:Funkytown-bg.png;
#LYRICSPATH:Funkytown.lrc;
#CDTITLE:Funkytown-cdtitle.png;
#MUSIC:Funkytown.ogg;
#OFFSET:-0.005000;
#SAMPLESTART:71.314003;
#SAMPLELENGTH:18.766001;
#SELECTABLE:YES;
#BPMS:0.000000=127.893990
;
#STOPS:
;
#BGCHANGES:;
#KEYSOUNDS:;
#ATTACKS:;

//---------------dance-single - XO FS----------------
#NOTES:
     dance-single:
     :
     Hard:
     12:
     0.496668,0.496472,0.088017,0.146695,0.190704,474.000000,462.000000,12.000000,20.000000,4.000000,0.000000,0.496668,0.496472,0.088017,0.146695,0.190704,474.000000,462.000000,12.000000,20.000000,4.000000,0.000000:
// measure 0
0000
0000
0000
0000
,  // measure 1
0000
0000
0000
0000
,  // measure 2
0000
0000
0000
0000
,  // measure 3
0000
0000
0000
0000
,  // measure 4
2002
0000
0000
3003
,  // measure 5
1000
0010
0100
0001
1000
0100
0010
1000
,  // measure 6
0010
0100
0010
0100
0000
1000
0000
0010
,  // measure 7
1000
0001
1000
0100
0010
0100
1000
0000
,  // measure 8
0001
0100
0001
0100
0000
0010
0000
0100
,  // measure 9
0001
0000
0010
0000
0001
0010
0001
0010
,  // measure 10
0000
0100
1000
0010
0100
0100
0001
1000
,  // measure 11
0100
0000
0010
0001
0000
0100
0001
0000
,  // measure 12
0001
0001
0100
0001
0000
0100
000M
0100
,  // measure 13
1000
0010
0100
1000
0000
0100
0001
0100
,  // measure 14
0000
0001
0010
0001
1000
1000
0010
1000
,  // measure 15
0001
0001
0100
0001
0010
0001
0100
0000
,  // measure 16
0010
0010
0100
0010
0000
0100
00M0
0100
,  // measure 17
1000
0010
0001
0010
0000
1000
0000
1000
,  // measure 18
0001
0010
0002
0003
1000
0100
2000
3000
,  // measure 19
0001
0100
0002
0003
1000
0010
2000
3000
,  // measure 20
0001
0001
1000
0001
0000
0100
000M
0100
,  // measure 21
1000
0010
1000
0001
0000
0100
0100
0010
,  // measure 22
0000
1000
0020
0030
0100
0001
0020
0030
,  // measure 23
0100
1000
0002
0003
0100
0000
0101
0000
,  // measure 24
0001
0001
1000
0001
0000
0010
000M
0010
,  // measure 25
1000
0001
0100
0001
0000
1000
1000
0000
,  // measure 26
0001
0100
1000
0100
0000
0001
0000
1000
,  // measure 27
0100
0001
0100
1000
1100
0000
0011
0000
,  // measure 28
0001
0010
1000
0010
0000
0001
0000
1000
,  // measure 29
0010
0001
0010
1000
0001
1000
0001
0000
,  // measure 30
0010
0001
0100
0001
0000
0001
0000
1000
,  // measure 31
0010
0000
0000
1000
0000
0000
0100
0000
1000
0000
0000
0000
0001
0000
0000
0000
,  // measure 32
0010
0001
0010
0001
0100
0001
0100
0001
,  // measure 33
1000
0010
1000
0010
0100
0010
0100
0010
,  // measure 34
1000
0000
0001
0100
1000
0000
0100
0000
,  // measure 35
0001
0000
0000
0001
0000
0000
1000
0000
0001
0000
0000
0000
1001
0000
0000
0000
,  // measure 36
1000
0000
0100
0001
0100
0000
1000
0000
,  // measure 37
0001
0100
1000
0100
0001
0101
1001
0000
,  // measure 38
1000
0000
0000
0100
0010
0000
0100
0000
1000
0000
0100
0000
0001
0000
0100
0000
,  // measure 39
1000
0000
0000
0100
0010
0000
1000
0000
0010
0000
0001
0000
0010
0000
0001
0000
,  // measure 40
0001
0000
0000
0100
0010
0000
0100
0000
0001
0000
0100
0000
1000
0000
0100
0000
,  // measure 41
0001
0000
0000
0100
0010
0000
0001
0000
0010
0000
1000
0000
0001
0000
0001
0000
,  // measure 42
0100
0000
0000
0001
0010
0000
0001
0000
0100
0000
0010
0000
1000
0000
0010
0000
,  // measure 43
1000
0000
0000
0100
1000
0000
0010
0000
0001
0000
0010
0000
0010
0000
1000
0000
,  // measure 44
1000
0000
0000
0001
0010
0000
0001
0000
1000
0000
0100
0000
1000
0000
0001
0000
,  // measure 45
0100
0000
0000
0010
1000
0000
0100
0000
1000
0000
0001
0000
0001
0000
0000
0000
,  // measure 46
1000
0001
0000
0100
0000
0010
0000
1000
0001
0000
0000
0000
0100
0000
0001
0000
,  // measure 47
0100
0000
0001
0000
0100
0000
0001
0000
0020
0000
0030
0002
0000
0003
0000
0000
,  // measure 48
1000
0100
0000
0010
0000
0001
0000
0100
0001
0000
0000
0000
1000
0000
0100
0000
,  // measure 49
0010
0000
0001
0000
1000
0000
0100
0000
0200
0000
0300
2000
0000
3000
0000
0000
,  // measure 50
0100
1000
0000
0001
0000
1000
0000
0001
0100
0000
0000
0000
0001
0000
0100
0000
,  // measure 51
0010
0000
0100
0000
0001
0000
0100
0000
0020
0000
0030
2000
0000
3000
0000
0000
,  // measure 52
0010
1000
0000
0100
0000
0100
0000
0010
0001
0010
0000
0100
0000
0100
0000
1000
,  // measure 53
0001
0100
0000
0010
0000
0010
0000
1000
0100
0000
0000
0000
0100
0000
0000
0000
,  // measure 54
0010
0000
0110
0000
0000
1001
0000
0000
0101
0000
0000
0000
1100
0000
0000
0000
,  // measure 55
1000
0000
0000
0001
0100
0000
0001
0000
0100
0000
1000
0000
0100
0000
0001
0000
,  // measure 56
0010
0000
0000
0001
1000
0000
0010
0000
1000
0000
0100
0000
0010
0000
0010
0000
,  // measure 57
0001
0000
0000
1000
0100
0000
1000
0000
0100
0000
0001
0000
0100
0000
1000
0000
,  // measure 58
0010
0000
0000
1000
0001
0000
0010
0000
0001
0000
0100
0000
0010
0000
0000
0000
,  // measure 59
0100
0000
0000
0001
0010
0000
1000
0000
0010
0000
0001
0000
1000
0000
0001
0000
,  // measure 60
1000
0000
0000
0010
1000
0000
0100
0000
0010
0000
0001
0000
0010
0000
0100
0000
,  // measure 61
1000
0000
0000
0010
1000
0000
0001
0000
0100
0000
0010
0000
0001
0000
0010
0000
,  // measure 62
1000
0000
0000
0100
1000
0000
0000
0001
0010
0000
0100
0000
0200
0000
0300
0000
,  // measure 63
1000
2000
0100
3100
1000
2000
0001
3001
,  // measure 64
1000
1000
0010
0010
0001
0010
1000
0000
,  // measure 65
0001
0002
0100
0103
0001
0002
1000
1003
,  // measure 66
0001
0001
0010
0010
1000
0010
0001
0000
,  // measure 67
0010
0000
0001
0100
0001
0000
0100
0000
0001
0000
0010
0000
0001
0000
1000
0000
,  // measure 68
0100
0000
1000
0001
1000
0000
0100
0000
0001
0000
0100
0000
1000
0000
0000
0000
,  // measure 69
0010
0000
1000
0001
0100
0000
0001
0000
1000
0000
0010
0000
0100
0000
0001
0000
,  // measure 70
1000
0000
0001
1000
0001
0000
0100
0000
1000
0000
0100
0000
0001
0000
0000
0000
,  // measure 71
1001
0000
0000
1000
0001
0000
0000
0000
0000
0000
0000
0000
0000
0000
0000
0000
;
