#TITLE:Full Moon Full Life;
#SUBTITLE:;
#ARTIST:Azumi Takahashi w/ Lotus Juice;
#TITLETRANSLIT:;
#SUBTITLETRANSLIT:;
#ARTISTTRANSLIT:;
#GENRE:;
#CREDIT:;
#MUSIC:Full Moon Full Life.ogg;
#BANNER:Full Moon Full Life.png;
#BACKGROUND:Full Moon Full Life-bg.png;
#CDTITLE:cdtitle.png;
#SAMPLESTART:50.363;
#SAMPLELENGTH:15.000;
#SELECTABLE:YES;
#OFFSET:0.000;
#BPMS:0.000=193.000;
#STOPS:;
#BGCHANGES:0.000=Full Moon Full Life.avi=1.000=1=0=0=StretchNoLoop==CrossFade==;
#FGCHANGES:;

//--------------- dance-single - KAYSTAR ----------------
#NOTES:
     dance-single:
     KAYSTAR:
     Beginner:
     3:
     0,0,0,0,0:
0000
0000
0000
0000
,
0000
0000
0000
0000
,
0000
0000
0000
0000
,
0000
0000
0000
0000
,
0000
0000
0000
0000
,
1000
0000
0000
0000
,
0000
0000
0000
0000
,
0001
0000
0000
0000
,
0000
0000
0000
0000
,
0100
0000
0000
0000
,
0100
0000
0000
0000
,
0100
0000
0000
0000
,
0000
0000
0000
0000
,
0010
0000
0000
0000
,
0010
0000
0000
0000
,
0010
0000
0000
0000
,
0000
0000
0000
0000
,
1000
0000
0000
0000
,
0000
0000
0000
0000
,
0100
0000
0000
0000
,
0000
0000
0000
0000
,
0010
0000
0000
0000
,
0000
0000
0000
0000
,
0001
0000
0000
0000
,
0000
0000
0000
0000
,
0100
0000
0000
0000
,
0000
0000
0000
0000
,
0010
0000
0000
0000
,
0000
0000
0000
0000
,
1000
0000
0000
0000
,
0000
0000
0000
0000
,
0001
0000
0000
0000
,
0000
0000
0000
0000
,
1000
0000
0000
0000
,
1000
0000
0000
0000
,
2000
0000
0000
0000
,
3000
0000
0000
0000
,
0001
0000
0000
0000
,
0001
0000
0000
0000
,
0002
0000
0000
0000
,
0003
0000
0000
0000
,
1000
0000
1000
0000
,
1000
0000
0000
0000
,
0010
0000
0000
0000
,
0100
0000
0000
0000
,
0001
0000
0001
0000
,
0001
0000
0000
0000
,
0010
0000
0000
0000
,
0100
0000
0000
0000
,
2000
0000
0000
0000
,
3000
0000
0000
0000
,
0002
0000
0000
0000
,
0003
0000
0000
0000
,
0100
0000
0100
0000
,
0010
0000
0010
0000
,
1001
0000
0000
0000
,
1001
0000
0000
0000
,
0001
0000
0001
0000
,
0001
0000
0000
0000
,
0010
0000
0000
0000
,
0100
0000
0000
0000
,
1000
0000
1000
0000
,
1000
0000
0000
0000
,
0010
0000
0000
0000
,
0100
0000
0000
0000
,
0002
0000
0000
0000
,
0003
0000
0000
0000
,
2000
0000
0000
0000
,
3000
0000
0000
0000
,
0100
0000
0100
0000
,
0010
0000
0010
0000
,
1001
0000
0000
0000
,
0110
0000
0000
0000
,
2002
0000
0000
0000
,
3003
0000
0000
0000
,
1000
0000
0000
0000
,
0000
0000
0000
0000
,
0001
0000
0000
0000
,
0000
0000
0000
0000
,
0100
0000
0100
0000
,
0200
0000
0300
0000
;

//--------------- dance-single - KAYSTAR ----------------
#NOTES:
     dance-single:
     KAYSTAR:
     Easy:
     7:
     0,0,0,0,0:
0000
0000
0000
0000
,
0000
0000
0000
0000
,
0000
0000
0000
0000
,
0000
0000
0000
0000
,
0000
0000
0000
0000
,
2000
0000
3000
0000
,
0002
0000
0003
0000
,
0020
0000
0030
0000
,
0010
0100
1000
0000
,
0001
0100
0001
0000
,
1000
0000
0001
0000
,
1000
0100
1000
0000
,
0001
0000
1000
0000
,
0001
0010
0001
0000
,
1000
0000
0001
0000
,
1000
0010
1000
0000
,
0001
0000
1000
0000
,
0200
0000
0000
0000
,
0310
0000
0001
0000
,
0200
0000
0000
0000
,
0310
0000
1000
0000
,
0100
1000
0100
0000
,
0010
0001
0010
0000
,
0100
0000
1000
0000
,
0001
0000
0100
0000
,
0020
0000
0000
0000
,
0130
0000
0001
0000
,
0020
0000
0000
0000
,
0130
0000
1000
0000
,
0010
1000
0010
0000
,
0100
0001
0100
0000
,
0010
0000
1000
0000
,
0001
0010
0100
0000
,
1000
0000
1000
0000
,
0010
0000
0010
0000
,
0100
0001
1000
0000
,
0100
1000
0100
0000
,
0010
0000
0010
0000
,
0001
0000
0001
0000
,
1000
0010
0100
0000
,
0002
0000
0000
0000
,
1003
1000
0001
0001
,
1000
0010
0100
0001
,
0020
0000
0032
0000
,
0203
0000
0310
0000
,
1000
1000
0001
0001
,
1000
0100
0010
0001
,
0200
0000
0310
1000
,
1001
0000
0001
0010
,
0100
0100
0100
0100
,
0100
0000
1000
0010
,
0100
0100
0100
0100
,
0100
0000
0001
1000
,
0100
0000
0010
0001
,
1000
0000
0010
0000
,
0220
0000
0330
0000
,
2002
0000
3003
0000
,
0001
0001
1000
1000
,
0001
0010
0100
1000
,
0020
0000
2030
0000
,
3200
0000
0310
0000
,
0001
0001
1000
1000
,
0001
0100
0010
1000
,
0200
0000
0310
0001
,
1000
0000
0001
0100
,
0010
0010
0010
0010
,
0010
0000
1000
0100
,
0010
0010
0010
0010
,
0010
0000
0001
1000
,
0010
0000
0100
0001
,
1000
0000
0100
0000
,
0220
0000
0330
0000
,
2002
0000
3003
0000
,
1000
0010
1000
0000
,
0001
0000
1000
0000
,
0100
1000
0100
0000
,
1000
0000
0001
0000
,
0100
0001
0100
0000
,
0001
0000
1000
0000
,
0001
0010
0001
0000
,
2002
0000
3003
0000
;

//--------------- dance-single - KAYSTAR ----------------
#NOTES:
     dance-single:
     KAYSTAR:
     Medium:
     11:
     0,0,0,0,0:
0000
0000
0000
0000
,
0000
0000
0000
0000
,
0000
0000
0000
0000
,
0000
0000
0000
0000
,
0000
0000
0000
0000
,
1000
0001
0020
0000
,
0031
1000
0020
0000
,
0130
0001
1000
0100
,
1100
0110
0011
1001
,
1000
0000
0010
0100
0000
0100
0010
0000
,
1000
0100
0010
0001
,
0001
0000
0100
0010
0000
0010
0100
0000
,
0001
0010
0100
1000
,
1000
0000
0001
1000
0000
1000
0001
0000
,
0100
1000
0100
0001
,
0001
0000
1000
0001
0000
0001
1000
0000
,
0100
0001
0100
1000
,
0020
0000
0130
0000
,
0001
0000
1000
0000
0100
0000
0000
0010
,
0000
0001
0000
0100
0000
0000
1000
0000
,
0100
0000
0010
0000
1000
0001
1000
0000
,
0200
0000
0310
0000
0001
1000
0001
0000
,
0200
0310
1000
0100
,
1100
0000
0000
0110
0000
0000
0011
0000
,
0010
1000
0010
0001
,
0200
0000
0310
0000
,
1000
0000
0001
0000
0100
0000
0000
0010
,
0000
1000
0000
0100
0000
0000
0001
0000
,
0100
0000
0010
0000
0001
1000
0001
0000
,
0200
0310
1000
0001
,
0010
0100
0010
0000
0100
0000
1000
0000
,
0002
0000
0000
0103
0000
0000
0101
0000
,
0110
1010
1001
0000
,
2000
0000
0100
0000
,
3002
0000
0100
0000
,
1003
0100
0001
0000
,
0100
1000
0010
0000
,
0200
0000
0001
0000
,
0320
0000
1000
0000
,
0130
0000
0001
1000
0001
1000
0100
0000
,
0220
0000
0330
0000
,
1000
0100
1000
0000
0001
0010
0001
0000
,
1000
0010
1000
0010
0000
0100
0001
1000
,
0200
0010
0320
0001
,
0032
1000
1003
1010
,
0001
0100
0001
0000
1000
0010
1000
0000
,
0001
0010
0001
0010
0000
0100
1000
0001
,
0200
0010
0320
1000
,
2030
0001
3001
0011
,
1000
0100
1000
0100
1000
0100
1000
0100
,
0010
0000
0001
0000
1000
0010
0100
0000
,
0001
0010
0001
0010
0001
0010
0001
0010
,
0100
0000
1000
0000
0010
0100
0001
0000
,
1000
0100
1000
0000
0010
0000
0100
0000
,
0001
0010
0001
0000
1000
0000
0100
0002
,
0000
0103
0010
0000
0001
0000
0100
2000
,
0000
3100
0010
1000
0002
0000
0000
0000
,
1003
0010
1000
0000
0001
0100
0001
0000
,
1000
0100
1000
0100
0000
0010
0001
1000
,
0020
0100
0230
0001
,
0302
1000
1003
1100
,
0001
0010
0001
0000
1000
0100
1000
0000
,
0001
0100
0010
0001
0000
0010
0100
0001
,
2000
0100
3200
0010
,
0320
0001
0031
0101
,
1000
0010
1000
0010
1000
0010
1000
0010
,
0100
0000
0001
0000
1000
0100
0010
0000
,
0001
0100
0001
0100
0001
0100
0001
0100
,
0010
0000
1000
0000
0100
0010
0001
0000
,
1000
0010
1000
0000
0100
0000
0010
0000
,
0001
0100
0001
0000
1000
0000
0100
0000
,
0002
0000
0103
0010
0001
0000
0100
0000
,
2000
0000
3100
0010
1000
0000
0001
0010
,
0200
0000
0000
0000
,
0000
0000
0300
0000
,
1000
0000
0100
0010
0000
0010
0100
0000
,
1000
0010
0100
0001
,
0001
0000
0010
0100
0000
0100
0010
0000
,
0001
0100
0010
1000
,
1000
0000
0100
0010
0000
0010
0001
0000
,
0000
1001
0000
0000
0000
0000
0000
0000
;

//--------------- dance-single - KAYSTAR ----------------
#NOTES:
     dance-single:
     KAYSTAR:
     Hard:
     14:
     0,0,0,0,0:
0000
0000
0000
0000
,
0000
0000
0000
0000
,
0000
0000
0000
0000
,
0000
0000
0000
0000
,
0000
0000
0000
0000
1000
0010
1000
0020
,
0000
0000
0130
0000
0001
0010
0001
0020
,
0000
0000
0130
0000
1000
0010
0100
0002
,
0000
0000
1003
0000
0001
0010
0100
1000
,
0000
1010
0110
0101
,
1001
0000
1000
0010
0000
0010
0100
0000
,
0001
1000
0000
0200
0000
0310
0001
0000
,
1000
0000
0001
0100
0000
0100
0010
0000
,
1000
0001
0000
0020
0000
0130
1000
0000
,
1001
0000
0001
0100
0000
0010
1000
0001
,
0020
0000
0130
0001
0000
0100
0010
0000
,
0001
0000
1000
0100
0000
0010
0001
1000
,
0020
0000
0130
1000
0000
0000
0100
0010
,
1000
0000
0000
1001
0000
0000
0001
0000
,
1000
0100
1000
0000
0010
0000
0100
0002
,
0000
0010
0000
1003
0000
0000
1001
0000
,
1000
0100
0010
0000
0002
0000
0103
0010
,
1000
0000
0100
0000
0010
0001
0010
0200
,
0000
1300
0001
0000
0100
0000
1000
0000
,
1100
0000
0000
0120
0000
0000
1030
0000
,
0001
0010
0100
0000
1000
0010
0100
0000
,
0001
0000
1000
0001
0000
0001
1000
0000
,
0001
0100
0001
0000
0010
0000
0100
2000
,
0000
0010
0000
3001
0000
0000
1001
0000
,
0001
0100
0010
0000
2000
0000
3100
0010
,
0001
0000
0100
0010
1000
0000
0020
0000
,
0130
0001
1000
0000
0100
0000
0001
0000
,
0101
0000
0000
0110
0000
0000
1100
0000
,
0110
0000
0011
0000
1001
1000
0001
1000
,
0002
0000
0100
0000
0103
0000
0001
2000
,
0000
0100
0000
3100
0010
0000
0001
0100
,
0010
0001
0010
0100
0001
0000
1000
0100
,
0010
1000
0010
0100
1000
0000
0001
1000
,
0020
0000
0100
0000
0130
0001
0020
0000
,
0100
0000
0130
1000
0010
0000
0110
0000
,
1001
0000
1000
0100
0010
0001
1000
0010
,
0200
0000
0000
0000
0301
0000
0010
0000
0100
0000
1000
0001
1000
0000
0001
0000
,
1000
0010
0100
0001
1000
0100
0010
0001
,
0100
0010
1000
0100
0001
0100
1000
0020
,
0000
0130
1000
0100
0001
0010
0100
1000
,
0001
0100
0010
1000
0100
0000
1001
0000
,
0001
0010
0100
1000
0001
0100
0010
1000
,
0100
0010
0001
0100
1000
0100
0001
0020
,
0000
0130
1000
0001
0100
0010
0110
0000
,
1001
0000
1000
0020
0000
0130
0001
0000
,
1000
0100
0001
0100
1000
0100
0001
0100
,
1000
0010
0100
0002
0000
1003
0100
0010
,
0001
0100
1000
0100
0001
0100
1000
0100
,
0001
0010
0100
2000
0000
3001
0100
0010
,
1000
1000
0100
0010
0001
0001
0100
0010
,
1000
0001
0010
0100
1000
0001
0100
0201
,
0000
1300
0001
0010
0100
0001
1000
1200
,
0000
0000
0301
0000
1000
0000
0010
0000
0100
0000
1000
0000
0001
1000
0001
1000
,
0001
0100
0010
1000
0001
0010
0100
1000
,
0010
0100
0001
0010
1000
0010
0001
0200
,
0000
0310
0001
0010
1000
0100
0010
0001
,
1000
0010
0100
0001
0010
0000
1001
0000
,
1000
0100
0010
0001
1000
0010
0100
0001
,
0010
0100
1000
0010
0001
1000
0100
0020
,
0000
1030
0001
0010
0100
1000
0001
0000
,
0100
0010
0100
0001
1000
0100
0001
0000
,
0201
0000
0310
0001
1000
0001
0100
0000
,
1200
0000
0310
1000
0001
1000
0100
0000
,
0020
0000
1030
0010
0001
0100
0020
0000
,
0031
0010
1000
0100
0010
0001
1000
0000
,
0010
0100
0001
1000
0100
0010
1000
0001
,
0100
0010
0001
1000
0010
0100
0001
0000
,
0021
0000
0130
1000
1020
0000
0130
1000
,
0001
0000
0010
0000
1000
0000
0100
0000
0010
0000
0001
0000
1000
0001
1000
0002
,
2000
0000
0000
0000
,
0000
0000
3003
0000
,
1001
0000
0001
0010
0000
0010
0100
0000
,
1000
0000
0020
0000
0031
0010
0100
0000
,
0001
0000
1000
0010
0000
0010
0100
0000
,
0001
0000
0020
0000
1030
0010
0100
0000
,
1000
0000
0001
0100
0000
1000
0100
0000
,
0000
1001
0000
0000
0000
0000
0000
0000
;

//--------------- dance-double - KAYSTAR ----------------
#NOTES:
     dance-double:
     KAYSTAR:
     Easy:
     7:
     0,0,0,0,0:
00000000
00000000
00000000
00000000
,
00000000
00000000
00000000
00000000
,
00000000
00000000
00000000
00000000
,
00000000
00000000
00000000
00000000
,
00000000
00000000
00000000
00000000
,
20000000
00000000
30000000
00000000
,
00020000
00000000
00030000
00000000
,
00200000
00000000
00300000
00000000
,
00001000
00010000
00001000
00010000
,
00000010
00000000
00001000
00000000
,
00000001
00001000
00000001
00000000
,
00001000
00000000
00000100
00000000
,
00010000
00001000
00010000
00000000
,
00001000
00000000
00100000
00000000
,
00010000
10000000
00010000
00000000
,
01000000
00000000
00001000
00000000
,
00010000
00001000
00010000
00000000
,
00002000
00000000
00000000
00000000
,
00013000
00000010
00001000
00000000
,
00000001
00000000
00000001
00000000
,
00001000
00000100
00000010
00000000
,
00000002
00000000
00000103
00000000
,
00002000
00000000
00003100
00000000
,
00000001
00000010
00000100
00000000
,
00010000
00000000
00001000
00000000
,
00020000
00000000
00000000
00000000
,
00031000
00100000
00010000
00000000
,
10000000
00000000
10000000
00000000
,
00010000
01000000
00100000
00000000
,
20000000
00000000
31000000
00000000
,
00020000
00000000
01030000
00000000
,
10000000
00100000
01000000
00000000
,
00001000
00010000
00001000
00010000
,
00000020
00000000
00001030
00000000
,
00000002
00000000
00000013
00000000
,
00000100
00010000
00001000
00000000
,
00010000
00001000
00100000
00000000
,
02000000
00000000
13000000
00000000
,
00020000
00000000
01030000
00000000
,
00001000
00010000
00100000
00000000
,
20020000
00000000
30030000
00000000
,
10000000
10000000
00010000
00010000
,
10000000
00100000
01000000
00010000
,
00200000
00000000
00302000
00000000
,
00023000
00000000
00030200
00000000
,
00001300
00001000
00000001
00000001
,
00001000
00000010
00000100
00000001
,
00002000
00000000
00003200
00000000
,
00020300
00000000
00031000
00000000
,
00010000
00100000
00010000
00100000
,
00010000
00000000
00011000
00000000
,
00001000
00000010
00001000
00000010
,
00001000
00000000
00011000
00000000
,
01000000
00000000
00100000
00000000
,
10000000
00000000
00010000
00100000
,
00002000
00000000
00013000
00000100
,
00002000
00000000
00003001
00000000
,
00000001
00000001
00001000
00001000
,
00000001
00000010
00000100
00001000
,
00000020
00000000
00020030
00000000
,
00032000
00000000
02003000
00000000
,
03010000
00010000
10000000
10000000
,
00010000
00100000
01000000
10000000
,
00020000
00000000
02030000
00000000
,
03002000
00000000
00013000
00000000
,
00010000
01000000
00010000
01000000
,
00010000
00000000
00011000
00000000
,
00001000
00000100
00001000
00000100
,
00001000
00000000
00011000
00000000
,
00010000
00000000
00000010
00001000
,
00000001
00000000
00000010
00000000
,
00000220
00000000
00000330
00000000
,
00002002
00000000
00003003
00000000
,
00000001
00000000
00001000
00000000
,
00000010
00001000
00000010
00000000
,
00010000
00000000
00001000
00000000
,
00010000
00001000
00010000
00000000
,
00001000
00000000
00100000
00000000
,
00010000
00100000
00010000
00000000
,
10000000
00000000
00010000
00000000
,
20020000
00000000
30030000
00000000
;

//--------------- dance-double - KAYSTAR ----------------
#NOTES:
     dance-double:
     KAYSTAR:
     Medium:
     11:
     0,0,0,0,0:
00000000
00000000
00000000
00000000
,
00000000
00000000
00000000
00000000
,
00000000
00000000
00000000
00000000
,
00000000
00000000
00000000
00000000
,
00000000
00000000
00000000
00000000
,
10000000
00010000
00200000
00000000
,
00310000
10000000
00200000
00000000
,
01300000
00010000
00100000
00001000
,
00020000
00001000
00001000
00031000
,
00010000
00000000
00000010
00001000
00000000
00001000
00000010
00000000
,
00000100
00000001
00001000
00000100
,
00000010
00000000
00000001
00001000
00000000
00001000
00000001
00000000
,
00000100
00001000
00010000
00011000
,
00001000
00000000
00100000
00010000
00000000
00010000
00100000
00000000
,
01000000
10000000
00010000
01000000
,
00100000
00000000
10000000
00010000
00000000
00010000
10000000
00000000
,
01000000
00010000
00002000
00000000
,
00013000
00000000
00000000
00011000
00000000
00000000
00000000
00000000
,
00000100
00000000
00000010
00000000
00000001
00000000
00000000
00000200
,
00000000
00002300
00000000
00013000
00000000
00000000
00011000
00000000
,
00010000
00000010
00001000
00000000
,
00000001
00000000
00000100
00000000
00000010
00001000
00000010
00000000
,
00001000
00000000
00000100
00000000
00000010
00001000
00000010
00000000
,
00002000
00000000
00000000
00013000
00000000
00000000
00022000
00000000
,
00000000
00000000
00000000
00033000
00000000
00001000
00010000
00000000
,
00001000
00000000
00000000
00011000
00000000
00000000
00000000
00000000
,
01000000
00000000
00100000
00000000
10000000
00000000
00000000
02000000
,
00000000
03020000
00000000
00031000
00000000
00000000
00011000
00000000
,
00001000
00100000
00010000
00000000
,
10000000
00000000
01000000
00000000
00100000
00010000
00100000
00000000
,
00010000
00000000
01000000
00000000
00100000
00000000
00010000
00100000
,
00010000
00000000
00001000
00010000
00000000
00010000
00002000
00000000
,
00010000
00010000
00013000
00011000
,
00000200
00000000
00001000
00000000
,
00000001
00000000
00001300
00000000
,
00000001
00000100
00002000
00000000
,
00013000
01000000
10000000
00000000
,
00200000
00000000
10000000
00000000
,
00010000
00000000
10300000
00000000
,
00010000
00100000
01000000
00010000
,
00022000
00000000
00033000
00000000
,
00000010
00001000
00000010
00000000
00000100
00000001
00000100
00000000
,
00000001
00001000
00000100
00000010
00000001
00000000
00000100
00000000
,
00000210
00001000
00002300
00010000
,
00023000
00001000
00031000
00011000
,
00100000
00010000
00100000
00000000
01000000
10000000
01000000
00000000
,
00100000
00010000
10000000
00100000
01000000
00000000
00010000
00000000
,
20010000
01000000
30020000
01000000
,
10030000
00000000
10010000
00000000
00010000
00100000
01000000
00000000
,
00010000
00001000
00010000
00001000
00010000
00001000
00010000
00001000
,
00010000
00000000
00000010
00000000
00000100
00001000
00010000
00000000
,
00001000
00010000
00001000
00010000
00001000
00010000
00001000
00010000
,
00001000
00000000
00100000
00000000
01000000
00010000
00001000
00000000
,
00012000
00100000
00023000
00000010
,
00031000
00000000
00011000
00000000
00000100
00001000
00000100
00001000
,
00000000
00000001
00000100
00000000
00001000
00010000
00001000
00010000
,
00000000
00100000
10000000
00000000
01000000
00100000
00010000
00000000
,
01000000
00010000
01000000
00000000
00100000
10000000
00100000
00000000
,
10000000
00010000
00100000
01000000
10000000
00000000
00100000
00000000
,
01200000
00010000
00320000
00001000
,
00032000
00010000
00013000
00011000
,
00000100
00001000
00000100
00000000
00000010
00000001
00000010
00000000
,
00000001
00001000
00000010
00000100
00001000
00000000
00000100
00000000
,
00000120
00001000
00000230
00000001
,
00000310
00000000
00000110
00000000
00001000
00000100
00000010
00000000
,
00001000
00010000
00001000
00010000
00001000
00010000
00001000
00010000
,
00001000
00000000
01000000
00000000
00100000
00010000
00001000
00000000
,
00010000
00001000
00010000
00001000
00010000
00001000
00010000
00001000
,
00010000
00000000
00000100
00000000
00000010
00001000
00010000
00000000
,
00021000
00000100
00032000
01000000
,
00013000
00000000
00011000
00000000
00001000
00100000
00010000
00000000
,
01000000
00100000
10000000
00000000
00010000
00100000
00001000
00000000
,
00010000
00000100
00001000
00000000
00000010
00000100
00000001
00000000
,
00002002
00000000
00000000
00000000
,
00000000
00000000
00003003
00000000
,
00010000
00000000
00000100
00001000
00000000
00001000
00000100
00000000
,
00000010
00000001
00001000
00000010
,
00000100
00000000
00000001
00001000
00000000
00001000
00000001
00000000
,
00000010
00000100
00010000
00001000
,
00100000
00000000
01000000
10000000
00000000
10000000
01000000
00000000
,
00000000
10010000
00000000
00000000
00000000
00000000
00000000
00000000
;

//--------------- dance-double - KAYSTAR ----------------
#NOTES:
     dance-double:
     KAYSTAR:
     Hard:
     14:
     0,0,0,0,0:
00000000
00000000
00000000
00000000
,
00000000
00000000
00000000
00000000
,
00000000
00000000
00000000
00000000
,
00000000
00000000
00000000
00000000
,
00000000
00000000
00000000
00000000
10000000
00100000
10000000
00200000
,
00000000
00000000
01300000
00000000
00010000
00100000
00010000
00200000
,
00000000
00000000
01300000
00000000
00010000
00001000
00010000
00002000
,
00000000
00000000
00013000
00000000
00001000
00000010
00000100
00001000
,
00000001
00000101
00000110
00001010
,
00001001
00000000
00000001
00000010
00000000
00000010
00000100
00000000
,
00001000
00000010
00000000
00000100
00000000
00000100
00002000
00000000
,
00013000
00000000
00100000
01000000
00000000
01000000
00010000
00000000
,
10000000
01000000
00000000
01000000
00000000
00100000
00020000
00000000
,
10030000
00000000
00100000
01000000
00000000
00010000
00100000
00010000
,
00100000
00000000
01000000
00010000
00000000
00010000
00001000
00000000
,
00011000
00000000
00010000
00000010
00000000
00001000
00000100
00001000
,
00000100
00000000
00000010
00000002
00000000
00000000
00001003
00000000
,
00001001
00000000
00000001
00000100
00000000
00000000
00000110
00000000
,
00000010
00001000
00000010
00000000
00001000
00000000
00000100
00000020
,
00000000
00002030
00000000
00013000
00000000
00000000
00011000
00000000
,
00001000
00100000
00010000
00000000
01000000
00001000
00010000
00000000
,
00200000
00000000
10300000
00000000
00010000
00100000
01000000
00000000
,
00020000
00000000
00031000
00000000
00000010
00000100
00001000
00000000
,
00001100
00000000
00000000
00000011
00000000
00000000
00001001
00000000
,
00001000
00000010
00010000
00000000
00001000
01000000
00010000
00000000
,
10010000
00000000
10000000
01000000
00000000
00000000
01100000
00000000
,
00100000
00010000
00100000
00000000
01000000
00000000
10000000
00200000
,
00000000
00320000
00000000
00031000
00000000
00000000
00011000
00000000
,
00010000
00000010
00001000
00000000
00000100
00010000
00001000
00000000
,
00000020
00000000
00000031
00000000
00001000
00000010
00000100
00000000
,
00002000
00000000
00013000
00000000
00100000
01000000
00010000
00000000
,
10000000
01000000
00100000
00110000
,
01100000
00000000
11000000
00000000
10010000
00010000
10000000
00010000
,
20000000
00100000
30020000
00100000
,
20030000
32000000
03010000
00011000
,
00001000
00000010
00000000
00001000
00010000
00000000
01000000
00010000
,
00000000
00001000
00000100
00000000
00000010
00000000
00001001
00000000
,
00000002
00000100
00002003
00000100
,
00003002
00000023
00001030
00011000
,
00010000
00100000
00010000
00100000
01000000
00000000
00010000
10000000
,
02000000
00000000
00000000
00000000
03010000
00000000
00000000
00000000
00011000
00000000
00001000
00010000
00001000
00000000
00010000
00000000
,
00000100
00000010
00000001
00001000
00000010
00000100
00001000
00000100
,
00000010
00010000
00001000
00000100
00000001
00000010
00000100
00002000
,
00000000
00003010
00000100
00000001
00001000
00000100
00000010
00001000
,
00000010
00001000
00010000
01000000
00010000
01000000
00100000
00000000
,
00001000
00010000
00100000
01000000
00010000
00100000
01000000
10000000
,
00010000
01000000
00100000
10000000
00010000
00100000
01000000
00020000
,
00000000
00031000
01000000
00010000
01000000
00100000
10000000
00000000
,
10010000
00000000
00010000
00100000
00002000
00000000
00010000
00000000
,
00013000
00100000
00010000
00001000
00000100
00001000
00010000
00100000
,
00010000
00001000
00000100
00001000
00020000
00000000
00001000
00000000
,
00031000
00000010
00001000
00010000
01000000
00010000
00001000
00000010
,
00001000
00010000
01000000
00010000
00002000
00000000
00010000
00000000
,
00013000
00000010
00001000
00000010
00000100
00000001
00000010
00000100
,
00001000
00000100
00000010
00000001
00001000
00000010
00000100
00002000
,
00000000
00013000
00100000
01000000
00010000
00100000
01000000
00020000
,
00000000
00000000
00031000
00000000
00011000
00000000
00000000
00000000
00001000
00010000
00001000
00010000
00001000
00000000
00000000
00000000
,
00100000
01000000
10000000
00010000
01000000
00100000
00010000
00100000
,
01000000
00001000
00010000
00100000
10000000
01000000
00100000
00020000
,
00000000
01030000
00100000
10000000
00010000
00100000
01000000
00010000
,
01000000
00010000
00001000
00000010
00001000
00000010
00000100
00000000
,
00010000
00001000
00000100
00000010
00001000
00000100
00000010
00000001
,
00001000
00000010
00000001
00001000
00000100
00000001
00000010
00000200
,
00000000
00001300
00000010
00010000
00001000
00010000
00000100
00000000
,
00001000
00000010
00000100
00001000
00010000
00001000
00010000
00000000
,
00001000
00000010
00001000
00010000
01000000
00010000
00001000
00000010
,
00001000
00010000
01000000
00010000
00002000
00000000
00010000
00000000
,
00013000
00100000
00010000
00001000
00000100
00001000
00010000
00100000
,
00010000
00001000
00000100
00001000
00020000
00000000
00001000
00000000
,
00031000
00000010
00000100
00001000
00000001
00000100
00000010
00001000
,
00000001
00000010
00000100
00001000
00000010
00000100
00002000
00000000
,
00013000
00100000
10000000
01000000
00010000
00001000
00000010
00000001
,
00000100
00000000
00000010
00000000
00001000
00000000
00000100
00000000
00010000
00000000
00001000
00000000
00010000
00001000
00010000
00002000
,
00020000
00000000
00000000
00000000
,
00000000
00000000
00033000
00000000
,
00010000
00100000
00010000
00200000
00000000
00000000
01300000
00000000
,
00010000
10000000
01000000
00000000
00010000
00001000
00010000
00000000
,
00001000
00000010
00001000
00000020
00000000
00000000
00000130
00000000
,
00001000
00000001
00000100
00000000
00001000
00010000
00001000
00000000
,
00010000
00000000
00100000
20000000
00000000
00000000
31000000
00000000
,
00010000
00001000
00000000
00000000
00000000
00000000
00000000
00000000
;
