#VERSION:0.83;
#TITLE:Fool Me;
#SUBTITLE:;
#ARTIST:CHYL;
#TITLETRANSLIT:;
#SUBTITLETRANSLIT:;
#ARTISTTRANSLIT:;
#GENRE:;
#CREDIT:NOWHERE Dance Club;
#MUSIC:Fool Me.ogg;
#BANNER:Fool Me-bn.png;
#BACKGROUND:Fool Me-bg.png;
#CDTITLE:cdtitle.png;
#SAMPLESTART:14.460;
#SAMPLELENGTH:25.600;
#SELECTABLE:YES;
#OFFSET:-0.060;
#BPMS:0.000=150.000;
#STOPS:;
#BGCHANGES:;
#FGCHANGES:;

//--------------- dance-single - NOWHERE Dance Club ----------------
#NOTEDATA:;
#STEPSTYPE:dance-single;
#DESCRIPTION:NOWHERE Dance Club;
#DIFFICULTY:Beginner;
#METER:4;
#RADARVALUES:0,0,0,0,0;
#NOTES:
0000
0000
0000
0000
,
0000
0000
0000
0000
,
0000
0000
0000
0000
,
0000
0000
0000
0000
,
0000
0000
0000
0000
,
0001
0000
0000
0000
,
1000
0000
0000
0000
,
0001
0000
0000
0000
,
1000
0000
0000
0000
,
0001
0000
0100
0000
,
0010
0000
0100
0000
,
0010
0000
1000
0000
,
0010
0000
1000
0000
,
0010
0000
1000
0000
,
0001
0000
1000
0000
,
0001
0000
0010
0000
,
0001
0000
0010
0000
,
0001
0000
0100
0000
,
0001
0000
1000
0000
,
0100
0000
1000
0000
,
0001
0000
0100
0000
,
0001
0000
0001
0000
,
1000
0000
1000
0000
,
0001
1000
0001
1000
,
0001
0000
0000
0000
,
1001
0000
0000
0010
,
0011
0000
0000
1000
,
1010
0000
0001
1000
,
1100
0000
0101
0000
,
1001
0000
0000
0001
,
0011
0000
0000
1000
,
1010
0000
0000
1000
,
0001
0000
0100
0010
,
1000
0000
0100
0000
,
1000
0000
0001
0000
,
0100
0000
0001
0000
,
1000
0000
0100
0010
,
0001
0000
1000
0000
,
0010
0000
1000
0000
,
0010
0000
0100
0000
,
0001
0000
0000
0000
,
1001
0000
0000
0000
,
0002
0003
0000
0000
,
0200
0300
0000
0000
,
0020
0030
0000
0000
,
2000
3000
0000
0000
,
0002
0003
0000
0000
,
0020
0030
0000
0000
,
0200
0300
0000
0000
,
2000
3000
0000
0001
,
0100
0000
0000
0100
,
0010
0000
0000
0010
,
1000
0000
1000
0100
,
0010
0000
0000
0010
,
0001
0000
0000
0001
,
1000
0000
0000
1000
,
0001
0000
0000
0000
,
0001
0100
0100
0000
,
0010
1000
1000
0000
,
0100
0100
0010
0000
,
0001
0001
0100
0000
,
0001
1000
0002
0000
,
1003
0001
2000
0000
,
3010
0010
0100
0100
,
0110
0000
1001
0000
,
1000
0100
0100
1000
,
0001
0100
0010
0100
,
0001
0100
0200
0010
,
0310
0100
0010
1000
,
0001
0010
0010
0001
,
1000
0010
0100
0010
,
1000
0010
0020
0100
,
0130
0000
0110
0000
,
1001
0001
0100
0100
,
0001
1000
0100
0010
,
0100
1000
0100
0200
,
0010
0310
0100
0010
,
0011
0001
0010
0010
,
0001
1000
0010
0100
,
0010
1000
0010
0020
,
0130
0000
0010
1000
,
0001
0000
0000
0000
;

//--------------- dance-single - NOWHERE Dance Club ----------------
#NOTEDATA:;
#STEPSTYPE:dance-single;
#DESCRIPTION:NOWHERE Dance Club;
#DIFFICULTY:Easy;
#METER:8;
#RADARVALUES:0,0,0,0,0;
#NOTES:
0000
0000
0000
0000
,
0000
0000
0000
0000
,
0000
0000
0000
0000
,
0000
0000
0000
0000
,
0000
0000
0000
0000
,
0001
0000
0000
0000
,
1000
0000
0000
0000
,
0010
0000
0000
0000
,
0100
0000
0000
0000
,
0001
0000
0100
0000
,
0010
0000
1000
0000
,
0100
0000
0010
0000
,
0100
0000
0010
0100
,
0010
0000
0001
0000
,
0100
0000
0010
0000
,
0100
0000
0010
0100
,
0010
0000
1000
0000
,
0001
0001
1000
0000
,
1000
1000
0001
0000
,
0100
0100
0010
0000
,
0010
0010
0100
0000
,
0010
1000
0001
0000
,
0001
1000
0010
0000
,
0100
0000
0100
0000
,
0001
0000
1000
0000
,
1001
0000
1000
0000
,
0100
0000
0010
0000
,
0110
0000
0001
0000
,
1000
1000
0001
0001
,
1001
0000
2000
0000
,
3100
0000
0010
0000
,
0110
0000
0001
0000
,
1000
0000
0001
0000
,
2000
0000
0100
0000
,
0001
0000
3100
0000
,
0002
0000
0100
0000
,
1000
0000
0103
0000
,
1001
0000
2000
0000
,
3010
0000
1000
0000
,
0002
0000
0010
0010
,
0013
0000
0000
0000
,
0011
0000
0000
0000
,
0001
0000
0000
0000
,
0100
0000
0000
0000
,
0010
0000
0000
0000
,
1010
0000
0000
0000
,
1000
0000
0000
0000
,
0100
0000
0000
0000
,
0010
0000
0000
0000
,
0001
0000
0100
0000
,
0001
0000
1000
0100
,
0010
0000
0001
0000
,
0010
0000
0100
1000
,
0001
0000
0100
0000
,
0010
0000
1000
0010
,
0100
0000
0001
0000
,
0100
0000
0000
0000
,
1001
1000
1100
0000
,
0011
0001
1001
0000
,
0101
1000
1010
0000
,
1100
0100
0110
0000
,
0010
0010
0001
0001
,
0100
0100
0010
0010
,
1000
0001
1000
0001
,
2000
0100
0100
3100
,
1001
1000
0100
0010
,
0100
1000
0001
0100
,
0020
0130
0001
1000
,
0001
0100
0001
0000
1000
0000
1000
0000
,
1001
0001
0100
0010
,
0100
0001
1000
0100
,
0020
0130
1000
0001
,
1000
0100
0100
1000
0001
0001
1000
0000
,
1001
1000
0010
0100
,
0010
1000
0001
0010
,
0200
0310
0001
1000
,
0001
0010
0001
0000
1000
0010
1000
0000
,
1001
0001
0010
0100
,
0010
0001
1000
0010
,
0200
0310
1000
0001
,
1000
0000
0002
0000
,
1003
0000
0000
0000
;

//--------------- dance-single - NOWHERE Dance Club ----------------
#NOTEDATA:;
#STEPSTYPE:dance-single;
#DESCRIPTION:NOWHERE Dance Club;
#DIFFICULTY:Medium;
#METER:12;
#RADARVALUES:0,0,0,0,0;
#NOTES:
0000
0000
0000
0000
,
0000
0000
0000
0000
,
0000
0000
0000
0000
,
0000
0000
0000
0000
,
0000
0000
0000
0000
,
0002
0000
0000
0000
,
2003
0000
0000
0000
,
3002
0000
0000
0000
,
2003
0000
0000
0000
,
3010
0000
0100
0000
,
0010
0000
0100
0001
,
1000
0000
0100
0000
,
0010
0000
0100
1000
,
0001
0000
0100
0000
,
0010
0000
0100
0010
,
1000
0000
0001
0000
,
0010
0000
0100
0010
,
0001
0000
0001
0000
1000
0000
1000
0010
,
0100
0000
0100
0000
0010
0000
0010
1000
,
0001
0000
0001
0000
1000
0000
1000
0100
,
0010
0000
0010
0000
0001
0000
0001
1000
,
0100
1000
0001
0000
0100
0001
1000
0000
,
0100
0010
0001
0000
0100
0010
1000
0000
,
0001
1000
0001
1000
0100
0010
0100
0010
,
0001
1000
0002
0000
1000
0000
1003
0000
,
0001
0100
2000
0000
3200
0000
0301
0000
,
0200
0000
1300
0000
0100
0000
0001
1000
,
0002
0100
1003
0001
,
1000
0100
0011
1001
,
1000
0100
0002
0000
0203
0000
1300
0000
,
0100
0001
0100
1000
,
0001
0100
0001
1000
0001
0000
1000
0000
,
0200
0000
0320
0000
,
0031
0000
0100
0000
0010
1000
0010
1000
,
0001
0000
0100
0000
1000
0100
0010
1000
,
0001
0000
0010
0000
0001
0010
0100
0010
,
0001
0100
0110
1010
,
1001
0000
1000
0100
0010
0100
0010
0001
,
0011
0000
0010
0100
0010
0001
1000
0001
,
0101
1010
1001
0110
,
1001
0002
0203
0320
,
2030
0000
0000
0000
,
3020
0000
0000
0000
,
2030
0000
0000
0000
,
3200
0320
0032
2003
,
3002
0000
0000
0000
,
0023
0000
0000
0000
,
0230
0000
0000
0000
,
2300
0001
3002
0100
,
1003
0001
0100
0100
,
0000
0001
0010
0100
,
0100
0010
0001
0100
,
0000
0010
1000
0100
,
0100
0010
0002
1000
,
1003
0001
0010
0100
,
2100
0001
0100
3001
,
1000
0000
0000
0000
,
0001
0100
0100
0000
0010
0000
0100
0001
,
1000
0100
0100
0000
0010
0000
0100
1000
,
0001
0100
0100
0000
0010
0000
0100
0001
,
1000
0100
0100
0010
0001
0000
0100
0000
,
0001
0100
0010
1000
0002
0000
0203
0000
,
0301
0010
0100
1000
0002
0000
0023
0000
,
0031
0100
0010
1000
0100
0010
0001
1000
,
0010
0010
0100
0100
,
1001
0000
0001
0100
0010
0100
0010
0100
,
0001
0000
1001
0000
1000
0100
0010
0100
,
1000
0000
1100
0000
1000
0001
2000
0000
,
3001
0000
0100
0010
1000
0010
1000
0000
,
1010
0000
0010
0100
0010
0100
0010
1000
,
0100
0010
0100
0010
0001
0010
0002
0000
,
0103
0000
0010
0100
0010
1000
0010
1000
,
0200
1000
0001
1300
,
1002
0000
1003
0100
0010
0100
1000
0001
,
1000
1000
0010
0100
0010
0010
1000
0001
,
1001
0000
1000
0100
0100
0010
0100
1000
,
1100
0000
0101
0000
0001
0100
0001
1000
,
1001
0000
0001
0100
0010
0010
0100
0001
,
1000
0100
0010
0100
0010
0010
0001
1000
,
1001
0000
0001
0100
0010
0010
0100
0001
,
1001
0001
0020
0000
,
0130
0000
0000
0000
;

//--------------- dance-single - NOWHERE Dance Club ----------------
#NOTEDATA:;
#STEPSTYPE:dance-single;
#DESCRIPTION:NOWHERE Dance Club;
#DIFFICULTY:Hard;
#METER:16;
#RADARVALUES:0,0,0,0,0;
#NOTES:
0000
0000
0000
0000
,
0000
0000
0000
0000
,
0000
0000
0000
0000
,
0000
0000
0000
0000
,
0000
0000
0001
0100
,
0020
0000
0000
0000
0000
0030
0000
0000
,
0020
0000
0000
0000
0000
0030
0000
0000
,
0020
0000
0000
0000
0000
0030
0000
0000
,
0020
0000
0000
0000
0000
0030
0000
0000
,
1000
0100
0010
0001
,
0000
1000
0010
0100
,
0001
0010
0100
0010
,
0000
0001
0100
0010
,
1000
0000
0100
0010
0200
0000
0310
0000
,
0000
0100
2000
3010
,
0100
0001
1000
0020
,
1030
0000
0001
1000
0002
0000
2003
0000
,
3100
0100
0010
0001
0100
0100
0010
1000
,
0100
1000
0100
0000
1000
0000
0010
0000
0100
0000
0100
0000
0002
0000
0000
0000
,
0103
0100
0010
1000
0100
0100
0010
0001
,
0100
0001
0100
0000
0001
0000
0010
0000
0100
0000
0100
0000
2000
0000
0000
0000
,
3001
0000
0100
0000
0001
0100
0001
0000
0100
0000
0010
0000
1000
0010
1000
0000
,
0001
0000
0010
0000
0001
0010
0001
0000
0010
0000
0001
0000
1000
0001
1000
0000
,
0001
0100
0001
0000
0100
0010
0100
0000
0010
1000
0010
0000
1000
0001
1000
0001
,
1000
0100
0010
0001
,
1001
0000
0001
0010
0011
0001
1000
0010
,
1010
0000
1000
0100
0110
0010
0001
1000
,
1001
0000
0001
0100
1000
0100
0001
1000
,
2010
0000
3010
1000
0100
0010
0001
1000
,
1001
0000
0001
0100
0020
0100
1030
0000
,
1001
0000
0001
1000
0100
0010
0001
1000
,
1001
0000
1000
0100
0001
0100
1000
0001
,
2000
3020
0230
0000
,
0310
1000
0010
0100
0010
1000
0010
0100
,
0010
0000
1000
0000
0100
0000
0010
0000
0001
0000
0010
0000
0100
0010
0100
0000
,
0010
0000
0001
0010
0001
0000
0100
0000
0010
0000
0100
0000
0010
0000
1000
0000
,
0001
0000
0000
0000
0100
0000
0010
0000
1000
0000
0010
0100
0010
0000
1000
0000
,
1001
0000
0000
0000
0001
0000
0010
0000
0100
0000
0010
0000
0001
0000
0010
0100
,
0010
0001
0010
0100
0010
0001
1000
0001
,
0100
0100
0010
0010
1000
1000
0001
0001
,
0010
0000
0001
0100
1000
0000
0100
0000
,
0002
0000
0000
0000
,
2003
0000
0000
0000
,
3020
0000
0000
0000
,
2030
0000
3020
0230
,
0302
0000
0000
0000
,
2003
0000
0000
0000
,
3200
0000
0000
0000
,
0320
0001
0001
0000
0001
0000
0000
0000
,
0031
1000
0000
0001
,
0010
0001
0000
1000
,
0010
0100
0000
0001
,
0100
0001
0000
1000
,
0100
0010
0100
0010
,
0001
0010
0001
0100
,
0010
1000
0010
0000
1000
0100
0010
0000
,
0200
0000
0000
0000
,
0310
0010
0001
0100
0010
0010
0100
0001
,
0010
0000
0010
0000
0100
0000
1000
0000
0010
0000
0010
0000
0100
0000
0010
1000
,
0010
0010
1000
0100
0010
0010
0100
1000
,
0010
0000
0010
0000
0100
0000
0001
0000
0010
0000
0010
0000
0100
0010
0100
0010
,
0001
0000
0100
0000
0010
0000
1000
0000
0100
0000
0010
0000
0001
0000
0010
0100
,
1000
0000
0010
0000
0100
0000
0001
0000
0010
0000
0001
0000
0100
0000
0010
1000
,
0100
0010
0001
0000
0100
0010
1000
0000
0100
0010
0001
0000
0100
0010
1000
0010
,
1000
0010
0100
0001
,
1001
0000
0000
0000
0001
0100
0001
0000
1000
0100
1000
0000
0001
1000
0001
0000
,
0100
0010
0100
0000
0010
1000
0010
0000
1000
0001
1000
0000
0001
0000
0010
0000
,
0001
0010
0100
0000
1000
0000
0001
0010
0001
1000
0001
0000
0100
0000
0010
0000
,
1000
0001
1000
0000
0001
0000
0100
0010
1000
0010
0100
0010
1000
0000
0001
0000
,
2001
0000
0000
0000
3001
1000
0001
0000
0010
0001
0010
0000
0001
0000
0010
0000
,
0100
0010
0100
0000
0010
0000
0001
0000
0010
0100
1000
0000
0002
0000
0100
0000
,
1003
0000
0001
0000
1000
0000
0001
0010
0001
1000
0001
0000
0100
0000
0001
0000
,
1000
0000
0001
0000
0100
00M0
0100
1000
0010
0M00
0010
0000
0004
0000
0000
0000
,
1003
0000
0000
0000
0100
0010
0001
0010
0001
0000
1000
0000
0010
0100
0010
0000
,
1000
0000
0001
0000
1001
0000
0001
0100
0010
1000
0010
0000
1000
0000
0100
0000
,
2100
0000
3100
0000
1000
0010
0100
0010
1000
0001
1000
0000
0001
0000
0100
0000
,
0101
0000
0000
0000
1100
0000
0000
0000
1000
0100
0010
0001
1000
0000
0010
0000
,
0110
0000
0000
0000
0010
1000
0010
1000
0100
0010
0001
0000
0011
0000
0001
0000
,
1001
0000
0001
0000
0010
0100
1000
0100
0010
0001
0010
0000
0001
0000
1000
0000
,
1001
0000
0001
0000
0100
0010
1000
0010
0100
0010
1000
0000
0100
0000
0010
0000
,
0002
0000
1003
0001
2000
0000
3020
0000
,
0031
0000
0000
0000
;
