#VERSION:0.83;
#TITLE:ファンタスティック★通りゃんせ!;
#SUBTITLE:;
#ARTIST:コバヤシユウヤ(IOSYS);
#TITLETRANSLIT:Fantastic Tooryanse!;
#SUBTITLETRANSLIT:;
#ARTISTTRANSLIT:Kobayashi Yuuya (IOSYS);
#GENRE:Denpa;
#CREDIT:Graphics by forcednature productions;
#MUSIC:Fantastic Tooryanse!.ogg;
#BANNER:Fantastic Tooryanse!.png;
#BACKGROUND:Fantastic Tooryanse!-bg.png;
#CDTITLE:;
#SAMPLESTART:37.621;
#SAMPLELENGTH:15.000;
#SELECTABLE:YES;
#OFFSET:0.000;
#BPMS:0.000=185.000;
#STOPS:;
#TIMESIGNATURES:0.000=4=4;
#BGCHANGES:;
#FGCHANGES:;

//--------------- dance-single - Extraordiberry ----------------
#NOTEDATA:;
#STEPSTYPE:dance-single;
#DESCRIPTION:Extraordiberry;
#DIFFICULTY:Beginner;
#METER:3;
#RADARVALUES:0,0,0,0,0;
#CREDIT:Extraordiberry;
#NOTES:
0000
0000
0000
0000
,
0000
0000
0000
0000
,
1000
0000
0000
0000
,
0000
0000
0000
0000
,
0001
0000
0000
0000
,
0000
0000
0000
0000
,
1000
0000
0000
0000
,
0000
0000
0000
0000
,
0100
0000
0000
0000
,
0010
0000
0000
0000
,
0001
0000
0000
0000
,
0000
0000
0000
0000
,
1000
0000
0000
0000
,
0010
0000
0000
0000
,
1000
0000
0000
0000
,
0000
0000
0000
0000
,
0001
0000
0000
0000
,
0010
0000
0000
0000
,
0001
0000
0000
0000
,
1001
0000
0000
0000
,
1000
0000
0000
0000
,
1000
0000
0000
0000
,
1000
0000
0000
0000
,
0001
0000
0000
0000
,
1000
0000
0000
0000
,
1000
0000
0000
0000
,
0001
0000
0000
0000
,
0100
0000
0000
0000
,
1001
0000
0000
0000
,
1000
0000
1000
0000
,
1000
0000
0000
0000
,
0001
0000
0001
0000
,
0001
0000
0000
0000
,
1000
0000
0000
0000
,
0100
0000
0000
0000
,
0010
0000
0010
0000
,
0010
0000
0000
0000
,
0001
0000
0001
0000
,
0001
0000
0000
0000
,
0100
0000
0100
0000
,
0100
0000
0000
0000
,
0010
0000
0000
0000
,
0000
0000
0000
0000
,
1000
0000
0000
0000
,
1000
1000
0000
0000
,
0001
0000
0000
0000
,
0000
0000
0000
0000
,
1000
0000
0000
0000
,
0000
0000
0000
0000
,
0000
0000
0000
0000
,
0000
0000
0000
0000
,
0000
0000
0000
0000
,
0000
0000
0000
0000
,
0000
0000
0000
0000
,
0000
0000
0000
0000
,
1000
0000
1000
0000
,
1000
0000
0000
0000
,
0001
0000
0000
0000
,
1000
0000
0000
0000
,
0100
0000
0000
0000
,
1000
0000
0000
0000
,
0001
0000
0000
0000
,
0100
0000
0000
0000
,
0001
0000
0000
0000
,
0000
0000
0000
0000
,
1000
1000
1000
0000
,
0002
0000
0000
0003
,
1000
0000
0000
0000
,
0000
0000
0000
0000
,
0001
0000
0000
0000
,
0000
0000
0000
0000
,
1000
0000
0000
0000
,
0100
0000
0000
0000
,
1000
0000
0000
0000
,
1001
0000
0000
0000
,
0001
0000
0100
0000
,
0001
0000
0000
0000
,
1000
0000
0100
0000
,
1000
0000
0000
0000
,
0001
0000
0000
0000
,
0100
0000
0000
0000
,
0010
0000
0000
0000
,
1000
0000
0000
0000
,
0001
0000
0001
0000
,
0001
0000
0000
0000
,
1000
0000
0000
0000
,
0100
0000
0000
0000
,
1000
0000
0000
0000
,
0001
0000
0000
0000
,
0100
0000
0000
0000
,
0010
0000
0000
0000
,
0100
0000
0000
0000
,
0000
0000
0000
0000
,
0001
0000
0001
0000
,
0001
0000
1001
0000
;

//--------------- dance-single - Extraordiberry ----------------
#NOTEDATA:;
#STEPSTYPE:dance-single;
#DESCRIPTION:Extraordiberry;
#DIFFICULTY:Easy;
#METER:7;
#RADARVALUES:0,0,0,0,0;
#CREDIT:Extraordiberry;
#NOTES:
0000
0000
0000
0000
,
0000
0000
0000
0000
,
1000
0100
0010
0000
,
0001
1000
0100
0000
,
1000
0100
0010
0000
,
0001
0001
1000
1000
,
0001
0100
0010
0000
,
1000
0001
0100
0000
,
0001
0100
0010
1000
,
1001
0010
0110
0000
,
2000
3200
0320
0030
,
0002
0203
0320
0030
,
1000
0100
0010
0000
,
0100
1000
0001
0000
,
0100
0010
1000
0000
,
0001
0100
0010
0010
,
0000
1000
0001
0000
,
1000
0100
0010
0000
,
1001
0000
0110
0000
,
1000
0001
1001
0000
,
0001
0000
1000
1000
,
0010
0000
0100
0100
,
0001
0000
1000
1000
,
0100
0010
0001
0000
,
1000
0000
0010
0010
,
0100
0000
0001
0001
,
1000
0100
0010
0001
,
2000
0000
0000
3000
,
0001
1000
1001
0000
,
0001
0100
0010
0100
,
0001
1000
0100
0000
,
1000
0001
0100
0010
,
1000
1000
0001
0000
,
1000
0100
0010
0100
,
1000
0001
0100
0000
,
0001
1000
0100
0000
,
0110
0000
1001
0000
,
0001
0100
0010
0100
,
0001
1000
0100
0000
,
1000
0001
0100
0010
,
1000
1000
0001
0000
,
2000
0000
0000
3000
,
0002
0000
0000
0003
,
1000
0100
0010
0001
,
1001
2000
0000
3000
,
0001
0100
0010
0000
,
1000
0001
1001
1000
,
0002
0000
0000
0000
,
0000
0000
0000
0000
,
0000
0000
0000
0000
,
0000
0000
0000
0000
,
0000
0000
0000
0000
,
0000
0000
0000
0000
,
0000
0000
0000
0000
,
0000
0000
0000
0003
,
1000
0001
0001
0000
,
1000
0100
0010
0100
,
1000
0000
1000
1000
,
0001
0100
0010
0100
,
0001
0000
0001
0001
,
1000
0100
0010
0001
,
1000
0000
1000
1000
,
0001
0100
0010
1000
,
0001
0000
0001
0001
,
1000
0100
0010
0001
,
1000
1000
0001
0001
,
2002
0000
0000
3003
,
2000
0000
0000
3000
,
0200
0000
0000
0300
,
0020
0000
0000
0030
,
0002
0000
0000
0003
,
1000
0010
0100
0000
,
0010
1000
0001
0000
,
1000
0000
0100
0000
,
1000
0001
1001
0000
,
1000
0010
0100
0010
,
1000
0001
0010
0000
,
0001
0100
0010
0100
,
0001
1000
1001
0000
,
1000
0100
0010
0100
,
1000
0001
0100
0010
,
2000
0000
0000
3000
,
0001
1001
0000
1000
,
0100
0010
0001
0000
,
1000
0001
1001
1000
,
0001
0100
0010
0000
,
0100
0001
1000
0000
,
0010
0100
0001
0000
,
1000
1000
0001
0001
,
1000
0100
0010
0000
,
0100
1000
0001
0000
,
1000
1000
0001
0001
,
0000
0000
0000
0000
,
1000
0010
0100
0001
,
1000
0100
0110
1001
;

//--------------- dance-single - Extraordiberry ----------------
#NOTEDATA:;
#STEPSTYPE:dance-single;
#DESCRIPTION:Extraordiberry;
#DIFFICULTY:Medium;
#METER:11;
#RADARVALUES:0,0,0,0,0;
#CREDIT:Extraordiberry;
#NOTES:
0000
0000
0000
0000
,
0000
0000
0000
0000
,
1000
0000
0001
0100
0020
0000
0130
0001
,
2000
0000
3001
0100
0020
0000
1030
0000
,
0001
0000
1000
0100
0020
0000
0130
0000
,
0110
0011
0101
1010
,
0001
0000
1000
0010
0200
0000
0310
1000
,
0002
0000
1003
0010
0200
0000
0301
0000
,
1000
0100
0010
0100
1000
0001
0100
0001
,
1000
0000
0000
0100
0010
0000
0000
0000
1001
0000
0000
0000
0000
0000
0000
0000
,
0002
0203
0320
2030
,
3020
0230
0302
0003
,
1000
0000
0000
0000
0001
0000
0100
0000
0010
0000
0000
0100
0000
0000
0001
0000
,
1000
0100
0010
0001
1000
0000
1001
0000
,
0001
0000
0000
0100
0010
0000
0000
0000
1000
0000
0000
0100
0010
0000
0000
0000
,
0001
0100
0010
1000
0001
0001
0002
0000
,
0000
0000
1003
0100
0010
0000
0100
1000
,
0001
0100
0010
1000
0001
0000
1001
0000
,
1000
0100
0020
0000
0031
0100
0010
0100
,
0000
0001
1000
0000
2002
0000
3003
0000
,
1000
0100
2000
0000
0001
0000
3001
0000
,
0001
0100
0002
0000
1000
0000
1003
0000
,
0010
0100
0020
0000
0100
0000
0130
0000
,
0001
0100
0010
0000
1001
0000
0000
0000
,
1000
0100
0020
0000
0100
0000
0031
0000
,
0001
0100
0020
0000
0100
0000
1030
0000
,
0001
1000
0100
0010
,
0001
1000
0001
1000
0010
0100
0010
0100
,
0001
0000
0000
1000
0000
0000
0001
0000
1001
0000
0000
0000
1000
0000
0000
0000
,
0001
0000
0000
0100
0010
0000
1000
0000
0002
0000
0000
0000
0013
0000
0001
0000
,
1000
0000
0000
0010
0100
0000
0001
0000
2000
0000
0000
0000
3100
0000
0010
0000
,
0002
0000
0103
0010
2000
0000
3100
0010
,
0001
0101
0110
1010
,
1000
0000
0000
0100
0010
0000
0001
0000
2000
0000
0000
0000
3010
0000
0100
0000
,
0001
0000
0000
1000
0100
0000
0010
0000
0001
0000
0000
0000
1000
0000
0010
0000
,
0100
0000
0101
0000
1010
0000
0000
1001
,
0000
1000
0100
0001
0100
1000
0001
0000
,
1000
0000
0000
0010
0100
0000
0001
0000
2000
0000
0000
0000
3100
0000
0010
0000
,
0001
0000
0000
0100
0010
0000
1000
0000
0002
0000
0000
0000
0013
0000
0100
0000
,
2000
0000
3010
0100
0002
0000
0013
0100
,
1000
1010
0110
0101
,
1000
0100
0020
0000
0130
0000
1000
0000
,
0001
0100
0020
0000
0130
0000
0001
0010
,
0100
0010
0100
1000
0001
1000
0001
0100
,
0010
0120
0000
1030
,
1001
0000
0001
0010
0100
0010
0000
0110
,
0000
1001
0000
0010
0110
0000
1001
0000
,
2000
0000
0000
0000
,
0000
0000
0000
0000
,
0000
0000
0000
0000
,
0000
0000
0000
0000
,
0000
0000
0000
0000
,
0000
0000
0000
0000
,
0000
0000
0000
0000
,
0000
0000
0000
3000
,
0001
1000
1000
0001
,
1000
0100
0000
0010
0100
1000
0000
0100
,
1000
0100
0010
0002
1000
0000
1003
0000
,
0001
0000
0100
0000
0001
0100
0000
0010
,
0100
0100
0001
2000
0001
0000
3001
0000
,
1000
0100
0010
0001
0010
0100
1000
0001
,
0100
0010
0100
0002
1000
0000
1003
0000
,
0001
0010
0100
1000
0001
0100
0010
1000
,
0010
0100
0001
2000
0001
0000
3001
0000
,
1000
0100
1000
0100
0010
0001
0010
0001
,
1000
1000
0010
0010
0100
0100
0001
0001
,
1002
0000
0000
0003
,
2000
3200
0320
0230
,
2300
3002
0203
0320
,
1030
0001
1000
0000
0100
0010
0100
0000
,
1100
0110
0011
1001
,
0001
0000
0000
0100
0010
0000
1000
0000
0002
0000
0000
0000
0013
0000
0100
0000
,
1000
0000
0000
0001
0100
0000
0010
0000
1000
0000
0000
0000
0001
0000
0010
0000
,
0200
0000
0000
1300
0100
0000
0000
1001
,
0000
0001
0100
1000
0100
0001
1000
0000
,
0001
0000
0000
0100
0010
0000
1000
0000
0002
0000
0000
0000
0013
0000
0001
0000
,
1000
0000
0000
0010
0100
0000
0001
0000
2000
0000
0000
0000
3100
0000
0010
0000
,
0002
0000
0103
0010
2000
0000
3100
0010
,
0001
1000
0010
0100
0001
1000
0100
0010
,
0002
0000
0000
0000
,
2003
0000
0000
0000
,
3001
0100
0001
0100
0010
1000
0001
0010
,
0100
0120
0000
0031
,
0011
0000
0001
1000
0010
0100
0000
0110
,
0000
1001
0000
0010
0110
0000
1001
0000
,
0001
0000
1000
0100
0020
0000
0130
1000
,
0002
0000
1003
0100
0020
0000
0031
0000
,
1000
0000
0001
0100
0020
0000
0130
0000
,
0110
1010
1100
0011
,
1000
0000
0001
0010
0200
0000
0310
0001
,
2000
0000
3001
0010
0200
0000
1300
0000
,
0001
0100
0010
0100
0001
1000
0100
0010
,
0000
0000
0000
0000
,
0001
0000
0000
0100
0010
0000
1000
0000
0001
0000
0000
0010
0100
0000
1000
0000
,
0001
0000
0000
0100
0010
0000
1000
0000
1001
0000
0000
0000
1000
0000
0000
0000
;

//--------------- dance-single - Extraordiberry ----------------
#NOTEDATA:;
#STEPSTYPE:dance-single;
#DESCRIPTION:Extraordiberry;
#DIFFICULTY:Hard;
#METER:15;
#RADARVALUES:0,0,0,0,0;
#CREDIT:Extraordiberry;
#NOTES:
0000
0000
0000
0000
,
0000
0000
0000
MMMM
,
1001
0000
0000
0001
1000
0000
0100
0000
0020
0000
0000
0000
0130
0000
1000
0000
,
0020
0000
0000
0000
1030
0000
0100
0000
0020
0000
0000
0130
1000
0000
0001
0000
,
0100
0000
0000
0010
1000
0000
0100
0000
0020
0000
0000
0000
0130
0000
1000
0000
,
0010
0010
0100
0100
0001
0001
1000
1000
,
1001
0000
0000
1000
0001
0000
0010
0000
0200
0000
0000
0000
0310
0000
0001
0000
,
0200
0000
0000
0000
0301
0000
0010
0000
0200
0000
0000
0310
0001
0000
1000
0000
,
0010
0010
1000
0100
0010
0010
0001
0100
,
0110
0000
0000
0010
1000
0000
0001
0000
2002
0000
0000
0000
3003
0000
0000
0000
,
0002
0023
0230
0320
,
0032
0203
0320
0030
,
1000
0000
0100
0000
1000
0000
0001
0000
0200
0000
0000
0310
0100
0000
0001
0000
,
1000
0100
0010
0001
0200
0000
0301
0000
,
0020
0000
0000
0130
0010
0000
0001
0000
0200
0000
0000
0310
0100
0000
0001
0000
,
1000
0000
0100
0000
1000
0000
0001
0000
0100
0000
0100
0000
0010
1000
0010
2000
,
0000
0000
0000
0000
3100
0000
1000
0000
0020
0000
0000
0130
0010
0000
1000
0000
,
0001
0010
0100
1000
0010
0100
0001
1000
,
0100
0010
0012
0000
0103
0010
1010
2000
,
0000
0000
3100
0000
1000
0000
0001
0000
0100
0010
0100
0010
0100
0000
0000
0000
,
0001
0010
0100
2000
0010
0000
3100
0000
,
1000
0010
0100
0002
0010
0000
0103
0000
,
0001
1000
0100
0020
0100
0000
0031
0000
,
1000
0000
0001
0000
0100
0000
0010
0000
1000
0000
0000
0000
0001
1000
0001
0000
,
1000
0001
0010
0200
0001
0000
1300
0000
,
0001
1000
0010
0200
1000
0000
0301
0000
,
1000
1000
0100
0100
0010
0010
0001
0001
,
0100
0001
0100
0000
0010
0100
0010
0000
1000
0010
1000
0000
0001
0000
1000
0000
,
1001
0000
0000
0110
0000
0000
0001
0000
1001
0000
0000
0000
MMMM
0000
0000
0000
,
0101
0000
0000
0100
0010
0000
1000
0000
0100
0000
0010
0000
0001
1000
0001
0000
,
0100
0000
0000
0010
1000
0000
0100
0000
0010
0000
0001
0000
1000
0001
1000
0000
,
0020
0000
0000
0130
0010
0000
1000
0000
0200
0000
0000
0310
0100
0000
1000
0000
,
0001
0100
0001
0000
0100
0010
0100
0000
0010
1000
0010
0000
1000
0000
0000
0000
,
1100
0000
0000
0100
0010
0000
0001
0000
0100
0000
0010
0000
1000
0001
1000
0000
,
0100
0000
0000
1000
0010
0000
0100
0000
0001
0000
0000
0000
1000
0000
0100
0000
,
1100
0000
1001
0000
0101
0000
1000
1100
,
0000
0000
0100
0000
0010
0100
0010
0000
0001
0010
0001
0000
1001
0000
0000
0000
,
1010
0000
0000
0010
0100
0000
0001
0000
0010
0000
0100
0000
1000
0001
1000
0000
,
0010
0000
0000
0100
0001
0000
0010
0000
0100
0000
1000
0000
0001
1000
0001
0000
,
0200
0000
0000
0310
0100
0000
0001
0000
0020
0000
0000
0130
0010
0000
0001
0000
,
0100
0001
0100
0000
0010
0100
0010
0000
1000
0010
1000
0000
0010
0000
1000
0000
,
0001
0010
1000
0010
0002
0000
0013
0001
,
1000
0010
0001
0010
2000
0000
3100
1000
,
0001
0000
0001
0000
0100
0000
0100
0000
0001
1000
0001
1000
0100
0010
0100
0010
,
0001
0000
0012
0000
0000
0000
0103
0001
,
0101
0000
0100
0010
1010
1000
0000
1100
,
0000
0110
0000
0001
0011
0000
1001
0000
,
2000
0000
0000
0000
,
0000
0000
0000
0000
,
0000
0000
0000
0000
,
0000
0000
0000
0000
,
0000
0000
0000
0000
,
0000
0000
0000
0000
,
0000
0000
0000
0000
,
0000
0000
0000
3000
,
0001
1000
1000
MMMM
,
1000
0100
0000
1000
0001
0100
0000
0001
,
1000
0100
0010
0200
0001
0000
1300
0000
,
0001
0000
0100
0000
0001
0010
0000
0001
,
1000
1000
0001
0200
1000
0000
0301
0000
,
1000
0100
0010
0001
1000
0010
0100
0010
,
1000
1000
0001
0020
1000
0000
0031
0000
,
1000
1000
0010
0100
0001
0001
1000
0100
,
1000
0001
0100
0020
0001
0000
1030
0000
,
0001
1000
0001
1000
0100
0010
0100
0010
,
0001
1000
0001
1000
0001
1000
0001
1000
0001
1000
0001
1000
0001
1000
0001
1000
,
0020
0000
0000
0030
,
1002
0010
0103
0001
,
2000
0000
0010
0000
3100
0000
1000
0010
,
0200
0000
0310
1000
0200
0000
1300
0010
,
0100
0000
0100
0000
0001
0000
0001
0000
1000
0100
1000
0000
0001
0010
0001
0000
,
1000
0000
0000
0010
0100
0000
0001
0000
0010
0000
0000
0000
0100
0000
1000
0000
,
0010
0000
0000
1000
0100
0000
0010
0000
0001
0000
0000
0000
1000
0000
0010
0000
,
1010
0000
0001
0010
0011
0000
0001
0101
,
0000
0000
0100
0000
0010
1000
0010
0000
1000
0001
1000
0000
1001
0000
0000
0000
,
0011
0000
0000
0010
0100
0000
1000
0000
0010
0000
0100
0000
0001
0010
0001
0000
,
1000
0000
0000
0010
0100
0000
0001
0000
0010
0000
0100
0000
1000
0010
1000
0000
,
0200
0000
0000
0310
0100
0000
1000
0000
0020
0000
0000
0130
0010
0000
1000
0000
,
0100
1000
0100
0000
0010
0100
0010
0000
0001
0010
0001
0000
1000
0001
0100
0010
,
2000
0000
0000
0000
0000
0000
3100
0010
,
0002
0000
0000
0000
0000
0000
0103
0010
,
1000
0100
1000
0000
0001
0100
0001
0000
1000
0100
1000
0100
0010
0001
0010
0001
,
1000
0000
2010
0000
0000
0000
3100
1000
,
1100
0000
0100
0010
0011
0001
0000
0101
,
0000
0110
0000
1000
1010
0000
0110
0000
,
1001
0000
0000
0001
1000
0000
0100
0000
0002
0000
0000
0000
0103
0000
1000
0000
,
0002
0000
0000
0000
1003
0000
0100
0000
0002
0000
0000
0103
0010
0000
0001
0000
,
1001
0000
0000
1000
0001
0000
0100
0000
2000
0000
0000
0000
3100
0000
0001
0000
,
1000
0100
1000
0000
0100
0010
0100
0000
0010
0001
0010
0000
0001
1000
0001
0000
,
1001
0000
0000
0001
1000
0000
0010
0000
0002
0000
0000
0000
0013
0000
1000
0000
,
0002
0000
0000
0000
1003
0000
0010
0000
0002
0000
0000
0013
0100
0000
0001
0000
,
1000
1000
0100
0010
0001
0001
0100
0010
,
0000
0000
0000
0000
MMMM
MMMM
MMMM
0000
,
1100
0000
0000
0100
0010
0000
0001
0000
0101
0000
0000
0100
0010
0000
1000
0000
,
1100
0000
0000
0100
0010
0000
0001
0000
1002
0000
0000
0000
0103
0000
0000
0000
;

//--------------- dance-double - Extraordiberry ----------------
#NOTEDATA:;
#STEPSTYPE:dance-double;
#DESCRIPTION:Extraordiberry;
#DIFFICULTY:Easy;
#METER:7;
#RADARVALUES:0,0,0,0,0;
#CREDIT:Extraordiberry;
#NOTES:
00000000
00000000
00000000
00000000
,
00000000
00000000
00000000
00000000
,
00010000
00000000
00001000
00000000
,
00010000
00001000
01000000
00000000
,
00010000
00000000
10000000
00000000
,
01000000
01000000
00100000
00100000
,
00001000
00000000
00010000
00000000
,
00001000
00010000
00000100
00000000
,
00001000
00000001
00000100
00000000
,
00001001
00000100
00000110
00000000
,
00000002
00000203
00000320
00000030
,
00020000
00032000
00023000
00030000
,
00001000
00100000
00010000
00100000
,
00001000
00010000
00001000
00000000
,
01000000
00010000
10000000
01000000
,
00100000
00001000
00010000
00000000
,
00001000
00010000
00000100
00001000
,
00000100
00010000
00001000
00000000
,
00011000
00000000
00011000
00000000
,
00010000
00001000
00011000
00000000
,
00001000
00000000
01000000
01000000
,
00010000
00000000
10000000
10000000
,
01000000
00000000
00100000
00100000
,
00001000
00010000
00001000
00000000
,
00010000
00000000
00000010
00000010
,
00001000
00000000
00000001
00000001
,
00000010
00000100
00010000
00001000
,
00020000
00000000
00000000
00030000
,
00001000
00010000
00011000
00000000
,
00001000
01000000
00010000
01000000
,
00001000
00010000
00001000
00000000
,
00100000
00010000
10000000
00100000
,
01000000
00001000
00010000
00000000
,
00001000
00010000
00000100
00001000
,
00000100
00010000
00001000
00000000
,
00000010
00001000
00000001
00000000
,
00000100
00001000
00010000
00000000
,
00001000
00100000
00010000
00100000
,
00010000
10000000
00100000
00000000
,
10000000
01000000
00100000
00010000
,
00100000
00001000
00010000
00000000
,
00002000
00000000
00000000
00003000
,
00020000
00000000
00000000
00030000
,
00001000
00010000
00000100
00001000
,
00001001
00002001
00000000
00003000
,
00000001
00000100
00001000
00000000
,
00010000
00001000
00011000
00010000
,
00002000
00000000
00000000
00000000
,
00000000
00000000
00000000
00000000
,
00000000
00000000
00000000
00000000
,
00000000
00000000
00000000
00000000
,
00000000
00000000
00000000
00000000
,
00000000
00000000
00000000
00000000
,
00000000
00000000
00000000
00000000
,
00000000
00000000
00000000
00003000
,
00010000
00001000
00001000
00000000
,
00010000
00001000
01000000
00000000
,
00010000
10000000
01000000
01000000
,
00100000
00001000
00010000
00000000
,
00001000
00010000
00000010
00000010
,
00001000
00000001
00000100
00000010
,
00010000
00001000
00010000
00010000
,
00001000
00100000
00010000
10000000
,
01000000
00100000
00001000
00001000
,
00010000
00001000
00010000
00001000
,
00010000
00001000
00010000
00001000
,
00022000
00000000
00000000
00033000
,
00020000
00000000
00000000
00030000
,
00002000
00000000
00000000
00003000
,
02000000
00000000
00000000
03000000
,
00020000
00000000
00000000
00030000
,
10000000
01000000
00100000
00000000
,
00001000
00010000
00001000
00000000
,
00011000
00000000
00011000
00000000
,
00010000
00001000
00011000
00000000
,
00010000
00000100
00001000
00000100
,
00010000
00001000
00010000
00000000
,
00000100
00001000
00000001
00000100
,
00000010
00010000
00001000
00000000
,
00020000
00000000
00000000
00030000
,
00002000
00000000
00000000
00003000
,
00010000
00001000
01000000
00010000
,
10010000
10020000
00000000
00030000
,
10000000
01000000
00010000
00000000
,
00001000
00010000
00011000
00001000
,
00010000
00000100
00001000
00000000
,
00000001
00000100
00000010
00000000
,
00010000
00001000
00010000
00000000
,
00001000
00001000
01000000
01000000
,
00010000
10000000
01000000
00000000
,
00100000
00001000
00010000
00000000
,
00001000
00010000
00000100
00001000
,
00000000
00000000
00000000
00000000
,
00000001
00000100
00001000
00010000
,
00100000
10000000
00010000
10010000
;

//--------------- dance-double - Extraordiberry ----------------
#NOTEDATA:;
#STEPSTYPE:dance-double;
#DESCRIPTION:Extraordiberry;
#DIFFICULTY:Medium;
#METER:11;
#RADARVALUES:0,0,0,0,0;
#CREDIT:Extraordiberry;
#NOTES:
00000000
00000000
00000000
00000000
,
00000000
00000000
00000000
00000000
,
00020000
00000000
00031000
01000000
00020000
00000000
01030000
00001000
,
00020000
00000000
00031000
01000000
00020000
00000000
00130000
00000000
,
00002000
00000000
00013000
00000100
00002000
00000000
00003100
00000000
,
00001100
00000011
00000101
00001010
,
00020000
00000000
00031000
00100000
00020000
00000000
00130000
00001000
,
00020000
00000000
00031000
00100000
00020000
00000000
01030000
00000000
,
00001000
00010000
00000100
00001000
00000001
00000100
00000010
00000000
,
00000101
00001010
00022000
00033000
,
00010000
00010000
00001000
00001000
,
00010000
00001000
00001000
00000000
,
00010000
00000000
00000000
00000000
00001000
00000000
01000000
00000000
00010000
00000000
00000000
01000000
00000000
00000000
00010000
00000000
,
10000000
01000000
00100000
00000000
00110000
00000000
00000000
00000000
,
00001000
00000000
00010000
00000100
00001000
00000000
00000100
00001000
,
00000001
00000100
00000010
00010000
00001000
00001000
00002000
00000000
,
00000000
00000000
00013000
00001000
01000000
00000000
00100000
10000000
,
00010000
00100000
00001000
00000000
00011000
00000000
00010000
00000000
,
00001000
00000010
00000001
00000000
00001000
00000001
00000100
00001000
,
00000000
00010000
00001000
00000000
00022000
00000000
00033000
00000000
,
00002000
02003000
00010000
03010000
,
20000000
30020000
00100000
00130000
,
00002000
00023000
00000010
00030010
,
00001000
00000001
00001001
00000000
,
00000002
00000203
00001000
00001300
,
00020000
00230000
10000000
10300000
,
00010000
10000000
01000000
00010000
,
00001000
00010000
00001000
00010000
00001000
00000010
00001000
00000010
,
00000001
00000000
00000000
00001000
00000000
00000000
00000010
00000000
00001010
00000000
00000000
00000000
00011000
00000000
00000000
00000000
,
00010000
00000000
00000000
00001000
01000000
00000000
00010000
00000000
10000000
00000000
00000000
00000000
10010000
00000000
00000000
00000000
,
00010000
00000000
00000000
01000000
00001000
00000000
00010000
00000000
00001000
00000000
00000000
00000000
00011000
00000000
00000000
00000000
,
00010000
00100000
10000000
00000000
00010000
10000000
01000000
00000000
,
11000000
00110000
00022000
00033000
,
00001000
00000000
00000000
00010000
00000100
00000000
00001000
00000000
00000001
00000000
00000000
00000000
00001001
00000000
00000000
00000000
,
00000001
00000000
00000000
00000100
00001000
00000000
00010000
00000000
00001000
00000000
00000000
00000000
00010000
00000000
00001000
00000000
,
00100000
00000000
01100000
00000000
10010000
00000000
00000000
10010000
,
00000000
10000000
01000000
00010000
00001000
00000000
00011000
00000000
,
00001000
00000000
00000000
00010000
00000100
00000000
00001000
00000000
00000001
00000000
00000000
00000000
00001001
00000000
00000000
00000000
,
00001000
00000000
00000000
00000100
00010000
00000000
00001000
00000000
00010000
00000000
00000000
00000000
00011000
00000000
00000000
00000000
,
00001000
00000010
00000001
00000000
00001000
00000001
00000100
00000000
,
00000101
00000000
00001010
00000000
00011000
00000000
00010000
00001000
,
01000000
00010000
10000000
00100000
01000000
00000000
00010000
10000000
,
01000000
00100000
00001000
00010000
00001000
00000000
00010000
00000100
,
00001000
00000001
00001000
00000001
00000100
00000010
00000100
00000010
,
00010000
00000000
00021000
00000000
00000000
00000000
00031000
01000000
,
00010000
00000000
10000000
01000000
00100000
01000000
00000000
11000000
,
00000000
00110000
00000000
00001000
00011000
00000000
00020000
00000000
,
00032000
00000000
00000000
00000000
,
00000000
00000000
00000000
00000000
,
00000000
00000000
00000000
00000000
,
00000000
00000000
00000000
00000000
,
00000000
00000000
00000000
00000000
,
00000000
00000000
00000000
00000000
,
00000000
00000000
00000000
00000000
,
00000000
00000000
00000000
00003000
,
00010000
00001000
00001000
01000000
,
00010000
10000000
00000000
01000000
00100000
01000000
00000000
10000000
,
01000000
00010000
00001000
00020000
00001000
00000000
00031000
00000000
,
00010000
00000000
00001000
00000000
00010000
00000100
00000000
00001000
,
00000001
00000001
00000100
00002000
00010000
00000000
00013000
00000000
,
00001000
01000000
00010000
10000000
01000000
00100000
01000000
10000000
,
01000000
00100000
00001000
00020000
00001000
00000000
00031000
00000000
,
00010000
00000100
00001000
00000001
00000100
00000010
00001000
00000001
,
00001000
00000001
00000100
00002000
00010000
00000000
00013000
00000000
,
00001000
00010000
00001000
00010000
00001000
00010000
00001000
00010000
,
00001000
00001000
00010000
00010000
00001000
00001000
00010000
00001000
,
00022000
00000000
00000000
00033000
,
00002000
00000000
00203000
00000000
,
00320000
00000000
20030000
00000000
,
30020000
00000000
02030000
00000000
,
03002000
00023000
00031000
00011000
,
00010000
00000000
00000000
00001000
00100000
00000000
00010000
00000000
10000000
00000000
00000000
00000000
10010000
00000000
00000000
00000000
,
10000000
00000000
00000000
01000000
00010000
00000000
00001000
00000000
00010000
00000000
00000000
00000000
00001000
00000000
00010000
00000000
,
00000100
00000000
00000010
00000001
00001000
00000000
00000000
00001001
,
00000000
00000001
00000100
00001000
00010000
00000000
00011000
00000000
,
00010000
00000000
00000000
00001000
00100000
00000000
00010000
00000000
10000000
00000000
00000000
00000000
10010000
00000000
00000000
00000000
,
00010000
00000000
00000000
00100000
00001000
00000000
00010000
00000000
00001000
00000000
00000000
00000000
00011000
00000000
00000000
00000000
,
00010000
01000000
10000000
00000000
00010000
10000000
00100000
00000000
,
10100000
00000000
01010000
00000000
00011000
00000000
00001000
00010000
,
00000010
00001000
00000001
00000100
00000010
00000000
00001000
00000001
,
00000010
00000100
00010000
00001000
00010000
00000000
00001000
00100000
,
00010000
10000000
00010000
10000000
00100000
01000000
00100000
01000000
,
00001000
00000000
00012000
00000000
00000000
00000000
00013000
00000010
,
00001000
00000000
00000001
00000010
00000100
00000010
00000000
00000011
,
00000000
00001100
00000000
00010000
00011000
00000000
00010000
00000000
,
00002000
00000000
00013000
00000100
00002000
00000000
00003010
00010000
,
00002000
00000000
00013000
00000100
00002000
00000000
00003010
00000000
,
00020000
00000000
00031000
01000000
00020000
00000000
00130000
00000000
,
00110000
11000000
10100000
01010000
,
00002000
00000000
00013000
00000010
00002000
00000000
00003100
00010000
,
00002000
00000000
00013000
00000010
00002000
00000000
00003100
00000000
,
00010000
00001000
01000000
00010000
10000000
01000000
00100000
00010000
,
00000000
00000000
00000000
00000000
,
00001000
00001100
00000010
00000011
,
00000001
00000100
00001000
00010000
00001000
00000000
00010000
00000000
;

//--------------- dance-double - Extraordiberry ----------------
#NOTEDATA:;
#STEPSTYPE:dance-double;
#DESCRIPTION:Extraordiberry;
#DIFFICULTY:Hard;
#METER:15;
#RADARVALUES:0,0,0,0,0;
#CREDIT:Extraordiberry;
#NOTES:
00000000
00000000
00000000
00000000
,
00000000
00000000
00000000
MMMMMMMM
,
00011000
00000000
00000000
00001000
00010000
00000000
00000010
00000000
00002000
00000000
00000000
00000000
00003001
00000000
00000100
00000000
,
00002000
00000000
00000000
00000000
00013000
00000000
00000010
00000000
00002000
00000000
00000000
00003100
00010000
00000000
00001000
00000000
,
00011000
00000000
00000000
00001000
00010000
00000000
00000100
00000000
00002000
00000000
00000000
00000000
00003001
00000000
00000100
00000000
,
00001000
00010000
00100000
00010000
00001000
00010000
01000000
00010000
,
00001000
00000000
00000000
00010000
00001000
00000000
00100000
00000000
00020000
00000000
00000000
00000000
10030000
00000000
01000000
00000000
,
00020000
00000000
00000000
00000000
00031000
00000000
00100000
00000000
00020000
00000000
00000000
01030000
00001000
00000000
00010000
00000000
,
00001000
00001000
00000010
00000001
00001000
00001000
00000001
00000100
,
00001000
00000000
00000000
00010000
00001000
00000000
00010000
00000000
00022000
00000000
00000000
00000000
00033000
00000000
00000000
00000000
,
00002000
00003020
00020030
00032000
,
00003200
00020300
00032000
00003000
,
00010000
00000000
00001000
00000000
01000000
00000000
00010000
00000000
02000000
00000000
00000000
03100000
01000000
00000000
00010000
00000000
,
10000000
01000000
00100000
01000000
00010000
00000000
00011000
00000000
,
00002000
00000000
00000000
00013000
00001000
00000000
00000010
00000000
00000002
00000000
00000000
00001003
00000001
00000000
00000010
00000000
,
00001000
00010000
00000010
00001000
00001001
00000000
00021000
00000000
,
00000000
00000000
00000000
00000000
00030100
00000000
00001000
00000000
00000200
00000000
00000000
00000310
00000100
00000000
00001000
00000000
,
00000001
00000100
00000010
00000100
00001000
00010000
00000010
00001000
,
00000001
00000010
00000011
00000000
00000001
00000100
00001000
00011000
,
00000000
00000000
00010000
00000000
00100000
00000000
10000000
00000000
00010000
10000000
00010000
10000000
00010000
00000000
00000000
00000000
,
01000000
00010000
10000000
00020000
00100000
00000000
00031000
00000000
,
00000100
00001000
00000001
00002000
00000010
00000000
00013000
00000000
,
01000000
00010000
10000000
00020000
00100000
00000000
00031000
00000000
,
00000100
00000000
00001000
00000000
00000001
00000000
00001000
00000000
00000010
00000000
00000000
00000000
00001000
00000001
00001000
00000000
,
00000001
00000100
00000010
00002000
00000010
00000000
00103000
00000000
,
10000000
01000000
00100000
00020000
00100000
00000000
00030010
00000000
,
00000001
00001010
00011000
01010000
,
10000000
00000000
00010000
00000000
00100000
00000000
00001000
00000000
00010000
00001000
00010000
00000000
00001000
00010000
00001000
00000000
,
00011000
00000000
00000000
00000100
00000000
00000000
00000010
00000000
00000011
00000000
00000000
00000000
0000MMMM
00000000
00000000
00000000
,
00000001
00000000
00000000
00001000
00000001
00000000
00000100
00000000
00001000
00000000
00010000
00001000
00010000
00000000
00000100
00000000
,
00001000
00000000
00000000
00000001
00000100
00000000
00001000
00000000
00010000
00000000
00001000
00010000
00001000
00000000
00100000
00000000
,
00020000
00000000
00000000
10030000
01000000
00000000
00010000
00000000
00002000
00000000
00000000
00013000
00001000
00000000
00100000
00000000
,
00010000
00000000
10000000
01000000
10000000
00000000
01000000
00100000
01000000
00000000
00100000
00010000
00100000
00000000
00000000
00000000
,
00001000
00000000
00000000
00010000
00001000
00000000
00000010
00000000
00000001
00000000
00001000
00000001
00001000
00000000
00000010
00000000
,
00000100
00000000
00000000
00000001
00000010
00000000
00001000
00000000
00010000
00000000
00000000
00000000
00001000
00000000
00010000
00000000
,
00011000
00000000
01010000
00000000
01100000
00000000
00100000
10100000
,
00000000
00000000
10000000
01000000
10000000
00000000
00010000
00100000
00010000
00000000
10000000
00000000
10010000
00000000
00000000
00000000
,
10000000
00000000
00000000
00010000
10000000
00000000
00100000
00000000
00010000
00000000
00001000
00010000
00001000
00000000
00100000
00000000
,
00010000
00000000
00000000
10000000
00100000
00000000
00010000
00000000
00001000
00000000
00010000
00001000
00010000
00000000
00000100
00000000
,
00002000
00000000
00000000
00003001
00000010
00000000
00001000
00000000
00020000
00000000
00000000
00031000
00010000
00000000
00000100
00000000
,
00001000
00000000
00000001
00000100
00000001
00000000
00000100
00000010
00000100
00000000
00000010
00001000
00000010
00000000
00010000
00000000
,
00001000
00010000
00100000
00010000
00002000
00000000
01003000
00001000
,
00010000
00001000
00000100
00001000
00020000
00000000
00030010
00001000
,
00000001
00000000
00000010
00000000
00000100
00000000
00001000
00000000
00000001
00000100
00000001
00000000
00001000
00000010
00001000
00000000
,
00001010
00000000
00012000
00000000
00000000
00000000
00013000
00100000
,
10000000
00000000
00010000
10000000
01000000
00010000
00000000
00011000
,
00000000
00000100
00000000
00001000
00001001
00000000
00002010
00000000
,
00023000
00000000
00000000
00000000
,
00000000
00000000
00000000
00000000
,
00000000
00000000
00000000
00000000
,
00000000
00000000
00000000
00000000
,
00000000
00000000
00000000
00000000
,
00000000
00000000
00000000
00000000
,
00000000
00000000
00000000
00000000
,
00000000
00000000
00000000
00030000
,
10000000
00010000
00010000
MMMMMMMM
,
10000000
01000000
00000000
10000000
00010000
01000000
00000000
00100000
,
10000000
01000000
00100000
00020000
00100000
00000000
00030010
00000000
,
00000001
00000000
00000100
00000000
00000001
00000010
00000000
00000001
,
00000100
00000100
00000010
00002000
00000010
00000000
00103000
00000000
,
10000000
00010000
00100000
10000000
00010000
01000000
10000000
00010000
,
10000000
00010000
10000000
00020000
01000000
00000000
00030100
00000000
,
00000001
00000001
00000010
00000100
00001000
00001000
00000001
00000100
,
00000010
00001000
00000001
00002000
00000100
00000000
01003000
00000000
,
10000000
01000000
00010000
01000000
10000000
01000000
00010000
00001000
,
00010000
00001000
00010000
00001000
00010000
00001000
00010000
00001000
00010000
00001000
00010000
00001000
00010000
00001000
00010000
00001000
,
00020000
00000000
00000000
00030000
,
00002000
00003020
00000032
00002003
,
00003002
00000000
00000023
00000000
00002030
00000000
00013000
00000010
,
00002000
00000000
00003001
00000100
00002000
00000000
00013000
00000010
,
00001000
00000000
00001000
00000000
00000010
00000000
00000010
00000000
00000100
00000001
00000100
00000000
00000010
00001000
00000010
00000000
,
00010000
00000000
00000000
00001000
00010000
00000000
00100000
00000000
10000000
00000000
00000000
00000000
00010000
00000000
10000000
00000000
,
01000000
00000000
00000000
10000000
00100000
00000000
00010000
00000000
00001000
00000000
00000000
00000000
00010000
00000000
00001000
00000000
,
00011000
00000000
00010000
00000100
00001100
00000000
00001000
00001001
,
00000000
00000000
00000001
00000100
00000001
00000000
00001000
00000010
00001000
00000000
00000001
00000000
00001001
00000000
00000000
00000000
,
00000001
00000000
00000000
00001000
00000001
00000000
00000010
00000000
00001000
00000000
00010000
00001000
00010000
00000000
00000010
00000000
,
00001000
00000000
00000000
00000001
00000010
00000000
00001000
00000000
00010000
00000000
00001000
00010000
00001000
00000000
00100000
00000000
,
00020000
00000000
00000000
10030000
00100000
00000000
00010000
00000000
00002000
00000000
00000000
00013000
00001000
00000000
00100000
00000000
,
00010000
00000000
10000000
01000000
10000000
00000000
01000000
00100000
01000000
00000000
00100000
00010000
00100000
00000000
00001000
00000000
,
00010000
00001000
00000010
00001000
00020000
00000000
00030100
00010000
,
00001000
00010000
01000000
00010000
00002000
00000000
00103000
00010000
,
10000000
00000000
00100000
00000000
01000000
00000000
00010000
00000000
10000000
01000000
10000000
00000000
00010000
00100000
00010000
00000000
,
00110000
00000000
00021000
00000000
00000000
00000000
00031000
00000010
,
00000001
00000000
00001000
00000001
00000100
00001000
00000000
00011000
,
00000000
01000000
00000000
00100000
10100000
00000000
01010000
00000000
,
00011000
00000000
00000000
00010000
00001000
00000000
01000000
00000000
00020000
00000000
00000000
00000000
10030000
00000000
01000000
00000000
,
00020000
00000000
00000000
00000000
00031000
00000000
01000000
00000000
00020000
00000000
00000000
01030000
00001000
00000000
00010000
00000000
,
00011000
00000000
00000000
00010000
00001000
00000000
01000000
00000000
00020000
00000000
00000000
00000000
10030000
00000000
01000000
00000000
,
00010000
00001000
00000010
00001000
00010000
00001000
00000100
00001000
,
00010000
00000000
00000000
00001000
00010000
00000000
00000010
00000000
00002000
00000000
00000000
00000000
00003001
00000000
00000010
00000000
,
00002000
00000000
00000000
00000000
00013000
00000000
00000010
00000000
00002000
00000000
00000000
00003100
00010000
00000000
00001000
00000000
,
00010000
00010000
00100000
10000000
00010000
00010000
10000000
01000000
,
00000000
00000000
00000000
00000000
MMMM0000
MMMM0000
MMMM0000
00000000
,
00011000
00000000
00000000
00001000
00000010
00000000
00000001
00000000
00000011
00000000
00000000
00001000
00000010
00000000
00001000
00000000
,
00001010
00000000
00000000
00000010
00010000
00000000
00001000
00000000
00012000
00000000
00000000
00000000
00013000
00000000
00000000
00000000
;
