#VERSION:0.83;
#TITLE:FROZEN HEART RHAPSODY;
#SUBTITLE:;
#ARTIST:KS -Evolved-;
#TITLETRANSLIT:;
#SUBTITLETRANSLIT:;
#ARTISTTRANSLIT:;
#GENRE:FINALE;
#CREDIT:;
#MUSIC:FROZEN HEART RHAPSODY.ogg;
#BANNER:FROZEN HEART RHAPSODY.png;
#BACKGROUND:FROZEN HEART RHAPSODY-bg.png;
#CDTITLE:cdtitle.png;
#SAMPLESTART:24.916;
#SAMPLELENGTH:15.000;
#SELECTABLE:YES;
#OFFSET:0.000;
#BPMS:0.000=165.000
,21.000=125.000
,27.000=87.500
,32.000=175.000
,157.000=165.000
,158.000=150.000
,159.000=130.000
,160.000=165.000
,176.000=175.000
,236.000=165.000
,237.000=150.000
,238.000=130.000
,241.000=185.000
;
#STOPS:;
#SCROLLS:0.000=0.500,
21.000=0.714,
27.000=1.000,
32.000=0.500,
32.500=0.525,
33.000=0.550,
33.500=0.575,
34.000=0.600,
34.500=0.625,
35.000=0.650,
35.500=0.675,
36.000=0.700,
36.500=0.725,
37.000=0.750,
37.500=0.775,
38.000=0.800,
38.500=0.825,
39.000=0.850,
39.500=0.875,
40.000=0.900,
40.500=0.925,
41.000=0.950,
41.500=0.975,
42.000=1.000,
42.500=1.025,
43.000=1.050,
157.000=1.121,
158.000=1.233,
159.000=1.423,
160.000=1.121,
176.000=1.050,
236.000=1.121,
237.000=1.233,
238.000=1.423,
241.000=1.000
;
#BGCHANGES:11.800=FROZEN HEART RHAPSODY.avi=1.000=0=0=1===CrossFade_Fastest==,
313.000=FROZEN HEART RHAPSODY-bg.png=1.000=0=0=1,
99999.000=-nosongbg-=1.000=0=0=0=StretchNoLoop====
;
#FGCHANGES:;

//--------------- dance-single - KAYSTAR ----------------
#NOTEDATA:;
#STEPSTYPE:dance-single;
#DESCRIPTION:KAYSTAR;
#DIFFICULTY:Beginner;
#METER:7;
#RADARVALUES:0,0,0,0,0;
#NOTES:
0000
0000
0000
0000
,
0000
0000
0000
0000
,
0000
0000
0000
0000
,
0000
1001
1001
0000
,
0000
1000
0001
0000
,
0000
0200
0000
0310
,
2000
0000
3001
2002
,
0000
3003
0010
0100
,
2002
0000
0000
0000
,
0000
0000
3003
0000
,
0002
0000
0023
0000
,
0230
0000
1300
0000
,
0001
1001
0000
1000
,
0000
0001
0000
0100
,
0010
0100
0000
0001
,
0000
1000
0000
0100
,
0010
0010
0001
0001
,
1000
1000
0010
0010
,
1000
0001
0010
0100
,
1000
0001
0100
0010
,
0000
1000
1000
1000
,
1000
0000
0100
0010
,
0001
0000
0000
1000
0000
0000
0001
0000
,
0000
1000
0000
0000
0001
0000
0100
0000
,
0010
0010
1000
1000
,
0001
0001
0010
0010
,
0001
1000
0010
0100
,
0001
1000
0100
0010
,
0000
0001
0001
0001
,
0001
0000
0100
0010
,
1000
0000
0000
0001
0000
0000
1000
0000
,
0000
0001
0000
0000
0010
0000
0100
0000
,
2000
0000
3001
0000
,
0100
0010
1000
0000
,
0002
0000
1003
0000
,
0100
0010
0001
0000
,
1000
0010
1000
0000
,
0001
0000
0100
0000
,
0001
0010
0001
0000
,
2002
0000
3003
0000
,
1000
0010
1000
0010
,
0100
0001
0100
0001
,
1000
0100
1000
0100
,
0010
0001
0010
0001
,
1000
0000
0010
0000
,
0100
0100
0100
0000
,
0001
1000
0100
0010
,
0002
0000
1003
0000
,
0001
0100
0001
0100
,
0010
1000
0010
1000
,
0001
0010
0001
0010
,
0100
1000
0100
1000
,
0001
0000
0100
0000
,
0010
0010
0010
0000
,
1000
0001
0010
0100
,
2000
0000
3001
0000
,
0001
0100
0010
0000
,
1000
0100
0010
0000
,
0002
0000
0203
0000
,
0320
0000
1030
0000
,
0000
0001
0010
0001
,
0010
0100
1000
0000
,
0001
0100
0010
1000
,
0010
1000
0001
0000
,
1000
0100
1000
0001
,
1000
0010
0100
0001
,
1000
0001
0010
0001
,
1000
0001
0100
0010
,
1000
0000
2002
3003
,
0220
0330
2002
3003
,
0001
0010
0100
0010
,
0100
1000
0002
0000
,
1003
0010
0100
0010
,
1000
0001
0010
0100
,
0010
0001
1000
0001
,
2002
0000
0000
3003
,
1000
0010
0100
0001
,
0010
0100
1000
0010
,
0100
0002
0000
0000
,
0000
0000
0000
0000
,
0003
0000
0000
0000
;

//--------------- dance-single - KAYSTAR ----------------
#NOTEDATA:;
#STEPSTYPE:dance-single;
#DESCRIPTION:KAYSTAR;
#DIFFICULTY:Easy;
#METER:11;
#RADARVALUES:0,0,0,0,0;
#NOTES:
0000
0000
0000
0000
,
0000
0000
0000
0000
,
0000
0000
0000
0000
,
0000
0000
1000
0002
2000
0000
0000
0000
,
3003
0000
0001
1000
0001
0000
0000
0000
,
0000
2000
3200
0310
,
0002
0203
0310
2000
,
0000
0000
3100
0010
,
0002
0000
0000
0000
,
0003
0000
0000
0000
,
1001
0000
0000
0110
0000
0000
2002
0000
,
0000
0000
3003
0000
,
2000
0000
3001
0000
0010
0000
0100
0010
,
0100
0000
1000
0000
0001
0100
0010
0000
,
1000
1000
0100
0100
,
0010
0010
0001
0001
,
1000
0000
0010
1000
0000
0001
0100
0001
,
0000
1000
0001
1000
0000
0100
1000
0000
,
0001
0000
0010
0001
0000
1000
0100
1000
,
0000
0001
1000
0001
0000
1000
0010
0000
,
0000
2000
3200
0320
,
0032
0000
1003
0000
0001
0010
0100
1000
,
0001
0000
0000
0101
0000
0000
1000
0000
,
0000
1010
0000
0000
0002
0000
1003
0000
,
0001
0000
0010
0001
0000
1000
0100
1000
,
0000
0001
1000
0001
0000
0100
0001
0000
,
1000
0000
0010
1000
0000
0001
0100
0001
,
0000
1000
0001
1000
0000
0001
0010
0000
,
0000
0002
0203
0320
,
2030
0000
3001
0000
1000
0010
0100
0001
,
1000
0000
0000
1100
0000
0000
0001
0000
,
0000
0011
0000
0000
2000
0000
3001
0000
,
1002
0000
0103
0000
,
0001
0000
0010
0100
,
2000
0000
3010
0000
,
1000
0000
0100
0010
,
0001
0100
0020
0000
,
1030
0001
2000
0000
,
3001
0010
0200
0000
,
1300
0001
2002
3003
,
0001
0000
0100
0010
1000
0010
0100
0000
,
0001
0000
1000
0100
0010
0100
1000
0000
,
0001
0000
0100
0010
2000
0000
3100
0010
,
0002
0000
0103
0010
2000
0000
3001
0000
,
2002
0000
3003
1001
,
1000
0010
1000
0000
0001
0100
0001
0000
,
1000
0200
0320
0230
,
0310
0001
0010
0001
0000
0100
0010
0000
,
1000
0000
0100
0010
0001
0010
0100
0000
,
1000
0000
0001
0100
0010
0100
0001
0000
,
1000
0100
1000
0100
0010
0001
0010
0001
,
2000
3020
0230
0301
,
2002
0000
3003
1001
,
0001
0010
0001
0000
1000
0100
1000
0000
,
0001
0200
0320
0230
,
0310
1000
0010
1000
0000
0100
0010
0000
,
0001
1000
0020
0000
,
0130
0001
0020
0000
,
0130
1000
0000
0001
0010
0000
0001
0100
,
0000
0010
1000
0000
0001
0000
2002
0000
,
3003
0000
0002
0000
1003
0000
0001
0010
,
0001
0000
1000
0000
0001
0100
0010
1000
,
0001
0000
2000
0000
3001
0000
1000
0100
,
1000
0000
0001
0000
1000
0010
0100
0001
,
1000
0100
1000
0001
0010
0000
0011
0000
,
0001
0100
0001
1000
0010
0000
1010
0000
,
1000
0001
0010
0000
0100
1000
0001
0000
,
0100
0010
1000
0010
0100
0000
0110
0000
,
1002
0013
2001
3100
,
1002
0103
2001
3010
,
1000
0000
0001
1000
0001
0000
1001
0000
,
1000
0100
0010
0001
1000
0001
0100
0010
,
1000
0000
0100
0000
0100
0000
0100
0010
,
0001
0000
0100
0000
0100
0000
0100
0010
,
1000
1001
0110
1001
,
0220
0000
0330
0000
,
1000
0100
0010
0001
1000
0001
0010
0100
,
1000
0100
0010
0001
1000
0001
0010
0100
,
1000
2002
0000
0000
,
0000
0000
0000
0000
,
3003
0000
0000
0000
;

//--------------- dance-single - KAYSTAR ----------------
#NOTEDATA:;
#STEPSTYPE:dance-single;
#DESCRIPTION:KAYSTAR;
#DIFFICULTY:Medium;
#METER:14;
#RADARVALUES:0,0,0,0,0;
#NOTES:
0000
0000
0000
0000
,
0000
0000
0000
0000
,
0000
0000
0000
0000
,
0000
0000
0001
2000
0002
0000
0000
0000
,
3003
0000
1000
0001
1000
0000
0020
0000
,
0230
0301
1000
1100
,
1000
0001
0101
0200
,
0000
0000
0020
0330
,
2002
0000
0000
0000
,
0000
0000
3003
0000
,
1000
0000
0001
0010
0001
0000
1000
0000
,
0010
0000
1000
0000
0010
0000
0100
0000
0001
0000
1000
0001
2000
0000
0000
0000
,
3001
0000
1002
0000
0103
0010
1000
0001
,
0010
0100
0010
0001
0100
0010
1000
0000
,
2001
0000
3100
0010
0001
1000
0010
0100
,
0010
1000
0100
0010
0001
1000
1002
0000
,
1003
0010
0100
0010
1000
0010
0100
0010
,
1000
0001
1000
0100
1000
0001
1000
0100
,
0010
0001
1000
0010
0100
0001
1000
0100
,
0010
0001
1000
0010
0100
1000
0100
0010
,
2000
3001
0011
0110
,
1100
0000
0000
0000
1000
0000
0001
0100
0001
0000
1000
0000
0100
1000
0100
0000
,
0020
0000
0031
1001
1000
0010
0200
0000
,
0301
1001
0000
0000
0001
0001
1000
1000
,
0001
0010
0100
0001
0100
0010
0001
1000
,
0010
0100
0001
1000
0100
0010
0001
1000
,
0001
0100
0001
1000
0001
0100
0001
1000
,
0001
0010
0100
0010
0001
0010
0100
0010
,
0002
1003
1010
0110
,
0101
0000
0000
0000
0001
0000
1000
0100
1000
0000
0001
0000
0100
0001
0100
0000
,
0020
0000
1030
1001
0001
0010
0200
0000
,
1300
1001
0000
0000
0001
0001
1000
1000
,
0020
0000
0130
0001
,
2000
0000
3100
0110
,
0020
0000
0130
1000
,
0002
0000
1003
1001
,
0001
0100
0001
0100
0020
0000
1030
0000
,
0001
0100
0010
1000
0100
0010
0001
0000
,
1000
0010
1000
0010
0200
0000
0301
0000
,
0011
1100
2002
3003
,
1000
0010
1000
0010
0100
0001
1000
0100
,
0001
0000
0100
0000
0010
0000
0001
0000
1000
0000
0010
0000
0100
0000
0001
1000
,
0002
0000
0013
0001
0010
0001
1000
0010
,
0001
0000
0010
0000
0100
0000
0010
0000
1000
0000
0001
0000
1000
0001
1000
0001
,
1000
0000
0100
0020
0000
0130
1000
0000
,
0001
0100
0010
0100
0001
1000
0100
0010
,
0002
1003
1001
0110
,
1000
0010
0100
0002
0000
1003
1001
0000
,
0001
0010
0001
0010
0100
1000
0001
0100
,
1000
0000
0100
0000
0010
0000
1000
0000
0001
0000
0010
0000
0100
0000
1000
0001
,
1000
0010
0100
0001
0010
1000
0010
0100
,
1000
0001
0100
0001
0100
0010
1000
0010
1000
0001
0010
0100
,
2000
0000
0000
3001
,
1000
0010
0100
0010
1000
0001
0010
0100
,
2000
3001
1001
0110
,
0001
0100
0010
2000
0000
3001
1001
0000
,
1000
0002
0000
0010
0013
0000
0100
2000
,
0000
3001
2000
0010
3010
0000
1001
0000
,
1000
0100
0000
0010
0001
0000
0100
0010
,
0000
1000
0001
0000
1001
0000
0220
0000
,
0330
0000
2001
0000
3010
0100
0001
1000
,
0100
0001
0100
1000
0001
0100
0010
0000
,
1002
0000
0013
0100
1000
0001
0100
1000
,
0100
0001
1000
0100
0010
0100
0010
0001
,
1000
0010
0100
1000
0100
0001
1000
0100
,
0010
1000
0010
0001
0100
0010
2000
0000
,
3001
1000
0001
0000
0010
0000
0100
0000
0001
0000
0100
0000
1000
0000
0001
0000
,
0100
0000
0010
0000
0001
0000
0010
0000
1000
0000
0001
1000
0002
0000
0000
0000
,
1003
0000
0001
0000
0010
0001
0010
0001
0010
0000
0001
0000
1000
0000
0000
0000
,
0001
0000
0100
0000
0010
1000
0010
1000
0010
0000
1000
0000
0001
0000
0000
0000
,
0011
0000
0010
0100
1000
0000
1100
0000
,
1000
0001
1000
0000
0001
0100
0001
0000
1000
0010
1000
0000
0001
1000
0001
1000
,
0001
0000
0000
0000
0010
0001
0000
0000
0010
0100
0000
0000
1000
0100
0000
0000
,
1000
0000
0000
0001
0100
0010
1000
0010
0100
0001
0100
0010
,
1000
0001
0010
0001
0010
0100
1000
0100
1000
0001
0100
0010
,
2000
0000
3002
0000
,
1003
0001
0010
0100
0001
1000
0010
0100
,
1000
0001
0100
1000
0001
0010
1000
0001
,
1000
2002
0000
0000
,
0000
0000
0000
0000
,
3003
0000
0000
0000
;

//--------------- dance-single - KAYSTAR ----------------
#NOTEDATA:;
#STEPSTYPE:dance-single;
#DESCRIPTION:KAYSTAR;
#DIFFICULTY:Hard;
#METER:17;
#RADARVALUES:0,0,0,0,0;
#NOTES:
0000
0000
0000
0000
,
0000
0000
0000
0000
,
0000
0000
0000
0000
,
0000
0000
1000
0001
2002
0000
0000
0000
,
3003
0000
1000
0001
1000
0000
0200
0000
,
0320
0000
0031
1000
0010
0100
0001
0000
,
1000
0100
0010
0001
1000
0000
0002
0000
,
0000
0000
0203
0320
,
2030
0000
0000
0000
,
0000
0000
0000
0000
,
3001
0000
0010
0100
1000
0000
1010
0000
,
0010
0000
0100
0000
0001
0000
0010
0000
0100
0000
1000
0001
2000
0000
0000
0000
,
3001
0000
0100
0010
0100
0000
0001
0000
1000
0000
0001
0010
0200
0000
1300
0000
,
0001
0000
0010
0100
0010
0000
0001
0000
1000
0000
0010
0000
0210
0000
0000
0000
,
0301
0001
0010
0010
0100
0100
1000
1000
,
0001
0000
0100
0000
0010
0000
1000
0000
0001
1000
0001
1000
0002
0000
0000
0000
,
1003
0100
0001
0100
1000
0100
0001
0100
,
1000
0010
0001
0010
1000
0010
0001
0010
,
1000
0100
0001
0100
1000
0010
0001
0010
,
1000
0100
0010
0001
0100
0010
1000
0002
,
0000
0000
1003
0000
1001
0000
0001
0010
0100
0000
1000
0001
1000
0000
0010
0100
,
0001
0000
1000
0000
0001
0010
0100
0010
0100
0000
1000
0100
0010
0100
0010
0001
,
1000
0010
1000
1200
0000
0310
0100
1000
,
0010
0000
0000
0000
0000
0000
1020
0000
0000
0000
0000
0000
0000
0000
0000
0000
0130
0000
0000
0000
0001
0000
0000
0000
1000
0000
0000
0100
0000
0000
1000
0000
0000
0100
0000
0000
0010
0000
0000
0000
0000
0000
0001
0000
0000
1000
0000
0000
,
0010
0100
1000
0100
0001
0100
1000
0100
,
0001
0010
1000
0010
0001
0010
1000
0010
,
0001
0100
1000
0100
0001
0010
1000
0010
,
0001
0100
0010
1000
0100
0010
0001
2000
,
0000
0000
3001
0000
1001
0000
1000
0010
0100
0000
0001
1000
0001
0000
0010
0100
,
1000
0000
0001
0000
1000
0010
0100
0010
0100
0000
0001
0100
0010
0100
0010
1000
,
0001
0010
0001
0201
0000
0310
0100
0001
,
0010
0000
0021
0000
0000
0000
0130
1000
0001
0000
0100
0010
0100
0000
0010
1000
,
0001
0010
0120
1000
,
0031
0000
0000
1002
0000
0013
0100
1000
,
0001
0100
0120
0001
,
1030
0000
0000
2001
0000
3010
0100
0001
,
1000
0000
0100
0000
0010
0000
0100
0001
0100
0000
0010
0000
0002
0000
0000
0000
,
1003
0000
0001
0000
0100
0000
0010
0100
0010
0000
1000
0000
0100
0000
0010
0000
,
0001
0000
0100
0000
0010
0000
0100
1000
0100
0000
0010
0000
1000
0000
0000
0000
,
1100
0011
2002
3003
,
1000
0000
0001
0000
0100
0000
0010
0100
0001
0000
1000
0000
0001
0010
0100
0010
,
0001
0000
1000
0000
0010
0000
0100
0010
1000
0000
0001
0000
1000
0100
0010
0100
,
1000
0000
0001
0000
0100
0000
0010
1000
0001
0000
0010
0000
0100
1000
0001
1000
,
0010
0000
0100
0000
0001
0000
1000
0001
0010
0000
0100
0000
0010
0001
1000
0001
,
0100
0001
1000
1020
0000
0130
0001
0000
,
1000
0100
0010
0100
1000
0001
0100
0010
,
1000
0100
0120
0000
1000
0000
0100
0000
,
0031
1000
0010
0100
0001
0010
0011
0000
,
1000
0000
0100
0000
0010
0100
0001
0100
0010
0000
0001
1000
0001
1000
0100
0010
,
0001
0000
1000
0000
0010
0100
1000
0100
0010
0000
1000
0001
1000
0001
0100
0010
,
1000
0000
0001
0010
0100
1000
0001
1000
0100
0010
0001
1000
0001
1000
0010
0100
,
0001
1000
0100
1000
0001
0010
0001
1000
0010
0100
0001
0010
,
0210
0000
0000
1300
,
0001
0100
0010
0100
0001
1000
0100
0010
,
0001
0100
0120
0000
0001
0000
0100
0000
,
1030
0001
0010
0100
1000
0010
1010
0000
,
0001
0000
0200
0000
0000
0000
1300
0100
0010
0000
0000
0000
1000
0000
0200
0000
,
0000
0000
0310
0000
0100
0000
0001
0100
0010
0000
0000
0000
1001
0000
0000
0000
,
1000
0002
0000
0013
0200
0000
1300
0020
,
0000
0130
0002
0000
1003
0000
2002
0000
,
3003
0000
1000
0100
1000
0100
0120
0031
,
1000
0000
0000
0000
0000
0000
0001
0000
0000
0010
0000
0000
0100
0000
0000
0000
0000
0000
1000
0000
0000
0000
0000
0000
0010
0000
0000
0000
0000
0000
0100
0000
0000
0000
0000
0000
0001
0000
1000
0000
0000
0000
0000
0000
0000
0000
0000
0000
,
0100
0010
0001
0100
0001
0100
0120
1030
,
0001
0000
1000
0010
0100
0000
0001
0000
1000
0100
0010
0001
1000
0001
0010
0100
,
1000
0000
0001
0100
0010
0000
0100
0000
1000
0100
0010
0000
0100
0000
0001
0000
,
1000
0000
0001
0010
0100
0000
0010
0000
1000
0010
0100
0000
2000
0000
0000
0000
,
3001
1000
0001
0000
0100
0000
0010
0000
0001
0010
0100
0000
0010
0000
1000
0000
,
0001
0000
1000
0100
0010
0000
0100
0000
0001
0100
0010
0000
0001
1000
0001
1000
,
0002
0000
0000
0000
0103
0010
0100
0010
1000
0000
0001
0010
0100
0000
1000
0001
,
2000
0000
0000
0000
3010
0100
0010
0100
0001
0000
1000
0100
0010
0001
1000
0001
,
1000
0000
0010
0100
0110
0000
1001
0000
,
1000
0100
1000
0100
0010
0001
0010
0001
1000
0010
0100
0001
1000
0001
0010
0100
,
2000
0000
0000
0000
3001
0100
0010
0000
1000
0100
0010
0000
0001
0100
0010
0000
,
1002
0000
0000
1003
0100
1000
0100
0010
0100
0010
0001
0010
,
0001
1000
0010
0100
1000
0100
0001
0010
0100
0001
0100
1000
,
0002
0100
2003
0010
,
3001
1000
0100
0010
0001
0010
0100
1000
0001
1000
0100
0010
0001
0010
0100
1000
,
0001
1000
0100
0010
0001
0010
0100
1000
0001
1000
0100
0010
0001
0010
0100
1000
,
0001
2002
0000
0000
,
0000
0000
0000
0000
,
3003
0000
0000
0000
;

//--------------- dance-single - KAYSTAR ----------------
#NOTEDATA:;
#STEPSTYPE:dance-single;
#DESCRIPTION:KAYSTAR;
#DIFFICULTY:Challenge;
#METER:18;
#RADARVALUES:0,0,0,0,0;
#NOTES:
0000
0000
0000
0000
,
0000
0000
0000
0000
,
0000
0000
0000
0000
,
0000
0000
1001
1001
2002
0000
0000
0000
,
3003
0000
0001
1000
0001
0000
0020
0000
,
0230
0000
1300
0001
0100
0010
1010
0000
,
0001
0000
1000
0000
0100
0000
0010
0000
0011
0000
0000
0000
1000
0010
0100
0001
,
0010
0100
1000
0010
0100
0001
0010
0100
2000
0000
0000
0000
3001
0000
0000
0000
,
1001
0000
1000
0010
0100
0000
0101
0000
,
0001
0010
0100
0000
1100
0000
1000
0001
,
1000
0000
0001
0100
0010
0000
0110
0000
,
1000
0000
1000
0000
0001
0000
0001
0000
1000
0000
0100
0010
0004
0000
0000
0000
,
1003
0000
0001
0100
0010
0000
1000
0001
1000
0100
0010
0001
0010
0000
0011
0000
,
0001
0000
0010
0100
1000
0000
0010
1000
0010
0100
0001
1000
0002
0000
0000
0000
,
1003
0100
1000
0100
0010
0001
0010
0001
1000
0010
1000
0010
0100
0001
0100
0001
,
1000
0100
0010
0001
1000
0010
0100
0010
1000
0001
0010
0100
2000
0000
0000
0000
,
3001
0100
0001
0100
0010
1000
0010
1000
0001
0100
0001
0100
0010
1000
0010
1000
,
0001
0010
0100
1000
0100
0010
0001
0010
0100
1000
0100
0010
0001
0010
0100
1000
,
0001
0100
0010
1000
0010
0100
0001
1000
0001
0010
0100
1000
0100
0010
0001
1000
,
0001
0100
0010
1000
0001
0010
0100
1000
0010
0100
0001
1000
0100
0010
0001
0100
,
0000
0000
0010
1000
0010
0000
1000
0001
0010
0000
0100
1000
0001
0000
0100
0010
,
2000
0000
0000
0000
3001
0010
0100
0010
0001
0000
1000
0010
0100
1000
0100
0010
,
1000
0001
0011
0210
0000
1300
0001
1000
,
1010
0000
0000
0000
0000
0000
0210
0000
0000
0000
0000
0000
0000
0000
0000
0300
0001
0000
0000
0000
1000
0000
0000
0000
0100
0000
0000
0010
0000
0000
0100
0000
0000
0010
0000
0000
0001
0000
0000
1000
0000
0000
0010
0000
0000
0100
0000
0000
,
0002
0000
0013
0100
1000
0001
0100
0010
1000
0100
0010
0001
1000
0010
0100
0001
,
1000
0100
0010
0001
0010
0100
1000
0001
1000
0010
0100
0001
0100
0010
1000
0001
,
1000
0100
0010
0001
0010
0100
1000
0100
0010
0001
0010
0100
1000
0100
0010
0001
,
1000
0010
1000
0010
0100
0001
0100
0001
1000
0010
1000
0010
0100
0001
0100
0001
,
0000
0000
0010
0001
0010
0000
0001
1000
0010
0000
0100
0001
1000
0000
0100
0010
,
0002
0000
0000
0000
1003
0010
0100
0010
1000
0000
0001
0010
0100
0001
0100
0010
,
0001
1000
1010
0210
0000
0301
1000
0001
,
0011
0000
0000
0000
0000
0000
0210
0000
0000
0000
0000
0000
0000
0000
0000
0000
0000
0000
1300
0000
0001
0000
1000
0000
0001
0000
0000
0000
0000
0000
0100
0000
0010
0000
0100
0000
0010
0000
0000
0000
0000
0000
1000
0000
0000
0100
0000
0000
,
0020
0000
0000
0000
0000
0000
0031
0000
0000
1000
0000
0000
1001
0000
0000
0000
0000
0000
0001
0100
0000
0000
0000
0000
,
0010
1000
0000
0000
0000
0000
0001
0000
0000
0021
0000
0000
0000
0000
0000
0130
0000
0000
1000
0000
0000
1020
0000
0000
,
0000
0000
0000
0130
0000
0000
0001
0000
0000
1000
0000
0000
1001
0000
0000
0000
0000
0000
0001
0010
0000
0000
0000
0000
,
0100
1000
0000
0000
0000
0000
0001
0000
0000
0100
0000
0000
0110
0000
0000
0000
0000
0000
1001
0000
0000
0000
0000
0000
,
1000
0000
0100
0000
0010
0001
0010
0001
0010
0000
0100
0000
1000
0000
0010
0000
,
0001
0000
0010
0000
1000
0001
1000
0001
1000
0000
0200
0000
0010
0000
0310
0000
,
0001
0000
0100
0000
0010
1000
0010
1000
0010
0000
0100
0000
0001
0000
0010
0000
,
0011
0110
2200
3300
,
1000
0010
0100
0001
1000
0001
0010
0100
1000
0001
0100
0010
0100
0001
0100
0010
,
1000
0001
0010
0001
1000
0001
0010
0100
1000
0001
0100
0010
0100
0001
1000
0100
,
0010
0001
0010
0100
1000
0001
1000
0010
0100
0001
1000
0100
0010
0100
1000
0100
,
0010
0001
1000
0010
1000
0001
1000
0010
0100
0001
1000
0100
0010
0001
0010
0100
,
1000
0001
1000
1020
0000
0130
1001
0000
,
0001
0010
1000
0010
0001
0100
1000
0100
,
0001
0010
0021
0130
1200
0310
0021
0130
,
1000
0010
0001
0010
1000
0100
0110
0000
,
0001
0010
0100
1000
0001
1000
0010
0100
0001
0010
0001
0100
0010
1000
0001
1000
,
0100
0010
0001
0010
0100
1000
0001
0100
0010
1000
0100
1000
0010
0100
0001
1000
,
0100
0010
0100
0001
0100
0010
0100
1000
0001
0100
0010
1000
0001
1000
0100
0010
,
0001
1000
0010
0100
1000
0100
0010
0001
0010
0100
0001
1000
,
2002
0000
3003
1001
,
1000
0010
0001
0010
1000
0100
0001
0100
,
1000
0010
1020
0130
0201
0310
1020
0130
,
0001
0010
1000
0010
0001
0100
0110
0000
,
1000
0000
0002
0000
0013
0000
0100
1000
0100
0000
0010
0000
0001
0000
2000
0000
,
3010
0000
0100
0000
0001
0000
0010
0001
0010
0000
0000
0000
1001
0000
0000
0000
,
1000
0001
0100
0010
0001
0010
1000
0100
,
0010
1000
0002
0000
0203
0000
2300
0000
,
0000
0000
0000
0000
3001
0000
0100
0001
0100
0010
1000
0001
0010
0000
0011
0000
,
1001
0000
0000
0000
0000
0000
1000
0000
0000
0001
0000
0000
0100
0000
0000
0000
0000
0000
0010
0000
0000
1000
0000
0000
0010
0000
0000
0100
0000
0000
0001
0000
0000
1000
0000
0000
0100
0000
0010
0000
0100
0000
0010
0000
0000
0000
0000
0000
,
0001
0000
0100
0010
1000
0000
0100
1000
0100
0010
0001
1000
0010
0000
1010
0000
,
1001
0000
1000
0001
0010
0000
0100
0000
1000
0001
0100
0010
1000
0010
0100
0001
,
1000
0100
0010
0100
0001
0100
0010
0100
1000
0001
0010
0001
1000
0010
0100
0001
,
1000
0001
0010
0100
1000
0001
1000
0010
0100
0001
1000
0100
0010
0001
0010
0100
,
1000
0001
0100
0010
0100
1000
0100
0010
0100
0001
1000
0010
1000
0001
0010
0100
,
1000
0001
0100
0010
0100
0001
1000
0100
0010
0100
1000
0001
0100
0010
1000
0100
,
0020
0000
0000
0000
0031
1000
0001
0100
0010
0000
1010
0000
0101
0000
0000
0000
,
0120
0000
0000
0000
1030
0001
1000
0100
0010
0000
0011
0000
1100
0000
0000
0000
,
0201
0310
0120
1030
1200
0310
0120
0031
,
1000
0010
0100
0001
1000
0001
0010
0100
0001
1000
0010
0100
1000
0001
1000
0010
,
0100
0000
0000
0001
0000
0000
1000
0001
1000
0001
0000
0000
0010
0100
0010
0100
0000
0000
1000
0001
1000
0001
0000
0000
,
1000
0000
0000
0001
0000
0000
0101
0000
0100
0000
0001
0000
1001
0000
1000
0000
0010
0000
1010
0000
1000
0000
0001
0000
,
0010
0100
1000
0010
0100
1000
0001
0010
0100
0001
0010
0100
,
1000
0001
0100
0001
1000
0010
0100
0010
1000
0001
0010
0100
0010
0001
1000
0100
,
1000
0001
0100
0010
1000
0100
0010
0001
0100
0010
1000
0100
0010
0001
0100
0010
,
1000
0010
0100
0001
0010
0100
1000
0010
0100
0001
0010
0100
1000
0010
0100
0001
,
1000
2002
0000
0000
,
0000
0000
0000
0000
,
3003
0000
0000
0000
;

//--------------- dance-double - KAYSTAR ----------------
#NOTEDATA:;
#STEPSTYPE:dance-double;
#DESCRIPTION:KAYSTAR;
#DIFFICULTY:Easy;
#METER:11;
#RADARVALUES:0,0,0,0,0;
#NOTES:
00000000
00000000
00000000
00000000
,
00000000
00000000
00000000
00000000
,
00000000
00000000
00000000
00000000
,
00000000
00000000
10000000
00020000
20000000
00000000
00000000
00000000
,
30030000
00000000
10000000
00010000
10000000
00000000
02000000
00000000
,
03100000
00010000
00100000
00001000
,
00010000
00000010
00001000
00000002
,
00000000
00000000
00000013
00000100
,
00002000
00000000
00000000
00000000
,
00003000
00000000
00000000
00000000
,
00001001
00000000
00000000
00000110
00000000
00000000
00002002
00000000
,
00000000
00000000
00003003
00000000
,
00001000
00000000
00002001
00000000
00003100
00000000
00000010
00000001
,
00000010
00000000
00000001
00000000
00001000
00000010
00010000
00000000
,
00001000
00000000
00010000
00001000
00010000
00000000
00001000
01000000
,
00010000
10000000
00010000
10020000
,
01030000
00000000
00010000
00100000
00000000
01000000
10000000
01000000
,
00000000
10000000
00010000
10000000
00000000
00010000
01000000
00000000
,
00001000
00000000
00010000
00001000
00000000
00100000
00010000
00100000
,
00000000
00001000
00010000
00001000
00000000
00010000
00000100
00000000
,
00002000
00003001
00000101
00000110
,
00001010
00000000
00000001
00000010
00000100
00001000
00000100
00010000
,
00021000
00000000
00000000
00031000
00000000
00000000
00012000
00000000
,
00000000
00013000
00000000
00010000
00000010
00001000
00000010
00000100
,
00000001
00000000
00001000
00000010
00000000
00000100
00000001
00000100
,
00000000
00000001
00001000
00000001
00000000
00001000
00000100
00000000
,
00010000
00000000
00001000
00010000
00000000
00000010
00001000
00000010
,
00000000
00010000
00001000
00010000
00000000
00001000
01000000
00000000
,
00020000
10030000
11000000
01100000
,
00110000
00000000
10000000
00100000
01000000
00010000
01000000
00001000
,
00012000
00000000
00000000
00013000
00000000
00000000
00021000
00000000
,
00000000
00031000
00000000
00100000
00010000
00100000
01000000
10000000
,
00020000
00000000
01030000
00001000
,
00010000
00000000
00011000
00000000
,
00002000
00000000
00013000
00000100
,
00001000
00000000
00000001
00000001
,
00000100
00001000
00020000
00000000
,
00031000
01000000
00100000
10000000
,
01000000
00010000
00002000
00000000
,
00013000
00000010
00002000
00000000
,
00003001
00000010
00000100
00000010
00000001
00000000
00001000
00000000
,
00000010
00010000
00000010
00010000
00001000
00000000
01000000
00000000
,
00010000
00100000
01000000
00100000
00010000
00000000
10000000
00000000
,
00100000
00010000
00100000
00010000
00001000
00000000
00010000
00000000
,
00022000
00000000
00033000
00011000
,
00001000
00010000
00000100
00000000
00001000
00000100
00000010
00000000
,
00000001
00000200
00002300
00013000
,
00001000
00010000
00000000
00200000
00000000
01300000
01100000
00000000
,
10000000
01000000
00100000
01000000
10000000
00000000
00010000
00000000
,
01000000
00001000
01000000
00001000
00010000
00000000
00000010
00000000
,
00001000
00000100
00000010
00000100
00001000
00000000
00000001
00000000
,
00000100
00001000
00000100
00001000
00010000
00000000
00001000
00000000
,
00022000
00000000
00033000
00011000
,
00010000
00001000
01000000
00000000
00010000
01000000
00100000
00000000
,
10000000
02000000
03020000
00031000
,
00010000
00001000
00000000
00000020
00000000
00000130
00000110
00000000
,
00001000
00000100
00000000
00000010
00000001
00000000
00001000
00000010
,
00000000
00000100
00001000
00000000
00011000
00000000
00011000
00000000
,
00010000
00100000
00000000
01000000
00010000
00000000
10000000
01000000
,
00000000
00100000
00001000
00000000
00010000
00000000
00022000
00000000
,
00033000
00000000
00012000
00000000
00103000
00000000
00001000
00010000
,
00001000
00000000
00010000
00000000
00000010
00000100
00001000
00000000
,
00010000
00000000
00021000
00000000
00030010
00000000
00010000
00001000
,
00010000
00000000
00001000
00000000
00010000
01000000
00100000
00010000
,
10000000
00100000
10000000
00010000
01000000
00000000
01010000
00000000
,
00010000
10000000
01000000
00100000
00001000
00000000
00011000
00000000
,
00010000
00000010
00000100
00000001
00001000
00000000
00001100
00000000
,
00000100
00001000
00000001
00000010
00000002
00000000
00001003
00000000
,
00002001
00003010
00001020
00010030
,
00012000
01003000
02001000
03010000
,
20010000
00000000
00010000
00010000
30010000
00000000
10010000
00000000
,
10000000
01000000
00100000
00010000
10000000
00010000
01000000
00100000
,
20000000
32000000
03020000
00031000
,
00012000
00003200
00000302
00001003
,
00001002
00002003
00023000
10030000
,
20020000
00000000
00000000
30030000
,
10000000
01000000
00100000
00010000
00100000
01000000
00100000
00001000
,
00010000
00001000
00010000
00000100
00000010
00000001
00000010
00000100
,
00001000
00002002
00000000
00000000
,
00000000
00000000
00000000
00000000
,
00003003
00000000
00000000
00000000
;

//--------------- dance-double - KAYSTAR ----------------
#NOTEDATA:;
#STEPSTYPE:dance-double;
#DESCRIPTION:KAYSTAR;
#DIFFICULTY:Medium;
#METER:14;
#RADARVALUES:0,0,0,0,0;
#NOTES:
00000000
00000000
00000000
00000000
,
00000000
00000000
00000000
00000000
,
00000000
00000000
00000000
00000000
,
00000000
00000000
00010000
00002000
00020000
00000000
00000000
00000000
,
00033000
00000000
00001000
00010000
00001000
00000000
00200000
00000000
,
01300000
00000000
10000000
00010000
01000000
00100000
10000000
00000000
,
00010000
00100000
01000000
10000000
00010000
00000000
02000000
00000000
,
00000000
00000000
03100000
10000000
,
20020000
00000000
00000000
00000000
,
00000000
00000000
00000000
30030000
,
00010000
00000000
00100000
00001000
00010000
00000000
00001000
00000000
,
00010000
00000000
00000100
00000000
00001000
00000000
00000100
00000000
00000010
00000000
00000001
00001000
00000002
00000000
00000000
00000000
,
00001003
00000000
00002001
00000000
00003010
00001000
00000010
00010000
,
00001000
01000000
00010000
00000000
00100000
01000000
20000000
00000000
,
30010000
00010000
01000000
01000000
00100000
00100000
10000000
10000000
,
00010000
00100000
01000000
10000000
00100000
01000000
00020000
00000000
,
10030000
01000000
00100000
01000000
10000000
01000000
00100000
01000000
,
10000000
00010000
10000000
00100000
10000000
00010000
10000000
00100000
,
01000000
00010000
01000000
00001000
00010000
00001000
00100000
00010000
,
00100000
01000000
00010000
00001000
00010000
00001000
00000010
00000100
,
00002000
00003001
00000101
00000110
,
00001010
00000000
00000000
00000000
00000010
00001000
00000010
00000000
00010000
00000000
00001000
00000000
01000000
00010000
01000000
00000000
,
00020000
00000000
00130000
00110000
00000000
00010000
20000000
00000000
,
31000000
00000000
11000000
00000000
00000000
00000000
10000000
00000000
00100000
00000000
01000000
00100000
01000000
00000000
00010000
10000000
,
00010000
00100000
01000000
00010000
00001000
00010000
00001000
00000010
,
00000100
00001000
00000100
00010000
00001000
00010000
00000010
00001000
,
00000010
00000100
00000001
00001000
00000001
00000100
00000001
00001000
,
00000001
00000100
00000010
00000100
00000001
00000100
00000010
00000100
,
00000002
00001003
00000011
00000110
,
00001100
00000000
00000000
00000000
00000100
00001000
00000100
00000000
00010000
00000000
00001000
00000000
00100000
00010000
00100000
00000000
,
00020000
00000000
01030000
01010000
00000000
00010000
20000000
00000000
,
30100000
00000000
10100000
00000000
00000000
00000000
10000000
00000000
00010000
00000000
00100000
00010000
00100000
00000000
01000000
10000000
,
01000000
10000000
10020000
00000000
,
01030000
00001000
00010000
00000010
,
00001000
00000001
00002001
00000000
,
00003100
00010000
00011000
00011000
,
00001000
01000000
00001000
01000000
00020000
00000000
10030000
00000000
,
00010000
00100000
00010000
00100000
00001000
00000000
00011000
00000000
,
00010000
00000100
00010000
00000100
00002000
00000000
00003001
00000000
,
00000101
00001010
00002002
00003003
,
00000001
00000010
00000100
00001000
00000001
00001000
00000100
00000010
,
00000001
00001000
00000010
00010000
00000010
00010000
00001000
01000000
,
00001000
01000000
00010000
10000000
01000000
00100000
00010000
10000000
,
00010000
00000000
00100000
00000000
01000000
00000000
10000000
00000000
00010000
00000000
10000000
00010000
10000000
00010000
10000000
00000000
,
20020000
00000000
30030000
10010000
,
00010000
00100000
00001000
00000000
00010000
00000100
00001000
00000000
,
00000001
00000101
00000110
00001010
,
00001000
00000010
00010000
00001000
00000000
01000000
00020000
00000000
,
10030000
00100000
01000000
00010000
10000000
00010000
00100000
01000000
,
00010000
00001000
00010000
00001000
00100000
00010000
00100000
00001000
,
00010000
00001000
00000100
00000010
00001000
00000001
00000010
00000100
,
00001000
00001010
00000110
00000101
,
00002002
00000000
00003003
00001001
,
00001000
00000100
00010000
00000000
00001000
00100000
00010000
00000000
,
10000000
10100000
01100000
01010000
,
00010000
01000000
00001000
00010000
00000000
00000010
00002000
00000000
,
00003001
00000000
00000010
00000000
00000000
00000000
00000100
00001000
00000100
00000000
00000000
00000000
00001000
00000000
00000001
00000000
,
00000000
00000000
00000100
00000000
00001000
00000000
00010000
00001000
00010000
00000000
00000000
00000000
00011000
00000000
00000000
00000000
,
00010000
00100000
00000000
01000000
00010000
00000000
10000000
01000000
,
00000000
00100000
00010000
00000000
10000000
00000000
20020000
00000000
,
30030000
00000000
20010000
00000000
30100000
01000000
00010000
01000000
,
00001000
00010000
00000010
00001000
00000010
00000100
00000001
00000000
,
00001000
00000000
00001002
00000000
00000013
00000100
00001000
00000100
,
00010000
00000000
00001000
00000000
00100000
00000000
00010000
00000000
00100000
00000000
01000000
00000000
10000000
00010000
10000000
00010000
,
10000000
00100000
01000000
00001000
00010000
01000000
00100000
00010000
,
00100000
00001000
00010000
00000010
00001000
00000010
00000100
00000000
,
00000001
00001000
00000001
00000000
00000010
00000000
00000100
00000000
00010000
00000000
00001000
00000000
00000100
00000000
00000010
00000000
,
00001000
00000000
00000010
00000000
00010000
00000000
00001000
00000000
00020000
00000000
00000000
00000000
00031000
00000000
00010000
00001000
,
00020000
00030100
00012000
00103000
,
00021000
00030010
00012000
01003000
,
10010000
00000000
00010000
10000000
00010000
00000000
10010000
00000000
,
10000000
01000000
00100000
00010000
00001000
00000100
00000010
00000001
,
00001000
00000000
00000000
00000000
00000010
00001000
00000000
00000000
00000010
00000100
00000000
00000000
00000001
00000100
00000000
00000000
,
00000001
00000000
00000000
00001000
00000100
00001000
00000100
00000010
00000100
00000010
00000001
00000010
,
00000001
00000000
00001000
00000010
00000000
00000010
00000100
00000000
00000100
00001000
00000000
00001000
,
00020000
00000000
00031000
00000000
,
00010000
00100000
01000000
00010000
00100000
01000000
00010000
00001000
,
00000010
00000100
00001000
00000010
00000100
00001000
00020000
00000000
,
00031000
00022000
00000000
00000000
,
00000000
00000000
00000000
00000000
,
00033000
00000000
00000000
00000000
;

//--------------- dance-double - KAYSTAR ----------------
#NOTEDATA:;
#STEPSTYPE:dance-double;
#DESCRIPTION:KAYSTAR;
#DIFFICULTY:Hard;
#METER:17;
#RADARVALUES:0,0,0,0,0;
#NOTES:
00000000
00000000
00000000
00000000
,
00000000
00000000
00000000
00000000
,
00000000
00000000
00000000
00000000
,
00000000
00000000
00010000
00001000
00022000
00000000
00000000
00000000
,
00033000
00000000
00010000
00001000
00010000
00000000
00000020
00000000
,
00000130
00000000
00000001
00001000
00000100
00000010
00000001
00000000
,
00001000
00000010
00010000
00001000
01000000
00010000
20000000
00000000
,
00000000
00000000
31000000
00100000
,
00020000
00000000
00000000
00000000
,
00000000
00000000
00000000
00000000
,
01030000
00000000
00010000
00100000
00001000
00000000
00011000
00000000
,
00010000
00000000
00010000
00000000
00001000
00000000
00001000
00000000
00010000
00000000
00001000
00010000
00002000
00000000
00000000
00000000
,
00013000
00000000
00001000
00010000
00001000
00000000
01000000
00000000
00010000
00000000
00100000
00000000
00001000
00000000
00012000
00000000
,
00000000
00000000
00013000
00001000
00010000
00000000
00000100
00000000
00001000
00000000
00000010
00000000
00020000
00000000
00000000
00000000
,
00031000
00001000
00000010
00000010
00000001
00000001
00000100
00000100
,
00001000
00010000
00001000
00000000
00010000
00001000
00010000
00000000
00100000
00000000
01000000
00000000
00020000
00000000
00000000
00000000
,
10030000
01000000
00010000
01000000
10000000
01000000
00010000
01000000
,
10000000
00100000
00010000
00100000
10000000
00100000
00010000
00100000
,
10000000
01000000
00100000
00010000
01000000
00100000
00010000
00001000
,
00000100
00000010
00001000
00000001
00000010
00000100
00001000
00000002
,
00000000
00000000
00001003
00000000
00001001
00000000
00000001
00000100
00000010
00000000
00001000
00000001
00001000
00000000
00000100
00000010
,
00000002
00000000
00000000
00000000
00001003
00000010
00000100
00000010
00000100
00000000
00000001
00000100
00000010
00000100
00000010
00001000
,
00000002
00000000
00001003
00001200
00000000
00010300
00021000
00000000
,
00030010
00000000
00010020
00000000
00000000
00000000
00001030
00000000
00000001
00000010
00000001
00000010
00000100
00001000
00000100
00001000
,
00000001
00000100
00001000
00000100
00000001
00000100
00001000
00000100
,
00000001
00000010
00001000
00000010
00000001
00000010
00001000
00000010
,
00000001
00000100
00000010
00001000
00000100
00000010
00001000
00010000
,
01000000
00100000
00010000
10000000
00100000
01000000
00010000
20000000
,
00000000
00000000
30010000
00000000
10010000
00000000
10000000
01000000
00100000
00000000
00010000
10000000
00010000
00000000
01000000
00100000
,
20000000
00000000
00000000
00000000
30010000
00100000
01000000
00100000
01000000
00000000
10000000
01000000
00100000
01000000
00100000
00010000
,
20000000
00000000
30010000
02010000
00000000
03001000
00012000
00000000
,
00103000
00000000
00201000
00000000
00000000
00000000
00310000
00100000
01000000
00000000
10000000
00010000
10000000
00000000
00100000
01000000
,
00020000
00000000
00000000
00000000
00000000
00000000
10030000
00000000
10010000
00000000
00000000
00000000
00010000
00100000
00000000
00000000
,
01000000
10000000
00000000
00000000
00100000
00000000
00020000
00000000
00000000
00000000
00031000
00000000
00000100
00000000
00000010
00000000
,
00002000
00000000
00000000
00000000
00000000
00000000
00003001
00000000
00001001
00000000
00000000
00000000
00001000
00000010
00000000
00000000
,
00000100
00000001
00000000
00000000
00000010
00000000
00002000
00000000
00000000
00000000
00013000
00000000
01000000
00000000
00100000
00000000
,
00010000
00000000
10000000
00000000
00100000
00000000
01000000
00010000
01000000
00000000
00100000
00000000
10000000
00000000
00010000
00000000
,
00100000
00000000
00001000
00000000
00010000
00000000
00001000
00010000
00001000
00000000
00010000
00000000
00000100
00000000
00000010
00000000
,
00000001
00000000
00001000
00000000
00000010
00000000
00000100
00000001
00000100
00000000
00000010
00000000
00001000
00000000
00000001
00000000
,
00000011
00001100
00002002
00003003
,
00000001
00000000
00001000
00000000
00000001
00000000
00000100
00000010
00001000
00000000
00000001
00000000
00000010
00000100
00001000
00000100
,
00000010
00000000
00000001
00000000
00001000
00000000
00000010
00010000
00001000
00000000
01000000
00000000
00010000
10000000
00010000
10000000
,
00010000
00000000
10000000
00000000
00010000
00000000
00100000
01000000
10000000
00000000
00010000
00000000
01000000
00100000
10000000
00100000
,
01000000
00000000
00010000
00000000
00100000
00000000
00001000
00010000
00000100
00000000
00010000
00000000
00001000
00010000
00001000
00010000
,
00001000
00010000
00000010
00001020
00000000
00010030
00011000
00000000
,
00001000
00100000
00010000
00100000
00001000
00010000
00001000
01000000
,
00100000
10000000
02000000
00000000
00010000
00000000
00100000
00000000
,
13000000
00010000
01000000
00100000
01000000
00010000
10020000
00000000
,
10030000
00000000
00010000
00000000
00100000
01000000
00010000
01000000
00100000
00000000
00010000
00100000
00001000
00010000
00001000
00010000
,
00000010
00000000
00001000
00000000
00000010
00000100
00001000
00000100
00000010
00000000
00001000
00000000
00000001
00001000
00000001
00001000
,
00000001
00000000
00001000
00000100
00010000
00000000
00001000
00010000
00001000
00000000
00010000
00001000
01000000
00000000
00010000
00000000
,
10000000
01000000
00100000
00010000
00100000
01000000
10000000
00010000
01000000
00100000
00010000
00001000
,
00020000
00000000
00000000
00031000
,
00010000
00000010
00001000
00000010
00010000
00001000
00010000
00000100
,
00000010
00000001
00000200
00000000
00001000
00000000
00000010
00000000
,
00000301
00001000
00000100
00000010
00000100
00001000
00000002
00000000
,
00001003
00000000
00000010
00000000
00000100
00000000
00001000
00010000
00002000
00000000
00000000
00000000
00013000
00000000
00100000
00000000
,
00000000
00000000
01000000
00000000
00001000
00000000
00010000
00001000
00020000
00000000
00000000
00000000
00031000
00000000
00000000
00000000
,
00010000
01000000
00000000
00100000
00010000
00000000
10000000
00100000
,
00000000
01000000
00010000
00000000
10000000
00000000
20020000
00000000
,
30030000
00000000
10000000
01000000
10000000
01000000
01200000
00310000
,
00100000
00000000
00001000
00010000
00001000
00000000
00010000
00000000
00000100
00000000
00000010
00000000
00000002
00000000
00000000
00000000
,
00001003
00000000
00000001
00000100
00000001
00000100
00000120
00001030
,
00000010
00000000
00010000
00001000
00010000
00000000
00001000
00000000
01000000
00010000
01000000
00010000
10000000
01000000
00100000
00010000
,
10000000
00000000
00010000
01000000
00100000
00000000
01000000
00000000
10000000
01000000
00100000
00000000
10000000
00000000
00010000
00000000
,
10000000
00000000
01000000
00100000
00010000
00000000
00100000
00000000
00001000
00010000
00000100
00000000
00002000
00000000
00000000
00000000
,
00003001
00001000
00000001
00000000
00001000
00000000
00000100
00000000
00000010
00000100
00000001
00000000
00000100
00000000
00000010
00000000
,
00000001
00000000
00001000
00000010
00000100
00000000
00002000
00000000
00000000
00000000
00013000
00000000
00001000
00010000
00001000
00010000
,
00001000
00000000
01000000
00000000
00010000
01000000
00010000
10000000
00100000
00000000
10000000
00000000
00010000
00000000
00100000
00001000
,
00010000
00000000
00000100
00000000
00001000
00000100
00001000
00000001
00000010
00000000
00000001
00000000
00001000
00000010
00000100
00000001
,
00001000
00000000
00000100
00000010
00000001
00000000
00001001
00000000
,
00001000
00000010
00001000
00000010
00000100
00000001
00000100
00000001
00001000
00000100
00000010
00000001
00001000
00000001
00000100
00000010
,
00002000
00000000
00000000
00000000
00003100
00010000
00001000
00000000
00010000
00001000
00010000
00000000
00001000
00100000
00010000
00000000
,
10020000
00000000
00000000
01030000
00001000
01000000
00001000
00010000
00001000
00010000
00000010
00010000
,
00000010
00001000
00000001
00000010
00000100
00001000
00000001
00001000
00000010
00000100
00001000
00010000
,
00002000
01000000
00023000
00000010
,
00031000
00010000
00001000
00010000
00001000
00010000
00001000
00010000
00001000
00010000
00001000
00010000
00001000
00010000
00001000
00010000
,
00001000
00010000
00001000
00010000
00001000
00010000
00001000
00010000
00001000
00010000
00001000
00010000
00001000
00010000
00001000
00010000
,
00001000
00022000
00000000
00000000
,
00000000
00000000
00000000
00000000
,
00033000
00000000
00000000
00000000
;

//--------------- dance-double - KAYSTAR ----------------
#NOTEDATA:;
#STEPSTYPE:dance-double;
#DESCRIPTION:KAYSTAR;
#DIFFICULTY:Challenge;
#METER:18;
#RADARVALUES:0,0,0,0,0;
#NOTES:
00000000
00000000
00000000
00000000
,
00000000
00000000
00000000
00000000
,
00000000
00000000
00000000
00000000
,
00000000
00000000
00011000
00011000
00022000
00000000
00000000
00000000
,
00033000
00000000
00001000
00010000
00001000
00000000
02000000
00000000
,
03200000
00000000
10300000
01000000
00100000
01000000
00020000
00000000
,
00031000
00000000
00000100
00000000
00000010
00000000
00000100
00000000
00000001
00000000
00001001
00000000
00001000
00000001
00000010
00000100
,
00001000
00000010
00000100
00001000
00010000
00100000
01000000
00010000
20000000
00000000
00000000
00000000
30010000
00000000
00000000
00000000
,
10010000
00000000
10000000
01000000
00100000
00000000
00101000
00000000
,
00001000
00010000
00000010
00000000
00010010
00000000
00010000
00000010
,
00001000
00000000
00000100
00000010
00000001
00000000
00001001
00000000
,
00001000
00000000
00000010
00000000
00010000
00000000
00001000
00000000
01000000
00000000
00010000
10000000
00040000
00000000
00000000
00000000
,
10030000
00000000
00010000
00100000
01000000
00000000
10000000
00010000
10000000
00100000
01000000
00010000
02000000
00000000
03001000
00000000
,
01000000
00000000
00010000
00100000
00001000
00000000
00010000
00000100
00001000
00000100
00000010
00000001
00002000
00000000
00000000
00000000
,
00003001
00000100
00000001
00000100
00000010
00001000
00000010
00001000
00000001
00000010
00000001
00000010
00000200
00000000
00010300
00000000
,
00001000
00010000
00001000
00100000
00010000
00100000
01000000
10000000
00010000
10000000
00100000
01000000
00020000
00000000
00000000
00000000
,
10030000
01000000
10000000
01000000
00100000
00010000
00100000
00010000
10000000
01000000
10000000
01000000
00100000
00010000
00100000
00010000
,
10000000
00100000
01000000
00010000
01000000
00100000
10000000
00100000
01000000
00010000
01000000
00100000
10000000
00100000
01000000
00010000
,
10000000
01000000
00100000
00010000
00100000
00001000
00010000
00001000
00010000
00000100
00001000
00000100
00000010
00000001
00001000
00000001
,
00001000
00000010
00000100
00001000
00010000
00001000
00010000
00100000
01000000
00010000
10000000
00010000
10000000
01000000
00100000
00010000
,
00000000
00000000
00100000
00001000
00010000
00000000
00001000
00010000
00000100
00000000
00001000
00000100
00000010
00000000
00000001
00000100
,
00000020
00000000
00000000
00000000
00000031
00000010
00000100
00000010
00001000
00000000
00000001
00000010
00000100
00000010
00001000
00000000
,
00021000
00000000
00030100
00012000
00000000
00103000
00021000
00000000
,
00030010
00000000
00000000
00000000
00000000
00000000
00012000
00000000
00000000
00000000
00000000
00000000
00000000
00000000
00000000
00000000
01003000
00000000
00000000
00000000
00100000
00000000
00000000
00000000
10000000
00000000
00000000
00010000
00000000
00000000
00100000
00000000
00000000
01000000
00000000
00000000
10000000
00000000
00000000
01000000
00000000
00000000
00100000
00000000
00000000
00001000
00000000
00000000
,
00020000
00000000
00030100
00000010
00000001
00001000
00000001
00001000
00000010
00000100
00001000
00010000
00001000
00010000
00100000
01000000
,
00010000
10000000
00010000
10000000
01000000
00100000
00010000
00100000
00001000
00010000
00001000
00010000
00000100
00001000
00000100
00000010
,
00000001
00001000
00000010
00000100
00000001
00000100
00000010
00001000
00000010
00000100
00000001
00000100
00000010
00001000
00000010
00000100
,
00000001
00001000
00000001
00001000
00000100
00000010
00000100
00000010
00000001
00001000
00000001
00001000
00000010
00000100
00000010
00000100
,
00000000
00000000
00000010
00010000
00001000
00000000
00010000
00001000
01000000
00000000
00010000
01000000
00100000
00000000
10000000
01000000
,
00200000
00000000
00000000
00000000
10300000
00100000
01000000
00100000
00010000
00000000
10000000
00100000
01000000
00100000
00010000
00000000
,
00012000
00000000
01003000
00021000
00000000
00030010
00012000
00000000
,
00103000
00000000
00000000
00000000
00000000
00000000
00021000
00000000
00000000
00000000
00000000
00000000
00000000
00000000
00000000
00000000
00000000
00000000
00030100
00000000
00000000
00000010
00000000
00000000
00000001
00000000
00000000
00000000
00000000
00000000
00001000
00000000
00000001
00000000
00001000
00000000
00000001
00000000
00000000
00000000
00000000
00000000
00000100
00000000
00000000
00000010
00000000
00000000
,
00002000
00000000
00000000
00000000
00000000
00000000
00003100
00000000
00000000
00000010
00000000
00000000
00000001
00000000
00000000
00000000
00000000
00000000
00000100
00001000
00000000
00000000
00000000
00000000
,
00010000
00100000
00000000
00000000
00000000
00000000
10000000
00000000
00000000
00020000
00000000
00000000
00000000
00000000
00000000
00130000
00000000
00000000
01000000
00000000
00000000
20000000
00000000
00000000
,
00000000
00000000
00000000
30100000
00000000
00000000
01000000
00000000
00000000
00010000
00000000
00000000
10000000
00000000
00000000
00000000
00000000
00000000
01000000
00010000
00000000
00000000
00000000
00000000
,
00001000
00000010
00000000
00000000
00000000
00000000
00000001
00000000
00000000
00001000
00000000
00000000
00001001
00000000
00000000
00000000
00000000
00000000
00000110
00000000
00000000
00000000
00000000
00000000
,
00000001
00000000
00000100
00000000
00000010
00001000
00000010
00001000
00000010
00000000
00000100
00000000
00000001
00000000
00000010
00000000
,
00000100
00000000
00010000
00000000
00001000
00010000
00001000
00010000
00001000
00000000
00100000
00000000
01000000
00000000
10000000
00000000
,
00010000
00000000
01000000
00000000
00100000
10000000
00100000
10000000
00100000
00000000
01000000
00000000
00010000
00000000
00100000
00000000
,
01100000
00011000
00000220
00000330
,
00000001
00000100
00000010
00001000
00000010
00000100
00000001
00001000
00000100
00000010
00000100
00001000
00000100
00000010
00000100
00001000
,
00000001
00000100
00000010
00000100
00000001
00000100
00000010
00000100
00001000
00010000
00001000
00010000
00100000
01000000
00010000
10000000
,
01000000
00100000
00010000
10000000
00010000
00100000
01000000
10000000
00010000
01000000
00100000
01000000
00010000
01000000
00100000
01000000
,
00010000
10000000
01000000
00100000
01000000
10000000
01000000
00100000
01000000
00010000
00001000
00010000
00001000
00000010
00000100
00001000
,
00000002
00000000
00000103
00000020
00000000
00001030
00001001
00000000
,
00000001
00000010
00000100
00001000
00000010
00000100
00001000
00021000
,
00000000
00030010
00001010
00000000
00011000
00000000
01010000
00000000
,
10000000
01000000
00100000
00020000
00000000
10030000
10010000
00000000
,
10000000
00100000
01000000
00010000
10000000
00010000
01000000
00100000
10000000
00010000
00100000
01000000
00010000
01000000
00010000
00001000
,
00100000
00010000
00100000
00001000
00010000
00000100
00001000
00000100
00000010
00000001
00001000
00000010
00000100
00001000
00000100
00001000
,
00010000
00000010
00001000
00000010
00000100
00000001
00001000
00000100
00000010
00001000
00000010
00001000
00010000
00000100
00010000
00001000
,
00100000
01000000
10000000
00010000
10000000
00100000
00010000
00001000
00010000
01000000
10000000
00010000
,
20020000
00000000
30030000
10010000
,
10000000
00100000
01000000
00010000
00100000
01000000
00010000
00012000
,
00000000
00103000
00110000
00000000
00011000
00000000
00001100
00000000
,
00000001
00000100
00001000
00021000
00000000
00031000
00011000
00000000
,
00010000
00000000
00200000
00000000
01300000
00000000
00001000
00010000
00001000
00000000
00010000
00000000
00001000
00000000
00000020
00000000
,
00000130
00000000
00001000
00000000
00000100
00000000
00010000
00001000
00010000
00000000
00000000
00000000
00011000
00000000
00000000
00000000
,
00001000
00100000
01000000
10000000
00010000
01000000
00001000
00010000
,
00000010
00000100
00000002
00000000
00000023
00000000
00020030
00000000
,
00000000
00000000
00000000
00000000
10030000
00000000
00100000
10000000
00100000
01000000
00010000
01000000
00001000
00000000
00012000
00000000
,
00103000
00000000
00000000
00000000
00000000
00000000
00001000
00000000
00000000
00010000
00000000
00000000
00001000
00000000
00000000
00000000
00000000
00000000
00000100
00000000
00000000
00000000
00000000
00000000
00000010
00000000
00000000
00000000
00000000
00000000
00001000
00000000
00000000
00000000
00000000
00000000
00000001
00000000
00001000
00000000
00000001
00000000
00001000
00000000
00000000
00000000
00000000
00000000
,
00000010
00000000
00000100
00000000
00000001
00000000
00000010
00000001
00000010
00000100
00001000
00000100
00010000
00000000
00021000
00000000
,
00030010
00000000
00010000
00001000
00010000
00000000
00001000
00000000
00100000
01000000
10000000
00010000
10000000
00100000
01000000
00010000
,
10000000
01000000
00100000
01000000
00010000
01000000
00100000
00010000
00100000
00001000
00010000
00001000
00010000
00000100
00001000
00000100
,
00000010
00000001
00001000
00000010
00000100
00001000
00000100
00000010
00001000
00000010
00010000
00001000
00010000
00001000
01000000
00010000
,
01000000
00100000
10000000
00010000
00100000
01000000
00100000
00010000
10000000
00100000
01000000
00100000
00010000
00001000
00010000
00001000
,
00000100
00000010
00001000
00000001
00000010
00000100
00001000
00000100
00010000
00001000
00010000
01000000
00100000
00010000
00100000
00001000
,
00020000
00000000
00000000
00000000
00130000
01000000
00100000
10000000
00020000
00000000
00130000
00000000
00101000
00000000
00001000
00010000
,
00002000
00000000
00000000
00000000
00003010
00000100
00000010
00000001
00002000
00000000
00003010
00000000
00010010
00000000
00010000
00001000
,
00020000
00000000
00030100
00010000
00012000
00000000
01003000
00000000
,
10000000
01000000
00100000
00010000
00001000
00000100
00000010
00000001
00001000
00000001
00000100
00000010
00001000
00010000
01000000
00100000
,
20000000
00000000
00000000
00000000
00000000
00000000
30010000
00100000
00010000
00100000
00000000
00000000
00001000
00010000
00001000
00010000
00000000
00000000
00000100
00001000
00000100
00001000
00000000
00000000
,
00000002
00000000
00000000
00000103
00000010
00001000
00001010
00000010
00010000
00011000
00001000
01000000
,
01010000
00010000
10000000
01000000
00010000
00001000
00000100
00000001
00000010
00001000
00010000
00100000
,
10000000
00000000
01000000
00100000
01000000
00000000
00010000
00000000
00001000
00000000
00000010
00000100
00000010
00000000
00000001
00000000
,
00000100
00001000
00010000
00100000
01000000
00100000
00010000
00001000
00000100
00000010
00000100
00001000
00010000
00100000
01000000
00100000
,
00010000
00001000
00000100
00000010
00000100
00001000
00010000
00100000
01000000
00100000
00010000
00001000
00000100
00000010
00000100
00001000
,
00010000
00022000
00000000
00000000
,
00000000
00000000
00000000
00000000
,
00033000
00000000
00000000
00000000
;
