#TITLE:FREAKY;
#SUBTITLE:;
#ARTIST:DE LITE & MC YOUNG;
#TITLETRANSLIT:;
#SUBTITLETRANSLIT:;
#ARTISTTRANSLIT:;
#GENRE:DANCEMANIA BASS 3;
#CREDIT:;
#MUSIC:FREAKY.ogg;
#BANNER:FREAKY.png;
#BACKGROUND:FREAKY-bg.png;
#CDTITLE:cdtitle.png;
#SAMPLESTART:0.000;
#SAMPLELENGTH:15.001;
#SELECTABLE:YES;
#OFFSET:0.000;
#BPMS:0.000=160.077;
#STOPS:;
#BGCHANGES:15.700=FREAKY.avi=1.000=0=0=1===CrossFade_Fastest==,
259.000=FREAKY-bg.png=1.000=0=0=1,
99999.000=-nosongbg-=1.000=0=0=0=StretchNoLoop====
;
#FGCHANGES:;

//--------------- dance-single - KAYSTAR ----------------
#NOTES:
     dance-single:
     KAYSTAR:
     Beginner:
     2:
     0,0,0,0,0:
0000
0000
0000
0000
,
0000
0000
0000
0000
,
0000
0000
0000
0000
,
0000
0000
0000
0000
,
1000
0000
0000
0000
,
1000
0000
0000
0000
,
0001
0000
0000
0000
,
0001
0000
0000
0000
,
0010
0000
0000
0000
,
0100
0000
0000
0000
,
1000
0000
0000
0000
,
0000
0000
0000
0000
,
0010
0000
0000
0000
,
0100
0000
0000
0000
,
0001
0000
0000
0000
,
0000
0000
0000
0000
,
1000
0000
1000
0000
,
1000
0000
0000
0000
,
0100
0000
0000
0000
,
0010
0000
0000
0000
,
0001
0000
0001
0000
,
0001
0000
0000
0000
,
0100
0000
0000
0000
,
0010
0000
0000
0000
,
1000
0000
0100
0000
,
0010
0000
0000
0000
,
0001
0000
0100
0000
,
0010
0000
0000
0000
,
1000
0000
1000
0000
,
0001
0000
0001
0000
,
0010
0010
0010
0000
,
0100
0100
0100
0000
,
2002
0000
0000
3003
,
0000
0000
0000
0000
,
0000
0000
0000
0000
,
0000
0000
0000
0000
,
1000
0000
0000
0000
,
0001
0000
0000
0000
,
0010
0000
0000
0000
,
0100
0000
0000
0000
,
1000
0000
0001
0000
,
0100
0000
0000
0000
,
0001
0000
1000
0000
,
0100
0000
0000
0000
,
0010
0000
0001
0000
,
1000
0000
0000
0000
,
0010
0000
1000
0000
,
0001
0000
0000
0000
,
0010
0000
0000
0000
,
0100
0000
0000
0000
,
1000
0000
0000
0000
,
0001
0000
0000
0000
,
0100
0000
0000
0000
,
0010
0000
0000
0000
,
1000
0000
0000
0000
,
0001
0000
0000
0000
,
0010
0000
0001
0000
,
0100
0000
0000
0000
,
0010
0000
1000
0000
,
0100
0000
0000
0000
,
1000
0000
1000
0000
,
0001
0000
0001
0000
,
0100
0100
0100
0000
,
0010
0010
0010
0000
,
2002
0000
0000
3003
;

//--------------- dance-single - KAYSTAR ----------------
#NOTES:
     dance-single:
     KAYSTAR:
     Easy:
     6:
     0,0,0,0,0:
0000
0000
0000
0000
,
0000
0000
0000
0000
,
0000
0000
0000
0000
,
0000
0000
0000
0000
,
0001
0001
0001
0000
,
1000
1000
1000
0000
,
0010
0010
0010
0000
,
2002
0000
3003
0000
,
1000
0000
0100
0000
,
0010
0000
0010
0000
,
0001
0000
1000
0000
,
0010
0000
0010
0000
,
0100
0000
0001
0000
,
1000
0000
1000
0000
,
0100
0000
0010
0000
,
0002
0000
0003
0000
,
0100
0100
0100
0000
,
0010
1000
0001
0000
,
0010
0010
0010
0000
,
0100
1000
0001
0000
,
0100
0000
0100
0000
,
0010
0000
0010
0000
,
1000
1000
0001
0001
,
0020
0000
0130
0000
,
1000
0010
1000
0001
,
0100
0001
1000
0100
,
0010
0001
0100
0000
,
0010
0010
0110
0000
,
1000
0100
0010
0001
,
1000
0010
0100
0001
,
0010
0010
0110
0000
,
0001
0100
0010
1000
,
0200
0000
0000
0000
,
0300
0000
0000
0000
,
1000
0000
1000
0000
,
1000
0000
0000
0000
,
0001
0000
0001
0000
,
0001
0000
0000
0000
,
0100
0000
0010
0000
,
1000
0001
0010
0100
,
1000
0001
0100
0000
,
0010
0010
0010
0000
,
1000
0001
0010
0000
,
0100
0100
0100
0000
,
1000
0010
0100
0000
,
0001
0001
0001
0000
,
0010
0100
1000
0000
,
2002
0000
3003
0000
,
0001
0000
0100
0000
,
0010
0000
1000
1000
,
1000
0000
0100
0000
,
0010
0000
0001
0001
,
0001
0000
0110
0000
,
1001
0000
1000
0100
,
0010
0000
0110
0000
,
1001
0000
0001
0100
,
0010
1000
0100
0010
,
0100
1000
0001
0100
,
0010
0100
0001
1000
,
0100
0100
0110
0000
,
0010
0001
0100
0010
,
0010
1000
0100
0010
,
0010
0001
0100
0010
,
1000
1000
0001
0001
,
0020
0000
0000
0030
;

//--------------- dance-single - KAYSTAR ----------------
#NOTES:
     dance-single:
     KAYSTAR:
     Medium:
     11:
     0,0,0,0,0:
0000
0000
0000
0000
,
0000
0000
0000
0000
,
0000
0000
0000
0000
,
0000
0000
0000
0000
,
1000
0000
0010
0100
0001
0000
0011
0000
,
1000
0000
0100
0002
0000
0103
0010
0000
,
0001
0000
0100
0010
1000
0000
1100
0000
,
0001
0100
1000
0110
,
0001
0100
0001
0100
0010
0000
1000
0000
,
0100
1000
0001
0000
0100
0000
0010
0000
,
1000
0100
1000
0100
0010
0000
0001
0000
,
0100
0001
1000
0000
0100
0000
0100
0000
,
1000
0010
1000
0010
0100
0000
0001
0000
,
0010
0001
1000
0000
0010
0000
0100
0000
,
0001
0010
0001
0010
0100
0000
1000
0000
,
2002
3000
1000
1003
,
0001
1000
0010
1000
0100
0000
0010
0000
,
0100
0001
0100
1000
0100
0010
0001
0000
,
1000
0001
0010
0001
0100
0000
0010
0000
,
0100
1000
0100
0001
0100
0010
1000
0000
,
0000
0100
1000
0000
0001
0010
0001
0100
,
0000
0010
1000
0000
0001
0100
0001
0010
,
0000
0100
1000
0000
0000
0001
0100
0000
,
0110
1001
0110
1001
,
0001
0000
0100
0000
0010
1000
0100
0000
,
0001
0000
0100
1000
0010
0000
0100
0000
,
0001
0000
0010
0010
0010
0000
1001
0000
,
0001
0100
1000
0100
0001
0100
0010
0000
,
1000
0000
0001
0100
0020
0000
0031
0000
,
0010
0000
1000
0100
0020
0000
1030
0000
,
0010
0000
0100
1000
0010
0000
0100
0001
,
0010
0011
0110
1100
,
2002
0000
3003
0000
,
0001
0000
0100
0001
0000
1000
0010
0000
,
2000
0000
3000
0000
,
0001
0010
0100
1000
0010
0100
0001
0000
,
0000
2000
3000
0200
0300
0002
0003
0020
,
0030
2000
3000
0001
0010
0001
0010
0100
,
0000
0000
0000
1000
0010
1000
0010
0100
,
0000
1001
0110
1001
,
0001
1000
0100
1000
0010
0000
0100
0000
,
0010
0001
0010
1000
0010
0100
0001
0000
,
1000
0001
0100
0001
0010
0000
0100
0000
,
0010
1000
0010
0001
0010
0100
1000
0000
,
0001
0100
1000
0100
0010
0000
0110
0000
,
1000
0100
0001
0100
0010
0000
0110
0000
,
0001
0100
0010
1000
0100
0010
0001
0000
,
2002
0000
0000
3003
,
1000
0010
1000
0100
,
0010
0000
0001
0000
0100
0100
0100
0000
,
0000
0010
1000
0001
,
0010
0000
0100
0000
1000
0000
0010
0010
,
0010
0000
0000
0100
0002
0000
0013
0100
,
2000
0000
3010
0100
0002
0000
0013
0100
,
1000
0000
0000
0100
0020
0000
0031
1000
,
0020
0000
1030
0001
0020
0000
0130
0000
,
1000
0000
0010
0000
0100
0001
0010
0000
,
1000
0000
0010
0001
0100
0000
0010
0000
,
1000
0000
0100
0100
0100
0000
1001
0000
,
1000
0010
0001
0010
1000
0010
0100
0000
,
0001
0000
1000
0010
0200
0000
1300
0000
,
0100
0000
0001
0010
0200
0000
0301
0000
,
0100
0000
0010
0001
0100
0000
0010
1000
,
0100
1100
0110
0011
,
1000
1000
1000
0000
0001
0001
0001
0000
;

//--------------- dance-single - KAYSTAR ----------------
#NOTES:
     dance-single:
     KAYSTAR:
     Hard:
     14:
     0,0,0,0,0:
0000
0000
0000
0000
,
0000
0000
0000
0000
,
0000
0000
0000
0000
,
0000
0000
0000
0000
,
0001
0100
0001
0100
0001
0000
0000
0000
1000
0000
0100
0010
0000
0000
0001
0000
,
0100
0010
0100
0010
0100
0000
0040
0000
0000
0000
0030
0000
1001
0000
0000
0000
,
1000
0100
1000
0100
1000
0000
0000
0000
0001
0000
0100
0010
0000
0000
1000
0000
,
2200
0000
3300
0000
0220
0000
0330
0000
0022
0000
0033
0000
0001
1000
0001
1000
,
0001
0000
0100
0000
0010
0000
1000
0000
0100
0000
0000
1000
0001
0000
0000
0000
,
0100
0001
0010
0000
0100
1000
0010
0000
,
1000
0000
0100
0000
0010
0000
0001
0000
0100
0000
0000
0001
1000
0000
0100
0000
,
0020
0000
0031
0100
0010
0010
0010
0000
,
1000
0000
0001
0000
0100
0000
0001
0000
0010
0000
0000
0010
0001
0000
1000
0000
,
0100
1000
0000
0001
0100
0000
0010
0000
1000
0000
1000
0000
1001
0000
0000
0000
,
0001
0000
1000
0000
0100
0000
1000
0000
0010
0000
0000
0010
1000
0000
0001
0000
,
0010
0001
0010
0000
0100
1000
0100
0000
2000
0000
0001
0000
3001
0000
0000
0000
,
1000
0010
0100
1000
0100
0001
1000
0000
,
0100
1000
0100
0000
0010
0000
0001
0000
0100
0001
0100
0000
0010
0000
0000
0000
,
1000
0001
0010
0100
0001
0100
1000
0000
,
0001
0100
0000
0010
1000
0000
0001
0000
1000
0100
1000
0000
0001
0010
0001
0000
,
1000
0010
0200
0000
1300
0100
0010
1000
,
0001
0010
0200
0000
0301
0100
0010
0001
,
1000
0010
0200
0000
0301
0010
0200
0000
,
1300
0001
1000
0000
0001
1000
0001
0000
0200
0000
0010
0000
0310
0000
0000
0000
,
1000
0000
0000
1000
0100
0000
0010
0000
1000
0000
0010
0000
0100
0000
0001
0000
,
0100
0000
0010
0000
0001
0000
1000
0000
0100
0010
0100
0010
0100
0000
1000
0000
,
0001
0000
0000
0001
0100
0000
0010
0000
0001
0000
0010
0000
0100
0000
1000
0000
,
0100
0010
0100
0000
1000
0000
0100
0010
0100
0000
0001
0000
2000
0000
0000
0000
,
3100
0000
0010
0000
1000
0000
0010
0000
0012
0003
0000
0000
0102
0003
0000
0000
,
0100
0000
0010
0000
0001
0000
0010
0000
2010
3000
0000
0000
2100
3000
0000
0000
,
0001
0000
0000
0100
0001
0000
0001
0000
0010
0000
0000
0100
1000
0000
1000
0000
,
0010
1000
0010
0000
0100
0001
0100
0000
0002
0000
1000
0000
1003
0000
0000
0000
,
0002
0010
0000
0103
,
0201
0000
0310
1020
0000
0130
0001
0000
,
2000
0100
0000
3010
,
0100
0000
0001
1000
0000
0001
1000
0000
0100
0010
0000
0100
0020
0000
0000
0000
,
0031
4000
3000
0004
0003
4000
3000
0004
,
0003
4000
3000
0001
0100
0010
0100
2000
,
0000
0000
3100
0000
0010
0000
1000
0001
0000
0000
0010
0100
0000
0000
0002
0000
,
0000
0000
0103
0000
0010
0000
0001
1000
0040
0030
1000
0001
0040
0030
0000
0000
,
0001
0000
1000
0000
0100
0000
1000
0000
0010
0000
0100
0001
0100
0000
0001
0000
,
1000
0100
0000
1000
0000
0010
1000
0000
0001
0000
0001
0000
0011
0000
0000
0000
,
1000
0000
0001
0000
0010
0000
0001
0000
0100
0000
0010
1000
0010
0000
1000
0000
,
0001
0010
0000
0001
0000
0100
0001
0000
1000
0000
1000
0000
1100
0000
0000
0000
,
0001
0000
1000
0000
0010
0000
0100
0000
1000
0000
0100
0010
0100
0000
0001
0000
,
1000
0100
0000
0010
0100
0000
1000
0000
0001
0000
0001
0000
0101
0000
0000
0000
,
1000
0000
0001
0000
0010
0000
0100
0000
0001
0000
0100
0010
0100
0000
1000
0000
,
0002
0000
0000
1003
,
0001
0000
0100
0001
0100
0001
0100
0000
0000
0000
0010
1000
0010
1000
0010
0000
,
1000
0000
0000
0100
0000
0010
0000
0000
0001
1000
0001
1000
0001
0000
1001
0000
,
0000
0000
0000
1000
0100
0010
0000
0001
1000
0000
0010
0100
0001
0000
0000
0000
,
1000
0100
1000
0000
0001
0000
0010
0001
0010
0000
0001
1000
0000
0010
0100
0000
,
0110
0000
0000
0010
1000
0000
0100
0000
0040
0000
0000
0000
1030
0000
0001
0000
,
0400
0000
0000
0000
0310
0000
0001
0000
1000
0010
0100
0000
0001
0000
0010
0000
,
0110
0000
0000
0100
1000
0000
0010
0000
0400
0000
0000
0000
1300
0000
0001
0000
,
0040
0000
0000
0000
0130
0000
0001
1000
0100
0000
0010
0000
0001
1000
0001
1000
,
0001
0000
0000
0001
0100
0000
0010
0000
1000
0000
0001
0000
0010
0100
0010
0000
,
1000
0000
0010
0100
0010
0000
0001
0000
1000
0010
1000
0010
0100
0000
0001
0000
,
1000
0000
0000
1000
0100
0000
0010
0000
0001
0000
1000
0000
0010
0100
0010
0000
,
0001
0000
0010
0100
0010
0000
1000
0000
0001
0010
0001
0010
0100
0000
1000
0000
,
0010
0000
0100
0000
1000
0000
0100
0000
0001
0000
0010
0000
0012
0003
0000
0000
,
0010
0000
0100
0000
0001
0000
0100
0000
1000
0000
0010
0000
2010
3000
0000
0000
,
0001
0000
0000
0010
0001
0000
0001
0000
0100
0000
0000
0010
1000
0000
1000
0000
,
0100
1000
0100
0000
0010
0001
0010
0000
0001
0100
0001
0000
1000
0010
1000
0000
,
0200
0010
0310
0001
0200
0010
0310
0000
;

//--------------- dance-double - KAYSTAR ----------------
#NOTES:
     dance-double:
     KAYSTAR:
     Easy:
     6:
     0,0,0,0,0:
00000000
00000000
00000000
00000000
,
00000000
00000000
00000000
00000000
,
00000000
00000000
00000000
00000000
,
00000000
00000000
00000000
00000000
,
00001000
00001000
00001000
00000000
,
00010000
00010000
00010000
00000000
,
00001000
00001000
00001000
00000000
,
00010000
00010000
00010000
00000000
,
00100000
00000000
01000000
00000000
,
00010000
00000000
00000000
00000000
,
10000000
00000000
01000000
00000000
,
00010000
00000000
00000000
00000000
,
00001000
00000000
00000010
00000000
,
00000001
00000000
00000000
00000000
,
00001000
00000000
00000010
00000000
,
00000100
00000000
00000000
00000000
,
00000001
00001000
00000100
00000000
,
00000010
00000010
00000010
00000000
,
00000001
00001000
00000010
00000000
,
00000100
00000100
00000100
00000000
,
00000010
00010000
00001000
00000000
,
00010000
00001000
01000000
00000000
,
00010000
00100000
01000000
00000000
,
20000000
00000000
30000000
00000000
,
10000000
00100000
01000000
00000000
,
00010000
00100000
01000000
00000000
,
00010000
00001000
00011000
00000000
,
00000100
00000010
00000001
00001000
,
00000010
00000100
00000100
00000001
,
00000000
00001000
00001000
00000100
,
00000000
00000010
00000001
00001000
,
00000010
00000100
00001000
00010000
,
00022000
00000000
00000000
00000000
,
00033000
00000000
00000000
00000000
,
00010000
00000000
00100000
00000000
,
01000000
00000000
00001000
00000000
,
00010000
00000000
00001000
00000000
,
00000010
00000000
00000100
00000000
,
00010000
00000000
00001000
00000000
,
01000000
01000000
00100000
00100000
,
10000000
00010000
00100000
00000000
,
01000000
01000000
01000000
00000000
,
10000000
00010000
01000000
00000000
,
00100000
00100000
00100000
00000000
,
01000000
00001000
00010000
00000000
,
00001000
00010000
00000010
00000000
,
00001000
00000100
00000010
00000000
,
00000002
00000000
00000003
00000000
,
00000001
00000000
00000100
00000000
,
00001000
00000000
00010000
00000000
,
00001000
00000000
00000010
00000000
,
00001000
00000000
00010000
00000000
,
00100000
00000000
01000000
00000000
,
00010000
00000000
10000000
00000000
,
01000000
00000000
00010000
00000000
,
00001000
00000000
00000010
00000000
,
00000001
00000100
00000010
00000000
,
00001000
00000100
00000010
00000000
,
00001000
00010000
00011000
00000000
,
00100000
01000000
10000000
00010000
,
01000000
00100000
00100000
10000000
,
00000000
00010000
00010000
00100000
,
00000000
01000000
10000000
00010000
,
01000000
00100000
00010000
00001000
,
00022000
00000000
00000000
00033000
;

//--------------- dance-double - KAYSTAR ----------------
#NOTES:
     dance-double:
     KAYSTAR:
     Medium:
     11:
     0,0,0,0,0:
00000000
00000000
00000000
00000000
,
00000000
00000000
00000000
00000000
,
00000000
00000000
00000000
00000000
,
00000000
00000000
00000000
00000000
,
10000000
00010000
00100000
00000000
01000000
00000000
11000000
00000000
,
10000000
00100000
01000000
00000000
00002000
00000000
00013000
00000000
,
00000100
00001000
00000001
00000000
00000010
00000000
00000011
00000000
,
00002002
00000000
00000000
00003003
,
00001000
00000010
00001000
00000010
00000100
00000000
00000001
00000000
,
00000010
00000000
00000100
00000000
00001000
00000001
00000100
00000000
,
00000010
00001000
00000001
00001000
00000001
00000000
00000010
00000000
,
00001000
00010000
00100000
10000000
,
00010000
00100000
00010000
00100000
01000000
00000000
10000000
00000000
,
00100000
00000000
01000000
00000000
00010000
10000000
01000000
00000000
,
00100000
00010000
10000000
00010000
10000000
00000000
00100000
00000000
,
00020000
00000000
00001000
00031000
,
00010000
00000010
00001000
00000010
00010000
00000000
00001000
00000000
,
00000100
00000010
00000100
00000001
00001000
00000100
00010000
00000000
,
00001000
00100000
00010000
00100000
00001000
00000000
00010000
00000000
,
01000000
00100000
01000000
10000000
00010000
01000000
00001000
00000000
,
00000000
00010000
00000010
00001000
00000010
00000100
00000001
00000000
,
00000000
00001000
00000001
00000010
00000100
00001000
00000100
00000000
,
00010000
00001000
00010000
00000000
00001000
00010000
00001000
00000000
,
01000000
01010000
01100000
10100000
,
10000000
00000000
01000000
10000000
01000000
00000000
00010000
00000000
,
00001000
00010000
00100000
00000000
00010000
00000000
00011000
00000000
,
00001000
00000000
00000010
00001000
00010000
00000000
00001000
00000000
,
00000100
00000001
00000100
00000000
00000010
00000000
00001000
00000000
,
00001001
00000000
00000001
00001000
00000200
00000000
00000310
00000000
,
00000001
00000000
00001000
00000001
00000200
00000000
00000310
00000000
,
00000100
00000000
00001000
00010000
00100000
00000000
01000000
00000000
,
01100000
10100000
11000000
01100000
,
20020000
00000000
00000000
30030000
,
00010000
00000000
00100000
00010000
00000000
10000000
01000000
00000000
,
00020000
00000000
00000000
00031000
,
00010000
00000000
00000010
00001000
00000000
00000001
00000100
00000000
,
00002000
00000000
00000000
00013000
,
00001000
00000000
00100000
00010000
00100000
01000000
10000000
00010000
,
00000000
00000000
00000000
01000000
00010000
01000000
00100000
10000000
,
00010000
00100000
00001000
00011000
,
00010000
00000010
00001000
00000010
00010000
00000000
00001000
00000000
,
00000100
00000010
00000100
00000001
00001000
00000100
00010000
00000000
,
00001000
00100000
00010000
00100000
00001000
00000000
00010000
00000000
,
01000000
00100000
01000000
10000000
00010000
01000000
00001000
00000000
,
00010000
00000010
00001000
00000010
00000100
00000001
00001000
00000000
,
00000100
00000010
00000001
00000000
00000100
00001000
00010000
00000000
,
00001000
00100000
00010000
00100000
01000000
10000000
00010000
00000000
,
02000000
00000000
00100000
03100000
,
10000000
00010000
00100000
01000000
,
00010000
00001000
00010000
00100000
,
00010000
00001000
00000010
00002000
,
00000000
00013000
00001000
00000100
,
00000001
00000000
00000010
00000001
00000010
00000000
00001000
00000010
,
00001000
00000000
00010000
00001000
00010000
00000000
01000000
00000000
,
10000000
00000000
00100000
10000000
00100000
00000000
00010000
00100000
,
00010000
00000000
00001000
00010000
00001000
00000000
00000100
00000000
,
00000001
00000000
00000010
00000001
00000010
00000000
00001000
00000000
,
00010000
00001000
00000100
00000000
00001000
00000000
00011000
00000000
,
00010000
00000000
01000000
00010000
00001000
00000000
00010000
00000000
,
00100000
10000000
00100000
00000000
01000000
00000000
00010000
00000000
,
10010000
00000000
10000000
00010000
00200000
00000000
01300000
00000000
,
10000000
00000000
00010000
10000000
00200000
00000000
01300000
00000000
,
00100000
00000000
00010000
00001000
00000100
00000000
00000010
00000000
,
00000110
00001010
00001100
00000110
,
00000001
00000001
00000001
00000000
00001000
00001000
00001000
00000000
;

//--------------- dance-double - KAYSTAR ----------------
#NOTES:
     dance-double:
     KAYSTAR:
     Hard:
     14:
     0,0,0,0,0:
00000000
00000000
00000000
00000000
,
00000000
00000000
00000000
00000000
,
00000000
00000000
00000000
00000000
,
00000000
00000000
00000000
00000000
,
10000000
00010000
10000000
00010000
10000000
00000000
00000000
00000000
00010000
00000000
00100000
01000000
00000000
00000000
10000000
00000000
,
00010000
01000000
00010000
01000000
00001000
00000000
00040000
00000000
00000000
00000000
00030000
00000000
00011000
00000000
00000000
00000000
,
00010000
00000100
00001000
00000100
00001000
00000000
00000000
00000000
00000001
00000000
00000100
00000010
00000000
00000000
00001000
00000000
,
00002200
00000000
00003300
00000000
00000220
00000000
00000330
00000000
00000022
00000000
00000033
00000000
00000001
00001000
00000001
00001000
,
00000001
00000100
00000010
00010000
00001000
01000000
00010000
00000000
,
10000000
01000000
00200000
00000000
00310000
01000000
00200000
00000000
,
10300000
01000000
00100000
00001000
00010000
00000100
00001000
00000000
,
00000002
00000000
00000103
00000010
00001000
00001000
00001000
00000000
,
00000001
00000010
00000100
00010000
00001000
00100000
00010000
00000000
,
10000000
00100000
00000000
01000000
00010000
00000000
00100000
00000000
00001000
00000000
00011000
00000000
00011000
00000000
00000000
00000000
,
01000000
00010000
10000000
01000000
00100000
00010000
01000000
00001000
,
00022000
00000000
00003000
00000000
00001000
00001000
00031000
00000000
,
00010000
00000000
00000010
00000000
00001000
00000000
00000100
00000000
00000010
00000000
00000000
00000010
00000001
00000000
00001000
00000000
,
00000010
00001000
00000010
00000000
00000100
00000000
00000001
00000000
00000010
00000001
00000010
00000000
00000100
00000000
00010000
00000000
,
00001000
00000000
00100000
00000000
00010000
00000000
01000000
00000000
00100000
00000000
00000000
00100000
10000000
00000000
00010000
00000000
,
00100000
00010000
00100000
00000000
01000000
00000000
10000000
00000000
00100000
10000000
00100000
00000000
01000000
00000000
00001000
00000000
,
00010000
00100000
02000000
00000000
03010000
00100000
01000000
00010000
,
00001000
00000010
00000200
00000000
00001300
00000010
00000100
00001000
,
00010000
00000000
00100000
00000000
02000000
00000000
00000000
00000000
03010000
00000000
10000000
00010000
10000000
00000000
00000000
00000000
,
22000000
33000000
00220000
00330000
02020000
03030000
20200000
30300000
,
10000000
00000000
00000000
10000000
01000000
00000000
00100000
00000000
10000000
00000000
00100000
00000000
00020000
00000000
00000000
00000000
,
00031000
00000000
00000100
00000000
00000001
00000000
00000100
00000000
00001000
00000001
00001000
00000001
00001000
00000000
00000000
00000000
,
00000001
00000000
00000000
00000001
00000100
00000000
00000010
00000000
00000001
00000000
00000010
00000000
00002000
00000000
00000000
00000000
,
00013000
00000000
01000000
00100000
01000000
00000000
10000000
00000000
01000000
00100000
01000000
00000000
00010000
00000000
00000000
00000000
,
10000000
01000000
00010000
00001000
00010000
00100000
00020000
00000000
,
00031000
00000010
00001000
00010000
00001000
00000100
00000001
00000000
,
00000010
00000000
00000000
00000100
00001000
00000000
00001000
00000000
00000001
00000000
00000000
00000100
00001000
00000000
00001000
00000000
,
00010000
00100000
00000000
00000000
00100000
10000000
00000000
00000000
10000000
01000000
00000000
00000000
01000000
00010000
00000000
00000000
,
00022000
00000000
00000000
00033000
,
00000100
00000000
00001000
00000001
00000000
00000100
00001000
00000000
,
00022000
00000000
00000000
00033000
,
01000000
00000000
00010000
10000000
00000000
01000000
00010000
00000000
,
00000000
00004000
00003000
00040000
00030000
00004000
00003000
00040000
,
00030000
00004000
00003000
00010000
00000010
00000100
00001000
00020000
,
00000000
00000000
00031000
00000000
00100000
01000000
00010000
00002000
,
00000000
00000000
00010000
00000000
00013000
00000000
00000010
00001000
00000010
00000000
00000100
00000001
00000100
00000000
00000000
00000000
,
00000001
00000000
00001000
00000000
00000010
00000000
00001000
00000000
00000100
00000000
00000010
00000001
00000010
00000000
00000001
00000000
,
00001000
00000010
00000000
00000010
00000000
00010000
00001000
00000000
01000000
00000000
01000000
00000000
01010000
00000000
00000000
00000000
,
10000000
00000000
00010000
00000000
00100000
00000000
00010000
00000000
01000000
00000000
00100000
10000000
00100000
00000000
10000000
00000000
,
00010000
00100000
00000000
00100000
00000000
00001000
00010000
00000000
00000100
00000000
00000100
00000000
00001100
00000000
00000000
00000000
,
00000001
00000000
00001000
00000000
00000010
00000000
00000100
00000000
00000001
00000000
00000010
00000100
00000010
00000000
00000001
00000000
,
00001000
00000010
00000000
00000100
00002000
00000000
00000000
00000000
00013000
00000000
00011000
00000000
00011000
00000000
00000000
00000000
,
00100000
00000000
00010000
00000000
01000000
00000000
00100000
00000000
10000000
00000000
01000000
00100000
01000000
00000000
00010000
00000000
,
00022000
00000000
00003000
00000000
00001000
00001000
00031000
00000000
,
00010000
00001000
00000010
00000001
00000010
00000100
00010000
00001000
,
00000100
00000000
00000001
00000000
00000010
00000000
00000100
00000000
00010000
00001000
00010000
00001000
00020000
00000000
00000000
00000000
,
00031000
00010000
00100000
10000000
00100000
01000000
00001000
00010000
,
01000000
00000000
10000000
00000000
00100000
00000000
01000000
00000000
00001000
00010000
00001000
00010000
00001000
00000000
00000000
00000000
,
00011000
00000000
00000000
00010000
00001000
00000000
00100000
00000000
04000000
00000000
00000000
00000000
13000000
00000000
00100000
00000000
,
04000000
00000000
00000000
00000000
03010000
00000000
00100000
00000000
01000000
00000000
00010000
00001000
00010000
00000000
00000000
00000000
,
00011000
00000000
00000000
00001000
00010000
00000000
00000010
00000000
00000400
00000000
00000000
00000000
00000301
00000000
00000010
00000000
,
00000400
00000000
00000000
00000000
00001300
00000000
00000001
00000100
00000010
00000000
00001000
00000000
00000001
00001000
00000001
00001000
,
00000001
00000000
00000000
00000001
00000010
00000000
00000100
00000000
00000001
00000000
00000100
00000000
00002000
00000000
00000000
00000000
,
00013000
00000000
00100000
00000000
10000000
00000000
00100000
00000000
00010000
10000000
00010000
10000000
00010000
00000000
00000000
00000000
,
10000000
00000000
00000000
10000000
00100000
00000000
01000000
00000000
10000000
00000000
01000000
00000000
00020000
00000000
00000000
00000000
,
00031000
00000000
00000010
00000100
00000010
00000000
00000001
00000000
00000010
00000100
00000010
00000000
00001000
00000000
00000000
00000000
,
00000001
00000010
00001000
00010000
00001000
00000100
00002000
00000000
,
00013000
01000000
00010000
00001000
00010000
00100000
10000000
00000000
,
01000000
00000000
00000000
00100000
00010000
00000000
00010000
00000000
10000000
00000000
00000000
00100000
00010000
00000000
00010000
00000000
,
00001000
00000100
00000000
00000000
00000100
00000001
00000000
00000000
00000001
00000010
00000000
00000000
00000010
00001000
00000000
00000000
,
00010000
01000000
10000000
00100000
01000000
00010000
10010000
00000000
;

//--------------- dance-solo - KAYSTAR ----------------
#NOTES:
     dance-solo:
     KAYSTAR:
     Easy:
     6:
     0,0,0,0,0:
000000
000000
000000
000000
,
000000
000000
000000
000000
,
000000
000000
000000
000000
,
000000
000000
000000
000000
,
100000
100000
100000
000000
,
000010
000010
000010
000000
,
010000
010000
010000
000000
,
000001
000001
000001
000000
,
100000
000000
000100
000000
,
001000
001000
001000
000000
,
000001
000000
000100
000000
,
001000
001000
001000
000000
,
010000
000000
000001
000000
,
100000
100000
100000
000000
,
000010
000000
001000
000000
,
000001
000001
000001
000000
,
100000
001000
100000
000000
,
000100
000100
000100
000000
,
001000
000001
001000
000000
,
000100
000100
000100
000000
,
100000
000000
000010
000000
,
010000
000000
000001
000000
,
000100
000100
000100
000000
,
001000
001000
001000
000000
,
100000
000100
100000
000100
,
001000
000001
001000
000001
,
020000
000000
030010
000000
,
100000
000001
100000
000001
,
020000
000000
031000
100000
,
000020
000000
001030
000001
,
000100
000100
001000
001000
,
200000
300020
020030
030002
,
100003
000000
000000
000000
,
000000
000000
000000
000000
,
000000
000000
000000
000000
,
000000
000000
000000
000000
,
100000
000000
000100
000000
,
001000
000000
000001
000000
,
100000
000000
001000
000000
,
000100
000000
000001
000000
,
100000
100000
100000
000000
,
000100
010000
000010
000100
,
000001
000001
000001
000000
,
001000
000100
200000
300000
,
000001
000001
000001
000000
,
000100
000010
010000
000100
,
100000
100000
100000
000000
,
001000
000100
000002
000003
,
100000
000000
001000
000000
,
010000
000000
000100
100000
,
000001
000000
001000
000000
,
000010
000000
000100
000001
,
100000
000000
002000
003000
,
002000
003000
001000
100000
,
000001
000000
002000
003000
,
002000
003000
001000
000000
,
000001
000100
000001
000100
,
001000
100000
001000
100000
,
000020
000000
010030
000000
,
000001
100000
000001
100000
,
000020
000000
001030
000001
,
020000
000000
031000
100000
,
000100
000100
001000
001000
,
000002
020003
030020
200030
,
301000
001000
000100
000100
;

//--------------- dance-solo - KAYSTAR ----------------
#NOTES:
     dance-solo:
     KAYSTAR:
     Medium:
     11:
     0,0,0,0,0:
000000
000000
000000
000000
,
000000
000000
000000
000000
,
000000
000000
000000
000000
,
000000
000000
000000
000000
,
100000
000000
000100
100000
000100
000000
001000
000000
,
000001
100000
000001
000000
010000
000000
010010
000000
,
000001
000000
000100
000001
000100
000000
001000
000000
,
200000
000000
000001
300001
,
100000
000000
000100
001000
000001
000000
000100
000000
,
001000
100000
001000
000000
010000
001000
010000
000000
,
000001
000000
100000
001000
000100
000000
000001
000000
,
002000
000000
003100
000000
100000
100000
100000
000000
,
000001
000000
000100
001000
100000
000000
000100
000000
,
001000
000001
001000
000000
000010
001000
000010
000000
,
100000
000000
000001
001000
000100
000000
100000
000000
,
002000
000000
003100
000000
000001
000001
000001
000000
,
100000
000000
000100
010000
000100
000000
100000
000000
,
001000
000100
000001
000100
001000
000000
100000
000000
,
000001
000000
000100
000010
000100
000000
000001
000000
,
001000
000100
100000
000100
001000
000000
000001
000000
,
010000
000010
010000
000000
000100
000000
100000
000000
,
000010
010000
000010
000000
000100
000000
000001
000000
,
001000
001000
001000
000000
000100
000100
000100
000000
,
200000
302000
003200
000302
,
100003
000000
000100
010000
000100
000000
100000
000000
,
001000
010000
001000
000000
000100
000000
000001
000000
,
001000
000010
100000
000000
001000
010000
000001
000000
,
001000
100000
001000
000001
,
100000
000000
001000
010000
000001
000000
000101
000000
,
000001
000000
001000
000010
100000
000000
100100
000000
,
100000
000000
000001
000100
000010
000000
010000
000100
,
100000
100100
001001
100001
,
200002
000000
000000
000000
,
300003
000000
000000
000000
,
000001
000000
001000
000010
001000
000000
000001
000000
,
200000
000000
300100
000000
,
100000
000000
001000
010000
001000
000000
100000
000000
,
000002
000000
000103
000000
,
000001
001000
000100
100000
,
001000
010000
000010
010010
,
010000
000000
000001
000100
000001
000000
001000
000000
,
000100
100000
000001
100000
001000
000000
000100
000000
,
000010
000000
100000
000100
100000
000000
001000
000000
,
000100
000001
100000
000001
001000
000000
000100
000000
,
100000
000000
000010
010000
000010
000000
000100
000000
,
000001
001000
000100
000000
100000
100000
100000
000000
,
000001
000000
010000
000010
010000
000000
000100
000000
,
100000
001000
000100
000000
000001
000001
000001
000000
,
001000
000010
010000
001000
,
100000
000100
001000
000001
,
010000
000010
001000
000010
,
010000
001000
100000
000100
,
001000
000000
000001
000000
000200
000000
001300
100000
,
000200
000000
001300
000001
000200
000000
001300
000000
,
100001
000000
100000
000000
000200
000000
001300
000001
,
000200
000000
001300
100000
000200
000000
001300
000000
,
000001
000000
000100
000010
000100
000000
000001
000000
,
001000
000010
001000
000000
000100
000000
100000
000000
,
001000
010000
000001
000000
001000
000010
100000
000000
,
001000
000001
001000
100000
,
000001
000000
001000
000010
100000
000000
100100
000000
,
100000
000000
001000
010000
000001
000000
000101
000000
,
000001
000000
100000
000100
010000
000000
000010
000100
,
000001
000101
101000
100001
,
000100
100000
001000
000000
000100
000001
001000
000000
;

//--------------- dance-solo - KAYSTAR ----------------
#NOTES:
     dance-solo:
     KAYSTAR:
     Hard:
     14:
     0,0,0,0,0:
000000
000000
000000
000000
,
000000
000000
000000
000000
,
000000
000000
000000
000000
,
000000
000000
000000
000000
,
100000
001000
100000
001000
100000
000000
000000
000000
000001
000000
001000
000100
000000
000000
100000
000000
,
000010
010000
000010
010000
000010
000000
000400
000000
000000
000000
000300
000000
100001
000000
000000
000000
,
000001
001000
000001
001000
000001
000000
000000
000000
100000
000000
001000
000100
000000
000000
000001
000000
,
002002
000000
003003
000000
002200
000000
003300
000000
200200
000000
300300
000000
100000
000001
100000
000001
,
100000
000000
001000
000000
010000
000000
001000
000000
100000
000000
000000
000001
100000
000000
000000
000000
,
000100
001000
000001
000000
100000
001000
000100
000000
,
000001
000000
001000
000000
000010
000000
001000
000000
000001
000000
000000
100000
000001
000000
000000
000000
,
000200
000000
001300
100000
000100
000100
000100
000000
,
001000
000000
000001
000000
100000
000000
001000
000000
010000
000000
000000
010000
000010
000000
000000
000000
,
001000
000001
000000
000001
000000
100000
001000
000000
000100
000000
000100
000000
000100
000000
000000
000000
,
001000
000000
100000
000000
000001
000000
001000
000000
000010
000000
000000
000010
010000
000000
001000
000000
,
000200
000000
000300
000000
,
000001
000000
001000
000000
000010
000000
001000
000000
000100
000000
000000
000100
100000
000000
000000
000000
,
001000
100000
001000
000000
010000
000000
000001
000000
001000
000001
001000
000000
000010
000000
000000
000000
,
100000
000000
001000
000000
010000
000000
001000
000000
000100
000000
000000
000100
000001
000000
000000
000000
,
001000
000001
001000
000000
000010
000000
100000
000000
001000
100000
001000
000000
010000
000000
000000
000000
,
000001
001000
000200
000000
000301
000100
001000
000001
,
100000
001000
000200
000000
100300
000100
001000
100000
,
000001
001000
000020
000000
100030
001000
020000
000000
,
030001
000100
000001
000000
100000
001000
100000
000000
000002
000000
100000
000000
100003
000000
000000
000000
,
000100
000000
000000
000100
001000
000000
010000
000000
100000
000000
010000
000000
001000
000000
000010
000000
,
000001
000000
000010
000000
001000
000000
000100
000000
100000
000001
100000
000001
100000
000000
000001
000000
,
000100
000000
000000
000100
001000
000000
000010
000000
000001
000000
000010
000000
001000
000000
000100
000000
,
100000
010000
100000
000000
000100
000000
100000
010000
100000
000000
000100
000000
002000
000000
000000
000000
,
013000
000001
100000
000010
002010
000000
100000
000000
,
003100
100000
000001
010000
012000
000000
000001
000000
,
003100
000001
010000
000010
100000
000100
001000
000001
,
100000
000001
100000
000000
001000
100000
001000
000000
000100
000001
000100
000000
000001
100000
000001
100000
,
000002
001000
000000
001003
,
000100
000000
100000
000010
000000
010000
000001
000000
,
200000
001000
000000
301000
,
000100
000000
000001
010000
000000
010000
000010
000000
000010
100000
000000
000001
002000
000000
000000
000000
,
003100
400000
300000
000004
000003
400000
300000
000004
,
000003
400000
300000
001000
000100
000001
000100
002000
,
000000
103000
000001
001000
000100
100000
000100
002000
,
000000
000000
003001
000000
100000
000000
001000
100000
001000
000000
000100
000001
000100
000000
000001
000000
,
100000
000000
000100
000000
001000
000000
000001
000000
100000
000000
001000
010000
001000
000000
000100
000000
,
000001
010000
000000
000010
000000
000010
100000
000000
000100
000000
000100
000000
100100
000000
000000
000000
,
000001
000000
000100
000000
001000
000000
100000
000000
000001
000000
001000
000010
001000
000000
000100
000000
,
100000
000010
000000
010000
000000
010000
000001
000000
000100
000000
000100
000000
000101
000000
000000
000000
,
100000
000000
000100
000000
001000
000000
000001
000000
100000
000000
001000
000100
001000
000000
010000
000000
,
000010
001000
000000
000100
000000
000100
100000
000000
001000
000000
001100
000000
001100
000000
000000
000000
,
000001
000000
001000
000000
000010
000000
100000
000000
001000
000000
010000
000000
000001
000000
100000
000002
,
200000
000000
300003
100001
,
000001
001000
000010
001000
000100
001000
000010
001000
,
000001
000000
100000
000000
001000
000000
000100
000000
000001
100000
000001
100000
000001
000000
000000
000000
,
100000
001000
010000
001000
000100
001000
010000
001000
,
100000
000000
000001
000000
001000
000000
000100
000000
100000
000010
000000
010000
000001
000000
000100
000000
,
002000
000000
000000
000000
103000
000000
000000
000000
000044
000033
000000
000000
100000
000000
000000
000000
,
000044
000033
000000
000000
100000
000000
000000
000000
000044
000033
000000
000000
100000
000000
000100
000000
,
001000
000000
000000
000000
000001
000000
000000
000000
440000
330000
000000
000000
000001
000000
000000
000000
,
440000
330000
000000
000000
000001
000000
000000
000000
440000
330000
000000
000000
000001
100000
000001
000000
,
000100
000000
000000
000100
001000
000000
000010
000000
000001
000000
000010
000000
001000
000000
010000
000000
,
100000
000000
010000
000000
001000
000000
000100
000000
000001
100000
000001
100000
000001
000000
100000
000000
,
000100
000000
000000
000100
001000
000000
010000
000000
100000
000000
010000
000000
001000
000000
000100
000000
,
000001
000010
000001
000000
000100
000000
000001
000010
000001
000000
000100
000000
002000
000000
000000
000000
,
003010
100000
000001
010000
012000
000000
000001
000000
,
003100
000001
100000
000010
002010
000000
100000
000000
,
003100
100000
000010
010000
000001
000100
001000
100000
,
000001
100000
000001
000000
001000
000001
001000
000000
000100
100000
000100
000000
100000
000001
100000
000001
,
200000
001000
301000
000100
000002
001000
001003
000000
;
