#VERSION:0.83;
#TITLE:ファボタージュ;
#SUBTITLE:;
#ARTIST:YYY;
#TITLETRANSLIT:FAVOTAGE;
#SUBTITLETRANSLIT:;
#ARTISTTRANSLIT:;
#GENRE:SOCIALMEDIA IDOL;
#ORIGIN:;
#CREDIT:;
#BANNER:FAVOTAGE.png;
#BACKGROUND:FAVOTAGE-bg.png;
#PREVIEWVID:;
#JACKET:FAVOTAGE-jacket.png;
#CDIMAGE:;
#DISCIMAGE:;
#LYRICSPATH:;
#CDTITLE:;
#MUSIC:FAVOTAGE.ogg;
#OFFSET:-0.362517;
#SAMPLESTART:63.080009;
#SAMPLELENGTH:12.000000;
#SELECTABLE:YES;
#BPMS:0.000=121.000;
#STOPS:;
#DELAYS:;
#WARPS:;
#TIMESIGNATURES:0.000=4=4;
#TICKCOUNTS:0.000=4;
#COMBOS:0.000=1;
#SPEEDS:0.000=1.000=0.000=0;
#SCROLLS:0.000=1.000;
#FAKES:;
#LABELS:0.000=Song Start;
#BGCHANGES:;
#KEYSOUNDS:;
#ATTACKS:
;

//---------------dance-single - ----------------
#NOTEDATA:;
#CHARTNAME:;
#STEPSTYPE:dance-single;
#DESCRIPTION:;
#CHARTSTYLE:;
#DIFFICULTY:Hard;
#METER:14;
#RADARVALUES:0.643783,0.669616,0.239282,0.677966,0.533400,452.000000,428.000000,24.000000,68.000000,12.000000,0.000000,0.000000,0.000000,0.000000,0.643783,0.669616,0.239282,0.677966,0.533400,452.000000,428.000000,24.000000,68.000000,12.000000,0.000000,0.000000,0.000000,0.000000;
#CREDIT:BlindedVanguard573;
#NOTES:
// measure 0
0000
0000
0000
0000
,  // measure 1
0000
0000
0000
0000
,  // measure 2
0000
0000
0000
0000
,  // measure 3
0000
0000
0000
0000
,  // measure 4
1000
0000
0001
1000
0100
1000
0001
0100
0001
0000
0100
0020
0000
0000
1030
0000
,  // measure 5
0001
0000
1000
0000
0010
0M00
0010
0000
0001
0000
0100
0002
0000
0000
0013
0000
,  // measure 6
0100
0000
1000
0001
0100
00M0
0100
0000
1000
0000
0010
0200
0000
0000
0301
0000
,  // measure 7
1001
1001
0001
0010
0200
0000
0310
0000
,  // measure 8
0001
0100
0001
0100
0010
0000
0001
0000
0010
0100
0010
0100
0010
0000
1000
0000
,  // measure 9
0002
2003
3002
0203
0302
0100
2003
3100
,  // measure 10
1000
0010
1000
0010
0100
0000
1000
0000
0100
0010
0100
0010
0100
0000
0001
0000
,  // measure 11
2000
3002
2003
3200
2300
0010
3002
0103
,  // measure 12
0001
0010
0001
0010
0100
0000
0001
0000
0100
0010
0100
0010
0100
0000
1000
0000
,  // measure 13
0002
0000
0000
2003
0000
0000
3002
0000
0000
0203
0000
0000
0302
0000
0000
0020
0003
0000
2030
0000
0000
3010
0000
0000
,  // measure 14
0001
0100
0001
0100
0010
0000
0001
0000
0010
0100
0010
0100
0010
0000
1000
0000
,  // measure 15
0001
0000
2000
0100
0000
3002
0010
0000
2003
0010
0000
3001
1000
0000
0001
0000
,  // measure 16
1000
0000
0010
0100
0000
0M00
1000
0000
0001
0000
0010
0100
0000
1000
0100
1000
,  // measure 17
0100
0000
0010
0000
0001
0000
1000
0000
0001
0000
0100
0020
0000
0030
0000
0000
,  // measure 18
1000
0000
0100
0010
0000
00M0
1000
0000
0001
0000
0100
0010
0000
0000
1000
0000
,  // measure 19
1002
0203
2300
3200
,  // measure 20
0301
0000
1000
0000
0020
0000
0000
0000
2030
0010
0000
0000
3002
0010
0000
0000
,  // measure 21
1003
0000
0001
0000
0200
0000
0000
0000
0302
0100
0000
0000
2003
0100
0000
0000
,  // measure 22
3001
0000
0000
0011
0000
0000
1100
0000
1000
0000
0000
1010
0000
0000
0101
0000
,  // measure 23
0001
0010
0100
0010
0001
0000
1000
0000
0001
0100
0010
1000
0001
1000
0010
0M00
,  // measure 24
0010
0000
0001
0000
1000
0000
0010
0M00
0010
0000
0001
0000
1000
0000
0010
0000
,  // measure 25
0100
0000
0010
0000
0001
0000
0010
0000
0100
0000
0001
0000
1000
0000
0100
00M0
,  // measure 26
0100
0000
0001
0000
1000
0000
0100
00M0
0100
0000
0001
0000
1000
0000
0100
0000
,  // measure 27
0010
0000
0100
0000
0001
0000
0100
0000
0010
0001
0010
0100
1000
0001
1000
0000
,  // measure 28
0001
0000
0100
0000
0001
0000
0100
0000
0010
0000
0000
0000
0100
0000
0000
0000
0001
0000
0000
0000
0100
00M0
0100
0000
1000
0000
0000
0000
0001
0000
0000
0000
,  // measure 29
1000
0000
0010
0000
0100
0000
1000
0000
0100
0010
0100
0000
0001
0000
1000
0000
,  // measure 30
0010
0100
0001
0010
0100
0010
1000
0010
,  // measure 31
0100
0010
0100
1000
0010
0100
0010
1000
0001
0010
0100
1000
0001
0000
1000
0000
,  // measure 32
2100
3001
2100
3001
2100
3001
0102
1003
,  // measure 33
0001
0000
0010
0100
1000
0000
0001
0000
0100
0010
0100
0001
0100
0000
0010
0000
,  // measure 34
1000
0001
0010
1000
0001
0100
1000
0001
,  // measure 35
1000
0000
0010
0100
0001
0000
1000
0000
0100
0010
0100
1000
0100
0000
0010
0000
,  // measure 36
0012
1003
0012
1003
0012
1003
2010
3001
,  // measure 37
1000
0000
0100
0010
0001
0000
1000
0000
0010
0100
0010
1000
0010
0000
0100
0000
,  // measure 38
0001
0000
0010
0100
1000
0000
0010
0000
1000
0001
0100
0010
1000
0001
0010
0100
,  // measure 39
1000
0000
0000
1010
0000
M000
0011
0000
0001
0100
0010
0000
2002
0000
3003
0000
,  // measure 40
0001
0010
0001
1000
0100
0000
0001
0000
0100
1000
0100
0010
0001
0000
1000
0000
,  // measure 41
0002
2003
3002
0203
0302
0010
2003
3010
,  // measure 42
1000
0010
1000
0001
0100
0000
1000
0000
0100
0001
0100
0010
1000
0000
0001
0000
,  // measure 43
2000
3002
2003
3200
2300
0010
3002
0103
,  // measure 44
0001
0010
0001
1000
0100
0000
0001
0000
0100
1000
0100
0010
0001
0000
1000
0000
,  // measure 45
0002
2003
3002
0023
0032
0203
2300
3100
,  // measure 46
0001
0100
0001
1000
0010
0000
0001
0000
0010
1000
0010
0100
0001
0000
1000
0000
,  // measure 47
1100
0000
00M0
0100
0001
0000
1000
0000
1010
0000
0M00
0010
0001
0000
1000
0000
,  // measure 48
0001
0010
0001
1000
0100
0000
0001
0000
0100
1000
0100
0010
0001
0000
1000
0000
,  // measure 49
1010
0000
0000
0101
0000
0000
0011
0000
2002
0000
0000
0000
3003
0000
0000
0000
;

//---------------dance-single - ----------------
#NOTEDATA:;
#CHARTNAME:;
#STEPSTYPE:dance-single;
#DESCRIPTION:;
#CHARTSTYLE:;
#DIFFICULTY:Medium;
#METER:10;
#RADARVALUES:0.444381,0.446411,0.219342,0.239282,0.069791,312.000000,290.000000,22.000000,24.000000,0.000000,0.000000,0.000000,0.000000,0.000000,0.444381,0.446411,0.219342,0.239282,0.069791,312.000000,290.000000,22.000000,24.000000,0.000000,0.000000,0.000000,0.000000,0.000000;
#CREDIT:BlindedVanguard573;
#NOTES:
0000
0000
0000
0000
,
0000
0000
0000
0000
,
0000
0000
0000
0000
,
0000
0000
0000
0000
,
1000
0000
0010
0000
0100
0000
0010
0000
1000
0000
0000
0001
0000
0000
0000
0000
,
1000
0000
0100
0000
0010
0000
0100
0000
1000
0000
0000
0001
0000
0000
0000
0000
,
1000
0000
0010
0000
0100
0000
0001
0000
0010
0000
0000
0100
0000
0000
0010
0000
,
0001
0001
1000
1000
2002
0000
3003
0000
,
0001
0100
0010
0001
0010
0100
0001
0000
,
1000
0100
0010
0001
1000
0000
1001
0000
,
1000
0010
0100
1000
0100
0010
1000
0000
,
0001
0010
0100
1000
0001
0000
1001
0000
,
0001
0010
0100
0001
0100
0010
0001
0000
,
1000
0010
0100
0001
0010
0100
1001
0000
,
1000
0010
0100
1000
0100
0010
1000
0000
,
0001
0000
0000
0001
0000
0000
1000
0000
0000
1000
0000
0000
0010
0000
0100
0000
,
0001
0000
0000
0001
0000
0000
0010
0000
0100
0000
0000
0100
0000
0000
0010
0000
,
0001
0000
0100
0000
0010
0000
1000
0000
0001
0000
0000
1001
0000
0000
0000
0000
,
1000
0000
0000
1000
0000
0000
0010
0000
0100
0000
0000
0100
0000
0000
0001
0000
,
2000
3200
0302
0203
,
1300
0020
1000
1030
,
0001
0200
0001
0301
,
0010
0000
0000
0010
0000
0000
0001
0000
0100
0000
0000
0100
0000
0000
0010
0000
,
1000
1000
0100
0010
0001
0000
1000
0010
,
0001
0000
0001
0010
1000
0000
1000
0100
,
0010
0100
0001
0100
1000
0000
0001
0100
,
1000
0000
1000
0100
0001
0000
1000
0010
,
0100
0010
0001
0010
1000
0000
0001
0010
,
0100
1000
0001
0001
0100
0001
1000
1000
,
0010
1000
0100
0001
0100
0000
0010
0001
,
1000
0000
0010
0100
0001
0010
1000
0010
,
0002
0003
2000
3000
0010
0100
0001
1000
,
0002
0013
0002
0013
0002
0013
0200
1300
,
0001
0100
1000
0100
0001
0000
1001
0000
,
1000
0100
0010
0001
0010
0100
1000
0001
,
1000
0010
0001
0010
1000
0001
1000
0000
,
0002
0103
0002
0103
0002
0103
0020
1030
,
0001
0010
1000
0010
0001
0000
1001
0000
,
2100
3001
0102
1003
,
1001
0000
0000
1001
0000
0000
1001
0000
0010
0000
0100
0000
1001
0000
0000
0000
,
1000
0010
0100
1000
0100
0010
1000
0000
,
0001
0010
1000
0010
0001
0000
1001
0000
,
0001
0100
0010
0001
0010
0100
0001
0000
,
1000
0100
0001
0100
1000
0000
1001
0000
,
1000
0100
0010
1000
0010
0100
1000
0000
,
0001
0100
1000
0100
0010
1000
1001
0000
,
0001
0100
0010
0001
0010
0100
0001
0000
,
1000
0100
0001
1000
0010
0001
1000
0001
,
1002
0103
2001
3100
,
1001
0000
0000
1001
0000
0000
1001
0000
2002
0000
0000
0000
3003
0000
0000
0000
;

//---------------dance-single - ----------------
#NOTEDATA:;
#CHARTNAME:;
#STEPSTYPE:dance-single;
#DESCRIPTION:;
#CHARTSTYLE:;
#DIFFICULTY:Easy;
#METER:6;
#RADARVALUES:0.290557,0.322408,0.219342,0.119641,0.000000,204.000000,182.000000,22.000000,12.000000,0.000000,0.000000,0.000000,0.000000,0.000000,0.290557,0.322408,0.219342,0.119641,0.000000,204.000000,182.000000,22.000000,12.000000,0.000000,0.000000,0.000000,0.000000,0.000000;
#CREDIT:BlindedVanguard573;
#NOTES:
0000
0000
0000
0000
,
0000
0000
0000
0000
,
0000
0000
0000
0000
,
0000
0000
0000
0000
,
1000
0001
0100
0100
,
0001
1000
0010
0010
,
1000
0100
0010
0001
,
0100
0100
2002
3003
,
0001
0100
0010
0100
,
0001
0010
0100
1001
,
1000
0010
0100
0010
,
1000
0100
0010
1001
,
0001
0100
0010
0100
,
0001
0010
0100
1001
,
1000
0100
0010
0100
,
1000
0010
0100
0001
,
1000
1000
0100
0100
,
0001
0100
1000
0001
,
0100
0100
1000
1000
,
0100
0010
1000
1001
,
0001
0020
0001
0031
,
1000
0200
1000
1300
,
0001
0100
0010
0100
,
1000
0100
0001
0020
,
0130
0020
0130
0010
,
0001
0100
1001
0200
,
0310
0200
0310
0100
,
1000
0010
1001
0001
,
1000
0010
0100
0001
,
0010
0100
1000
1001
,
0001
0100
0010
0001
,
0010
1000
0001
1000
,
1100
1100
1100
1100
,
1000
0001
0010
0001
,
1000
0010
0100
0001
,
1000
0100
0010
0001
,
0101
0101
0101
0101
,
0001
0010
0100
1000
,
0001
0100
1000
0100
,
0010
0010
0100
1001
,
1000
0010
0100
0100
,
0001
0010
0100
1001
,
0001
0010
0100
0100
,
0001
0100
0010
1001
,
1000
0100
0001
0001
,
1000
0010
0001
1001
,
0001
0100
1000
1000
,
0001
0010
1000
1001
,
0002
0010
2003
0100
,
3001
1000
2002
3003
;

//---------------dance-single - ----------------
#NOTEDATA:;
#CHARTNAME:;
#STEPSTYPE:dance-single;
#DESCRIPTION:;
#CHARTSTYLE:;
#DIFFICULTY:Beginner;
#METER:3;
#RADARVALUES:0.178037,0.197408,0.009970,0.009970,0.000000,125.000000,124.000000,1.000000,1.000000,0.000000,0.000000,0.000000,0.000000,0.000000,0.178037,0.197408,0.009970,0.009970,0.000000,125.000000,124.000000,1.000000,1.000000,0.000000,0.000000,0.000000,0.000000,0.000000;
#CREDIT:BlindedVanguard573;
#NOTES:
0000
0000
0000
0000
,
0000
0000
0000
0000
,
0000
0000
0000
0000
,
0000
0000
0000
0000
,
1000
1000
1000
0000
,
0001
0001
0001
0000
,
0100
0100
0100
0000
,
0010
0010
0010
0000
,
0100
0000
0001
0000
,
1000
1000
1000
1000
,
1000
0000
0001
0000
,
0010
0010
0010
0010
,
0010
0000
0100
0000
,
1000
1000
1000
1000
,
1000
0000
0010
0000
,
0100
0100
0100
0100
,
0100
0000
0010
0000
,
1000
1000
1000
0000
,
0001
0000
0010
0000
,
0001
0001
0001
0000
,
0010
0010
0000
0000
,
0100
0100
0000
0000
,
1000
0000
0001
0000
,
0100
0100
0100
0000
,
0010
0000
0010
0000
,
0100
0100
0100
0000
,
0001
0000
0001
0000
,
1000
1000
1000
0000
,
0010
0010
0010
0000
,
0001
0001
0001
0000
,
0100
0000
1000
0000
,
0002
0000
0003
0000
,
0010
0010
0010
0010
,
0010
0000
0100
0000
,
1000
0000
0001
0000
,
0100
0100
0100
0000
,
0001
0001
0001
0001
,
0001
0000
0010
0000
,
0100
0000
1000
0000
,
0001
0001
0000
1001
,
0000
0000
0001
0000
,
0010
0010
0010
0010
,
0010
0000
0100
0000
,
1000
1000
1000
1000
,
1000
0000
0001
0000
,
0100
0100
0100
0100
,
0100
0000
0010
0000
,
1000
1000
1000
1000
,
1000
0000
0001
0000
,
0010
0010
0010
0000
;
