#TITLE:ファタール;
#SUBTITLE:【推しの子】第2期オープニングテーマ;
#ARTIST:GEMN;
#TITLETRANSLIT:FATAL;
#SUBTITLETRANSLIT:【Oshi No Ko】 2nd Season Opening Theme;
#ARTISTTRANSLIT:;
#GENRE:;
#CREDIT:;
#MUSIC:FATAL.ogg;
#BANNER:FATAL-bn.png;
#BACKGROUND:FATAL-bg.png;
#CDTITLE:;
#SAMPLESTART:13.167;
#SAMPLELENGTH:12.308;
#SELECTABLE:YES;
#OFFSET:0.295;
#BPMS:0.000=156.000;
#STOPS:;
#BGCHANGES:;
#FGCHANGES:;

//--------------- dance-single - Highflyer ----------------
#NOTES:
     dance-single:
     Highflyer:
     Hard:
     12:
     0,0,0,0,0:
0000
0000
0000
0000
,
0000
0000
0000
0000
,
0000
0000
0000
0000
,
0000
0000
0000
0000
,
0000
0000
0000
0000
0000
0000
1000
0001
,
0010
0100
0001
0100
0000
1000
0010
1000
,
0001
0100
1000
0100
0000
0010
1000
0001
,
0001
0010
0100
0100
1000
0010
0100
0001
,
0010
1001
0000
1000
0001
1000
0010
0100
,
0001
0000
0001
0000
0010
0000
0100
0000
1000
0000
0000
1000
0001
0000
1000
0000
,
0010
0010
0000
0100
0001
0010
2000
0000
,
3001
0100
0020
0000
0031
0001
1000
0010
,
0100
2000
0000
3100
0001
0010
0100
0000
,
0010
0001
2000
0000
3001
0010
2000
0000
,
3010
0001
0000
1000
0001
1000
0010
0001
,
0000
0010
1000
0001
0010
1000
0000
0010
,
0001
1000
0010
0010
0200
0000
0301
0000
,
1000
0000
0000
0010
0000
0100
0001
0000
0000
0010
0000
0100
,
1000
0000
0001
0100
0000
0000
0010
0000
0000
1001
0000
1000
,
0100
0000
0000
0010
0000
0001
0100
0000
0000
0020
0000
0000
,
0000
0030
0000
1001
,
1000
0100
0020
0000
0031
0001
0000
1000
,
0010
0200
0000
0302
0000
1003
1000
0100
,
0100
0010
0010
0001
1000
0010
0000
0100
,
0001
0000
0100
0001
1000
0001
0100
0010
,
0100
1000
0100
0001
0010
0100
0010
1000
,
0020
0000
0130
0000
2000
0000
3001
0100
,
1000
0100
0001
0000
1000
0100
0001
0100
,
1000
0000
0001
0100
0001
0000
1001
0000
,
1000
0100
1000
0000
0010
0100
0000
0010
,
1000
0002
0000
0023
0000
0031
0101
0000
,
1010
0000
1001
0000
1000
0100
0000
1000
,
0100
0000
0010
0001
1000
0010
0100
0001
,
0100
0000
0000
0000
0001
0000
0000
1000
0001
0000
0000
0000
0010
0000
0100
0000
,
0010
0000
0000
0000
0100
0000
0000
1000
0001
0000
0000
0000
1000
0000
0010
0000
,
0100
0000
0001
0000
0010
0000
0100
0000
1000
0000
0010
0000
0100
0000
0000
0010
,
0000
0100
0001
0000
1000
0000
1001
0000
,
1000
0010
1010
0000
1000
0100
0010
0001
,
0100
0001
0010
0000
0100
1000
0100
0010
,
0001
1000
0010
0100
0010
1000
0002
0000
,
0013
0100
1000
0000
0001
0000
0101
0000
,
0001
1000
1100
0000
0100
0010
0001
0010
,
0100
1000
0010
0000
0100
0010
0100
0001
,
1000
0100
0010
0001
0100
0010
1000
0001
,
0010
0000
0100
0000
0000
0000
0000
0000
1001
0000
0000
1000
0000
0000
0010
0000
,
0100
0000
0000
0001
0000
0000
0010
0000
0100
0000
0000
1000
0000
0000
0001
0000
,
0100
0000
0001
0000
0000
0000
1000
0000
0100
0000
0000
0001
0000
0000
0100
0000
,
0010
0000
0000
0001
0000
0000
1000
0000
0010
0000
0000
0001
0000
0000
0010
0000
,
1000
0000
0010
0000
0000
0000
1000
0000
0001
0000
0000
0011
0000
0000
0001
0000
,
1000
0000
0000
1010
0000
0000
1000
0000
0100
0000
0000
1100
0000
0000
0100
0000
,
0010
0001
0000
1000
0010
0100
0000
0010
,
2000
0000
3001
0001
0000
0110
0000
0001
,
1000
0001
2000
0000
3010
0000
0101
0000
,
1000
0000
0001
0100
1000
0000
1000
0100
,
0001
0000
0000
0000
1000
0100
0001
0100
,
1000
0010
0200
0000
0302
2003
0000
3100
,
0010
0100
2000
0000
0002
0000
0000
0000
,
3003
0000
0000
0000
;

//--------------- dance-single - Highflyer ----------------
#NOTES:
     dance-single:
     Highflyer:
     Challenge:
     14:
     0,0,0,0,0:
0000
0000
0000
0000
,
0000
0000
0000
0000
,
0000
0000
0000
0000
,
0000
0000
0000
0000
,
0000
0000
0000
0000
0000
0000
1000
0010
,
1000
0001
0000
1000
0100
0000
0010
0000
0100
0000
1000
0000
0001
0000
1000
0010
,
1000
0001
0010
0001
0100
0000
0010
0000
1000
0000
0001
0000
0100
00M0
0100
1000
,
0100
0000
0010
000M
0010
1000
0010
0100
0001
0000
1000
0000
0001
0100
0010
0100
,
0001
1001
0000
0001
1000
0001
0110
1000
,
0100
0000
0010
0000
0001
0000
0100
0000
1000
0000
0100
0010
0100
0000
0001
0000
,
1000
0000
0100
0010
0001
0000
0100
0001
1000
0000
0100
0000
1100
0000
0000
0000
,
0100
0010
0002
0000
0103
0001
1000
0100
,
0001
0000
0100
0010
0100
0000
1000
0001
0100
0000
0010
1000
0100
0000
0010
0000
,
0001
1000
0200
0000
1300
0010
0001
0010
,
1000
0000
0001
0010
0100
0000
1000
0000
0010
0000
0100
0000
1000
0000
0100
0000
,
0000
0010
1000
0100
0001
0100
0000
0010
,
0001
1000
0001
0001
2000
0000
3010
0000
,
0100
0000
0000
0001
0000
0000
0000
0000
0000
0000
0000
0000
1000
0000
0000
0000
0010
0000
0000
0000
0100
0000
0000
0000
1000
0000
0000
0000
0000
0000
0000
0000
0000
0000
0000
0000
0100
0000
0000
0000
0001
0000
0000
0000
1000
0000
0000
0000
,
0010
0000
0000
0000
1000
0000
0000
0000
0100
0000
0000
0000
0001
0000
0000
0000
0000
0000
0000
0000
0000
0000
0000
0000
0100
0000
0000
1000
0000
0000
0000
0000
0000
0000
0000
0000
1001
0000
0000
0000
0000
0000
0000
0000
1000
0000
0000
0000
,
0010
0000
0000
0000
0000
0000
0100
0000
0001
0000
0010
0000
0100
0000
0000
0010
0000
0000
0002
0000
0000
0000
0000
0000
,
0000
0000
0003
0000
0100
0000
0010
0000
0100
0000
0000
0000
1001
0000
0000
0001
,
1000
0100
0020
0000
0031
0101
0000
0001
,
1000
0000
0020
0000
0000
0000
0230
0000
0000
0000
0301
0010
0001
0000
1000
0010
,
1000
0000
0001
0010
0100
0000
1000
0000
0010
0000
0200
0000
0000
0000
0301
0000
,
0010
0100
1000
0010
0100
0010
1000
0100
,
0001
0100
1000
0000
0001
0100
1000
0100
,
0002
0000
0013
0000
0200
0000
1300
0010
,
0001
0010
1000
0000
0001
0010
1000
0010
,
0001
0000
0000
0000
0100
0000
0010
0000
0100
0000
0000
0000
1001
0000
0000
1000
,
0100
0000
0010
0000
0001
0000
0000
1000
0010
0000
0100
0000
0001
0000
0010
0000
,
0100
0000
2000
0000
0000
0000
3001
0000
0000
0000
0000
0000
1000
0000
0010
0100
,
0001
0000
0010
0100
1000
0000
0001
0000
0100
0000
0020
0000
0000
0000
1030
0000
,
0001
0000
0000
0000
1000
0000
0100
0000
0010
0000
0001
0000
0100
0000
0010
1000
,
0010
0000
1000
0000
0100
0000
0000
0010
0001
0000
1000
0000
0010
0000
0100
0001
,
0100
0000
0010
0000
1000
0000
0000
0001
0010
0000
0100
0000
1000
0100
1000
0100
,
0010
0001
0010
0001
1000
0010
1000
0010
0100
0001
0100
0001
1000
0000
0000
1000
,
0000
1000
0100
0000
0001
0000
0101
0100
,
1000
0001
0101
0000
0100
0001
1000
0010
,
0001
0010
1000
0000
0100
0010
0001
0100
,
0010
0100
0001
0010
0100
1000
0002
0000
,
1003
0010
0100
0000
1000
0000
1100
MMMM
,
0001
1000
1100
MMMM
0001
0010
0001
1000
,
0010
0100
0001
0000
1000
0010
0100
0001
,
0010
0001
0100
0010
1000
0001
0010
0001
,
1000
0000
0020
0000
0000
0000
0130
0000
0002
0000
0000
1003
0000
0100
0010
0000
,
0002
0000
0000
1003
0000
0010
0100
0000
0002
0000
0000
0013
0000
0100
1000
0000
,
0020
0000
0130
0001
0100
0000
0010
0000
2000
0000
0000
3100
00M0
0100
0001
0000
,
2000
0000
0000
3010
0M00
0010
0001
0000
2000
0000
0000
3100
00M0
0100
0001
0000
,
1000
0000
0010
0100
0010
0000
1000
0000
0002
0003
0000
0011
0M00
0010
1000
0000
,
0002
0003
0000
0101
00M0
0100
1000
0000
0002
0003
0000
0011
0M00
0010
0100
0000
,
0001
0000
0010
0100
1000
0000
0001
0000
0100
0000
1000
0000
0000
0000
0001
0000
,
0010
1000
0010
1000
MMMM
1001
0000
1000
,
0100
0010
0002
0000
2000
3003
0110
0000
,
1000
0001
1000
0100
0002
0000
1003
0010
,
0002
0000
0000
0000
1003
0000
MMMM
0000
1000
0000
0001
0000
0100
00M0
0100
0000
,
1000
0001
0100
1000
0001
0020
0000
1030
,
0100
0010
0002
0000
2000
0000
0000
0000
,
3003
0000
0000
0000
;
