#TITLE:Exchange Place;
#SUBTITLE:;
#ARTIST:Dirty Androids;
#TITLETRANSLIT:;
#SUBTITLETRANSLIT:;
#ARTISTTRANSLIT:;
#GENRE:;
#CREDIT:;
#MUSIC:exchange place.ogg;
#BANNER:;
#BACKGROUND:;
#CDTITLE:;
#SAMPLESTART:98.053;
#SAMPLELENGTH:13.521;
#SELECTABLE:YES;
#OFFSET:-0.076;
#BPMS:0.000=142.000;
#STOPS:;
#BGCHANGES:;
#FGCHANGES:;

//--------------- dance-single - kaya ----------------
#NOTES:
     dance-single:
     kaya:
     Medium:
     11:
     0,0,0,0,0:
0000
0000
0000
0000
,
0000
0000
0000
0000
,
0000
0000
0000
0000
,
0000
0000
0000
0000
,
1000
1000
0001
0001
,
0010
0010
0100
0100
,
1000
0100
0010
0001
,
1010
0101
0011
0000
,
2000
0000
0000
0000
0000
0000
0000
0000
0000
0000
3010
0000
0000
0100
0000
0000
,
0002
0000
0000
0000
0000
0000
0000
0000
0000
0000
0013
0000
0000
0100
0000
0000
,
2000
0000
0000
0000
0000
0000
0000
0000
0000
0000
3010
0000
0000
0100
0000
0000
,
0001
0000
0011
1100
,
0002
0000
0000
0000
0000
0000
0000
0000
0000
0000
0103
0000
0000
0010
0000
0000
,
1000
0000
0000
0001
0000
0000
1000
0000
0000
0000
0001
0000
0000
0000
0000
0000
,
1001
0000
0000
0000
0001
0000
0010
0000
0100
0000
1000
0000
0000
0010
0000
0000
,
0100
0000
0000
0000
0100
0000
0000
0000
0110
0000
0000
0110
0000
0000
0110
0000
,
1001
0000
0000
0000
0001
0000
1000
0000
0001
0000
0100
0000
0010
1000
0000
0000
,
1001
0000
0000
0000
1000
0000
0100
0000
1000
0000
0001
0000
0010
0001
0000
0000
,
1100
0000
0000
1100
0000
0000
1100
0000
0000
0000
0001
0000
0000
0001
0000
0000
,
1000
0010
0001
0010
2000
0000
0001
0000
,
3100
0000
0000
0000
1000
0000
0001
0000
1000
0000
0100
0010
0000
0010
0000
0000
,
0011
0000
0000
0011
0000
0000
0011
0000
0000
0000
1000
0000
0001
0000
1000
0000
,
0010
1000
0100
0010
0001
0100
0010
1000
,
0001
0110
1001
1000
,
0001
0010
1000
0010
0001
0100
1000
0100
,
0001
0010
1000
0010
0001
1000
0001
0000
,
1000
0000
0001
0000
0000
0100
0000
0000
1000
0000
0000
1000
0100
0000
1000
0000
,
0001
0000
0010
0000
0000
1000
0000
0000
0001
0000
0000
0001
0010
0000
0001
0000
,
1000
0000
0001
0000
0000
0100
0000
0000
1000
0000
0000
1000
0100
0000
1000
0000
,
0001
0000
0010
0000
1000
0000
0100
0000
0010
0000
0000
0010
0001
0000
0001
0000
,
1000
0000
0100
0000
0010
0000
0001
0000
1000
0000
0000
1000
0000
0000
1000
0000
,
0010
0000
0001
0000
0000
0010
0000
0000
1000
0000
0000
1001
0000
0000
0000
0000
,
1000
0000
0001
0000
0010
0000
0100
0000
1000
0000
0000
1000
0000
0000
1000
0000
,
0001
0000
0010
0000
1000
0000
0001
0000
0100
0000
0000
0110
0000
0000
0001
0000
,
1000
0000
0100
0000
0010
0000
1000
0000
0010
0000
0000
0010
0000
0000
0010
0000
,
0001
0000
1000
0000
0010
0000
0100
0000
0001
0000
0000
1001
0000
0000
0000
0000
,
0001
0000
0100
0000
0010
0000
0001
0000
0010
0000
0000
0010
0000
0000
0010
0000
,
0100
0000
0001
0000
0010
0000
0100
0000
1000
0000
0000
1001
0000
0000
1000
0000
,
0001
0000
0100
0000
0010
0000
1000
0000
0100
0000
0000
0100
0000
0000
0100
0000
,
1000
0000
0001
0000
0010
0000
0100
0000
1000
0000
0000
0001
0000
0000
1000
0000
,
0010
0100
0010
0100
0001
1000
0001
1000
,
0001
0000
0000
0100
0000
0000
0000
0000
1000
0000
0000
0100
0000
0000
0000
0000
0001
0000
1000
0000
0000
0000
0001
0000
0000
0000
0000
0000
0001
0000
0000
0000
,
0010
0000
0010
0000
0010
0000
0100
0000
1000
0000
0000
1000
0001
0000
1000
0000
,
0010
0000
0010
0000
0010
0000
0100
0000
0001
0000
0000
0001
1000
0000
0001
0000
,
0100
0000
0100
0000
0100
0000
0010
0000
1000
0000
0000
1000
0001
0000
1000
0000
,
0100
0100
0100
0010
0001
1000
1001
0000
,
0001
0000
0001
0000
0001
0000
0010
0000
0100
0000
0000
0100
0001
0000
0100
0000
,
1000
0000
1000
0000
1000
0000
0010
0000
0100
0000
0000
0100
1000
0000
0100
0000
,
0010
0010
0010
1000
0001
0100
0010
0100
,
0001
0010
0100
1000
0010
0100
0001
1000
,
0001
0000
0101
0000
,
1000
0000
1100
0000
,
0001
0000
0011
0000
,
1000
0000
1010
0000
,
0010
0010
0010
0010
,
0100
0000
0100
0000
0100
1000
0100
0001
,
0010
0100
0010
0100
1000
0001
1000
0001
,
1000
0000
1100
0000
1010
0000
2002
3003
,
1000
0000
0100
0000
0010
0000
1000
0000
1000
0000
0010
0000
0000
0010
0000
0000
,
0001
0000
0100
0000
0010
0000
0001
0000
0001
0000
0010
0000
0000
0010
0000
0000
,
1000
0000
0010
0000
0100
0000
1000
0000
1000
0000
0100
0000
0000
0100
0000
0000
,
0001
0100
1000
0100
0001
0010
1000
0010
,
0001
0000
0010
0000
0100
0000
0001
0000
0001
0000
0100
0000
0000
0100
0000
0000
,
1000
0000
0010
0000
0100
0000
1000
0000
1000
0000
0100
0000
0000
0100
0000
0000
,
0001
0000
1000
0001
0100
0010
1000
0001
,
1001
0110
1001
0000
,
2000
0000
0010
0000
,
3002
0000
0010
0000
,
2003
0000
0100
0000
,
3002
0000
0100
0000
,
2003
0000
0010
0000
,
3002
0000
0100
0000
,
2000
0000
0000
0000
,
3003
0000
0000
0000
;

//--------------- dance-single - kaya ----------------
#NOTES:
     dance-single:
     kaya:
     Hard:
     15:
     0,0,0,0,0:
0000
0000
0000
0000
,
0000
0000
0000
0000
,
0000
0000
0000
0000
,
0000
0000
0000
0000
,
1000
1000
1000
1000
,
0010
0000
0010
0000
0010
0100
0001
0000
,
1000
0100
0010
0100
0010
0001
1000
0010
0100
0010
0100
0001
,
2000
3000
0002
0003
0220
0330
0001
1000
,
0002
0000
0000
0000
0100
0000
0000
0000
0000
0000
0013
0000
0000
0100
0000
0000
,
2000
0000
0000
0000
0000
0000
0000
0000
0000
0000
3001
0000
0000
1000
0001
0100
,
0002
0000
0000
0000
1000
0000
0000
0000
0000
0000
0103
0000
0000
0010
0000
0000
,
2000
0000
0000
0000
0000
0000
0001
0000
3100
0000
0000
1000
0100
0000
0010
0000
,
0002
0000
0000
0000
1000
0000
0000
0000
0000
0000
0103
0010
0000
1000
0000
0000
,
0101
0000
0000
1010
0000
0000
0101
0000
0000
0000
1001
0000
0000
0000
1000
0001
,
1000
0000
0000
0000
0100
0000
0010
0000
1000
0000
0001
0000
0000
0100
0000
0000
,
1000
0000
0000
0000
1000
0000
0000
0000
1100
0000
0000
1100
0000
0000
1100
0000
,
0001
0000
0000
0000
0100
0010
1000
0001
0100
0000
0010
0000
1000
0001
0000
0000
,
1000
0000
0000
0000
0100
0000
0010
0100
0010
0000
0001
0000
1000
0000
0001
0000
,
0101
0000
0000
1100
0000
0000
0101
0000
0000
0000
0011
0000
0000
1010
0000
0000
,
0011
0000
0010
0000
0100
0000
1000
0000
0001
0010
0000
0010
0100
0000
1000
0000
,
0010
0000
0000
0000
1000
0100
0010
0001
1000
0000
0010
0100
0000
0100
0000
0000
,
0101
0000
0000
1100
0000
0000
1010
0000
0000
0000
0010
0000
1000
0000
0100
1000
,
0100
0000
0010
0000
0001
0000
0100
0001
0100
0001
1000
0010
1000
0100
0010
0001
,
2000
3020
0230
0302
,
2003
3100
0002
0103
2000
3100
0002
0103
,
1000
0000
1000
0001
1000
0100
0000
0010
0100
0010
0001
0000
1000
0001
1000
0000
,
0001
0000
0001
0100
0010
0000
0010
0100
1000
0000
0000
1000
0100
0000
0001
0000
,
0010
0000
0100
0000
0010
1000
0000
0010
0100
0000
0000
0001
0100
0000
1000
0000
,
1000
0000
1000
0100
0010
0000
0010
0100
0001
0000
0000
0001
0100
0000
1000
0000
,
0010
0000
0100
0000
0010
0000
0001
0010
1000
0000
0000
1000
0100
0000
0010
0000
,
0002
0000
1003
0010
0100
0000
0100
0010
0002
0000
0003
0001
0010
0000
0010
0100
,
0002
0000
0013
0000
0100
0010
0000
0100
0002
0000
0003
2000
3010
0000
0001
0000
,
2000
0000
3001
0100
0010
0000
0010
0100
2000
0000
3000
1000
0100
0000
0100
0001
,
2000
0000
3100
0010
0002
0000
0103
0000
2000
0000
3100
0000
0002
0000
0103
0000
,
0001
0000
0000
0000
1010
0000
0010
0100
2000
0000
3000
0100
0010
0000
1000
0100
,
0020
0000
1030
0000
0010
0000
0100
1000
0010
0000
0000
0010
0100
0000
0001
0000
,
0001
0000
0000
0000
0011
0000
0010
0100
0002
0000
0003
0100
0010
0000
0001
0100
,
0020
0000
0031
0000
0010
0000
0001
0010
1000
0000
0000
1001
0000
0000
0001
0000
,
1000
0000
0000
0000
1100
0000
0100
0010
1000
0000
0000
0010
0100
0000
1000
0010
,
0100
0000
1000
0000
0100
0000
0010
1000
0100
0000
0000
0110
0000
0000
0001
0000
,
1000
1000
0010
0010
0100
0100
0001
0001
,
1000
0000
0000
0010
0000
0000
1000
0000
0001
0000
0000
0100
0000
0000
0001
0000
1000
0000
0001
0000
0000
0000
1000
0000
0001
0000
0000
0000
0100
0000
0010
0000
,
1000
0100
1000
0100
0010
0000
1000
0010
0001
0000
0000
0001
0000
0000
0001
0000
,
1000
0010
1000
0010
0100
0000
1000
0100
0002
0000
0100
0000
2003
0000
0100
0000
,
3001
0010
0001
0010
0100
0000
0001
0100
1000
0000
0000
1000
0000
0000
1000
0000
,
0001
0100
0001
0100
0010
0000
0001
0010
2000
0000
0010
0000
3002
0000
0000
0000
,
1003
0100
1000
0100
0010
0000
0100
0010
1000
0000
0000
1000
0000
0000
1000
0000
,
0001
0100
0001
0100
0010
0000
0100
0010
0002
0000
0100
0000
2003
0000
0000
0000
,
3001
0010
0100
1000
0001
0000
0100
0000
0010
1000
0100
0010
0001
0000
1000
0000
,
0010
0000
0000
0100
0000
0000
0001
0000
0000
1000
0000
0000
0100
0000
0000
0010
0000
0000
0001
0000
0000
1000
0000
0000
0010
0000
0000
0100
0000
0000
0010
0000
0000
0100
0000
0000
0001
0000
0000
0000
1000
0000
0000
0000
0001
0000
0000
0000
,
2000
0000
3100
0000
,
0002
0000
0000
0000
0000
0000
0000
0000
0103
0000
0000
0000
0000
0000
0001
1000
,
0002
0000
0013
0000
,
2000
0000
3010
0000
,
1000
1000
1000
1000
,
0001
0000
0001
0000
0001
1000
0001
0000
,
1000
0010
0100
0010
0100
0001
1000
0100
0010
0100
0010
0001
,
1000
0010
0100
0001
0010
0100
1000
0010
0100
0001
0000
0000
,
2000
0000
3000
0000
1010
0000
0010
0100
1000
0000
0100
0000
1000
0100
0000
0100
,
0002
0000
0003
0000
0011
0000
0010
0100
0001
0000
0100
0000
0001
0100
0000
0100
,
2000
0000
3000
0000
1100
0000
0100
0010
1000
0000
0010
0000
1000
0010
0000
0010
,
0002
0000
0003
0000
1010
0000
0000
0000
0011
0000
0000
1000
0001
0000
0100
0000
,
0210
0000
0000
0000
1300
0000
1000
0100
0010
0000
1000
0000
0100
1000
0000
0001
,
0200
0000
0000
0310
0100
0000
0001
0000
1000
0000
0010
0000
0010
0000
0100
0001
,
1000
0000
0000
0001
1000
0000
0001
1000
0100
0010
0100
0010
0001
1000
0001
1000
,
0002
0000
0000
0003
0000
0000
0101
0000
0000
0000
0000
0000
2000
0000
0000
3100
0000
0000
1000
0000
0010
0000
0100
0000
,
0002
0000
0000
0000
0000
0000
0000
0000
0013
0000
0000
0000
0000
0000
1000
0001
,
2000
0000
3000
1000
0010
1000
0000
0000
,
1200
0000
0000
1300
0100
0000
0000
1000
,
2000
0000
0000
0001
0000
0000
3001
0000
0000
0000
1000
0000
0000
0000
0000
0000
,
0002
0000
0000
0000
0000
0000
0000
0000
0103
0000
0000
0000
0000
0000
0001
1000
,
0002
0000
0000
0000
0000
0000
0013
0000
0001
0000
1000
0000
0000
0000
1000
0001
,
0200
0000
0020
0000
,
0330
0000
0000
0000
;
