#VERSION:0.83;
#TITLE:Everybody Dance;
#SUBTITLE:(Scorccio Hot Mix);
#ARTIST:X-RATED;
#TITLETRANSLIT:;
#SUBTITLETRANSLIT:;
#ARTISTTRANSLIT:;
#GENRE:DANCEMANIA;
#ORIGIN:;
#CREDIT:;
#BANNER:Everybody Dance.png;
#BACKGROUND:Everybody Dance-bg.png;
#PREVIEWVID:;
#JACKET:Everybody Dance-jacket.png;
#CDIMAGE:;
#DISCIMAGE:;
#LYRICSPATH:;
#CDTITLE:;
#MUSIC:Everybody Dance.ogg;
#OFFSET:-0.001240;
#SAMPLESTART:49.972000;
#SAMPLELENGTH:14.277000;
#SELECTABLE:YES;
#BPMS:0.000=134.479;
#STOPS:;
#DELAYS:;
#WARPS:;
#TIMESIGNATURES:0.000=4=4;
#TICKCOUNTS:0.000=4;
#COMBOS:0.000=1;
#SPEEDS:0.000=1.000=0.000=0;
#SCROLLS:0.000=1.000;
#FAKES:;
#LABELS:0.000=Song Start;
#BGCHANGES:;
#KEYSOUNDS:;
#ATTACKS:
;

//---------------dance-single - ----------------
#NOTEDATA:;
#CHARTNAME:;
#STEPSTYPE:dance-single;
#DESCRIPTION:;
#CHARTSTYLE:;
#DIFFICULTY:Hard;
#METER:13;
#RADARVALUES:0.492320,0.596343,0.259648,0.000000,0.165231,292.000000,270.000000,22.000000,0.000000,0.000000,0.000000,0.000000,0.000000,0.000000,0.492320,0.596343,0.259648,0.000000,0.165231,292.000000,270.000000,22.000000,0.000000,0.000000,0.000000,0.000000,0.000000,0.000000;
#CREDIT:TonyAkita (Harder, HARDER!);
#NOTES:
// measure 0
0000
0000
0000
0000
,  // measure 1
0000
0000
0000
0000
,  // measure 2
0000
0000
0000
0000
,  // measure 3
0000
0000
0000
0000
,  // measure 4
0001
0001
0001
1000
0100
0010
0000
0000
,  // measure 5
0000
0100
0100
0100
0001
1000
0010
0001
,  // measure 6
1000
0010
0100
0001
0000
1000
1000
0000
,  // measure 7
0100
0010
0000
0000
0011
0000
0000
0000
0100
0010
0000
0000
1010
0000
0000
0000
,  // measure 8
1000
1000
1000
0001
0100
0010
0000
0000
,  // measure 9
0000
0100
0100
0100
1000
0001
0010
1000
,  // measure 10
0001
0010
0100
1000
0000
0001
0001
0000
,  // measure 11
0100
0010
0000
0000
1001
0000
0000
0000
0010
0100
0000
0000
1001
0000
0000
0000
,  // measure 12
1000
0000
1000
0000
0000
0000
0100
0010
0000
0000
0001
0000
0001
0000
0100
0000
,  // measure 13
0010
0000
0010
0000
0000
0000
1000
0001
0000
0000
0000
0000
0010
0000
0100
0000
,  // measure 14
1000
0010
1000
0001
0100
0100
0100
0000
,  // measure 15
0001
0100
1000
0100
0001
0100
0010
1000
,  // measure 16
0001
0001
0000
0110
0000
1000
1000
0010
,  // measure 17
0100
0100
0000
1001
0000
0001
0010
0100
,  // measure 18
1000
1000
0000
0110
0000
0001
0001
0001
,  // measure 19
1000
0100
0001
0100
1000
0100
0010
0100
,  // measure 20
1100
0000
0000
0001
0100
0010
0100
0001
,  // measure 21
0101
0000
0000
1000
0100
0010
0001
0100
,  // measure 22
0110
0000
0000
0001
0100
0010
1000
0100
,  // measure 23
0010
0100
0010
0001
1000
0001
1000
0100
,  // measure 24
1100
0000
0000
0100
0001
1000
0010
0001
,  // measure 25
0011
0000
0000
0100
1000
0001
0010
1000
,  // measure 26
1010
0000
0000
0001
0011
0000
0000
1000
,  // measure 27
0010
0000
0100
0000
0010
0000
0100
0000
0001
1000
0001
1000
0001
1000
0001
1000
,  // measure 28
0001
1000
0010
1000
0100
0010
0000
0000
,  // measure 29
0000
0100
0100
0100
0001
1000
0010
0001
,  // measure 30
1000
0010
0100
0001
0000
1000
1000
0000
,  // measure 31
0100
0010
0000
0000
0011
0000
0000
0000
0100
0010
0000
0000
1010
0000
0000
0000
,  // measure 32
1000
0001
0010
0001
0100
0010
0000
0000
,  // measure 33
0000
0100
0100
0100
1000
0001
0010
1000
,  // measure 34
0001
0010
0100
1000
0000
0001
0001
0000
,  // measure 35
0100
0010
0000
0000
1001
0000
0000
0000
0010
0100
0000
0000
1001
0000
0000
0000
,  // measure 36
1010
0000
0001
0001
0000
1000
1100
0000
,  // measure 37
0000
0100
0010
0100
0000
1000
0100
0010
,  // measure 38
0001
0100
0001
0010
0001
0100
0010
0000
,  // measure 39
1000
0100
0000
1000
0010
1000
0000
0000
0001
0100
0000
0001
0010
0001
0000
0000
,  // measure 40
0011
0000
1000
1000
0000
0001
0101
0000
,  // measure 41
0000
0100
0010
0100
0000
0001
0100
0010
,  // measure 42
1000
0100
1000
0010
1000
0100
0010
0000
,  // measure 43
0001
1000
0001
1000
0001
1000
0001
1000
0100
0010
0100
0010
0100
0010
0100
0010
;

//---------------dance-single - ----------------
#NOTEDATA:;
#CHARTNAME:;
#STEPSTYPE:dance-single;
#DESCRIPTION:;
#CHARTSTYLE:;
#DIFFICULTY:Medium;
#METER:8;
#RADARVALUES:0.313601,0.362475,0.212440,0.000000,0.000000,186.000000,168.000000,18.000000,0.000000,0.000000,0.000000,0.000000,0.000000,0.000000,0.313601,0.362475,0.212440,0.000000,0.000000,186.000000,168.000000,18.000000,0.000000,0.000000,0.000000,0.000000,0.000000,0.000000;
#CREDIT:TonyAkita (Hit me, DJ!);
#NOTES:
0000
0000
0000
0000
,
0000
0000
0000
0000
,
0000
0000
0000
0000
,
0000
0000
0000
0000
,
0000
1000
0100
0001
0100
0010
0000
0000
,
0000
0000
0000
0000
0001
0000
1000
1000
,
1000
0000
0000
0001
0100
0010
1000
0000
,
0010
0101
0010
1100
,
0000
0001
0100
1000
0100
0010
0000
0000
,
0000
0000
0000
0000
1000
0000
0001
0001
,
0001
0000
0000
1000
0100
0010
0001
0000
,
0010
1001
0100
1001
,
1000
0000
0001
0100
,
0001
0000
0000
0000
1000
0000
0100
0010
,
0001
0000
0100
0010
1000
0000
0001
0100
,
1000
0000
1000
0100
0001
0000
0001
0000
,
0001
0000
1000
0100
,
1000
0000
0001
0100
,
0010
0000
1000
1000
,
0100
0001
1000
0010
,
0001
0000
0000
0000
1000
0100
0010
0001
,
0010
0000
0000
0000
0001
0100
0010
1000
,
0010
0000
1000
1000
,
0001
0100
1000
0100
,
0001
0000
0000
0000
0010
0001
0100
0001
,
0010
0000
0000
0000
0100
1000
0010
1000
,
0100
0000
0010
0000
,
0001
1000
0001
1000
0001
1000
0001
1000
,
0000
0001
0100
1000
0100
0010
0000
0000
,
0000
0000
0000
0000
1000
0000
0001
0001
,
0001
0000
0000
1000
0100
0010
0001
0000
,
0010
1100
0010
0101
,
0000
1000
0100
0001
0100
0010
0000
0000
,
0000
0000
0000
0000
0001
0000
1000
1000
,
1000
0000
0000
0001
0100
0010
1000
0000
,
0010
1001
0100
1001
,
0010
0000
0000
1100
0000
0000
1010
0000
,
0000
1000
0100
0001
,
0100
0000
0000
0011
0000
0000
0101
0000
,
0001
0010
0001
0000
1000
0100
1000
0000
,
1100
0000
0000
0101
0000
0000
0110
0000
,
0000
1000
0010
0100
,
0101
0000
0000
1100
0000
0000
0110
0000
,
1000
0001
1000
0001
0100
0010
0100
0010
;

//---------------dance-single - ----------------
#NOTEDATA:;
#CHARTNAME:;
#STEPSTYPE:dance-single;
#DESCRIPTION:;
#CHARTSTYLE:;
#DIFFICULTY:Easy;
#METER:6;
#RADARVALUES:0.266392,0.311578,0.212440,0.000000,0.000000,158.000000,140.000000,18.000000,0.000000,0.000000,0.000000,0.000000,0.000000,0.000000,0.266392,0.311578,0.212440,0.000000,0.000000,158.000000,140.000000,18.000000,0.000000,0.000000,0.000000,0.000000,0.000000,0.000000;
#CREDIT:TonyAkita (You're a pussy cat.);
#NOTES:
0000
0000
0000
0000
,
0000
0000
0000
0000
,
0000
0000
0000
0000
,
0000
0000
0000
0000
,
0000
1000
0001
0010
,
0000
0000
0000
0000
0100
0000
1000
1000
,
1000
0001
0100
0010
,
1000
1010
0001
0011
,
0000
0001
1000
0010
,
0000
0000
0000
0000
0100
0000
0001
0001
,
0001
1000
0100
0010
,
0001
0011
1000
1010
,
0001
0000
0000
1000
,
1000
0000
0000
0001
,
0100
1000
0100
0001
,
1000
0100
0010
0001
,
1000
0000
0000
0001
,
0001
0000
0000
1000
,
0100
0010
0001
0100
,
1000
0001
0010
1000
,
1010
0000
0000
0000
0000
0001
0001
0000
,
0011
0000
0000
0000
0000
1000
1000
0000
,
1100
0000
0000
0000
0000
1000
0001
0000
,
0100
1000
0100
0001
,
0101
0000
0000
0000
0000
1000
1000
0000
,
1100
0000
0000
0000
0000
0001
0001
0000
,
0110
1000
0110
0001
,
0100
1000
0100
0001
,
0000
1000
0100
0010
,
0000
0000
0000
0000
0001
0000
1000
1000
,
1000
0001
0010
0001
,
0100
1001
0010
1001
,
0000
0001
0100
0010
,
0000
0000
0000
0000
1000
0000
0001
0001
,
0001
1000
0010
1000
,
0100
1001
0010
1001
,
0000
1000
0100
1000
0100
1000
0000
0000
,
0000
0010
0100
0010
,
1000
0001
0010
0001
,
0100
1010
0100
0011
,
0000
0001
0100
0001
0100
0001
0000
0000
,
0000
0010
0100
0010
,
0001
1000
0010
1000
,
0100
0010
0100
0010
,
1001
0000
0000
0000
;
