#TITLE:Empire State Glory;
#SUBTITLE:;
#ARTIST:Dirty Androids;
#TITLETRANSLIT:;
#SUBTITLETRANSLIT:;
#ARTISTTRANSLIT:;
#GENRE:;
#CREDIT:;
#MUSIC:Empire State Glory.ogg;
#BANNER:Empire State Glory.png;
#BACKGROUND:Empire State Glory-bg.png;
#CDTITLE:;
#SAMPLESTART:90.502;
#SAMPLELENGTH:15.000;
#SELECTABLE:YES;
#OFFSET:1.045;
#BPMS:0.000=173.000;
#STOPS:230.000=0.347;
#BGCHANGES:;
#FGCHANGES:;

//--------------- dance-single - Pandemonium X ----------------
#NOTES:
     dance-single:
     Pandemonium X:
     Beginner:
     4:
     0,0,0,0,0:
0000
0000
0000
0000
,
0000
0000
0000
0000
,
0000
0000
0000
0000
,
0000
0000
0000
0000
,
0000
0000
0000
0000
,
0001
0000
0000
0000
,
0000
0000
0000
0000
,
1000
0000
0000
0000
,
0000
0000
0000
0000
,
0000
0000
0000
0000
,
0010
0000
0000
0000
,
0100
0000
0000
0000
,
0001
0000
0000
0000
,
1000
0000
0000
0100
,
0100
0000
0000
0000
,
0010
0000
0000
0000
,
0100
0000
1000
0000
,
0020
0000
0000
0030
,
0100
0000
0000
0000
,
0001
0000
0010
0000
,
0001
0000
0000
0000
,
1000
0000
0100
0000
,
0010
0000
0010
0000
,
0010
0000
0010
0000
,
0100
0000
0100
0000
,
0100
0100
0100
0000
,
0010
0000
0000
0000
0000
0001
0000
0000
,
0000
0000
0000
0000
0000
0100
0000
0000
,
0000
0000
0000
0000
0000
0010
0000
0000
,
0000
0000
0000
0000
0000
1000
0000
0000
,
0001
0000
0000
0000
0000
1000
0000
0000
,
0000
0000
0000
0000
0000
0100
0000
0000
,
0010
0000
0000
0000
,
0001
0000
0000
0000
,
0100
0000
0000
0000
,
0010
0000
0000
0000
,
1000
0000
0000
0000
,
0100
0000
0000
0000
,
1000
0000
0000
0000
,
0001
0000
0000
0000
,
0100
0000
0000
0000
,
0001
0000
0000
0000
,
0010
0000
0000
0000
,
0100
0000
0000
0000
,
1000
0000
0000
0000
,
0010
0000
0100
0000
,
0001
0000
0000
0000
,
0010
0000
0000
0000
,
0001
0000
0000
0000
,
1000
0000
0001
0000
,
0100
0000
0000
0000
,
0010
0010
0010
0000
,
1000
0000
0000
0000
,
0100
0100
0100
0000
,
0010
0000
0000
0000
,
0001
0001
0001
0000
,
0100
0000
0010
0000
,
0000
0000
0000
1000
,
1000
0000
0000
0001
,
0000
0000
0000
0010
,
0010
0000
0000
0100
,
0000
0000
0000
1000
,
1000
0000
0000
0010
,
0000
0000
0000
0100
,
0000
0001
0000
0020
,
0000
0000
0030
0100
,
0000
1000
0000
0010
,
0000
0100
0100
0001
,
0000
0010
0000
0001
,
0000
1000
1000
0001
,
0000
0100
0000
0001
,
0000
0010
0010
0100
,
0000
0010
0000
0001
,
0000
1000
0001
1000
,
0000
0100
0000
1000
,
0000
0010
0010
0100
,
0000
0001
0000
0010
,
0000
0100
0100
0010
,
0000
0001
0000
1000
,
0000
0010
0010
0100
,
0000
0001
0000
0010
,
0000
0000
0000
0000
0200
0000
0000
0000
0000
0000
0000
0300
0000
0000
0000
0000
;

//--------------- dance-single - Pandemonium X ----------------
#NOTES:
     dance-single:
     Pandemonium X:
     Easy:
     8:
     0,0,0,0,0:
0000
0000
0000
0000
,
0000
0000
0000
0000
,
0000
0000
0000
0000
,
0000
0000
0000
0000
,
0000
0000
0000
0000
,
0001
0000
0001
0000
0000
1000
0000
0010
,
0000
1000
0100
0100
,
0010
0000
0001
0000
0000
0100
0000
0000
,
0010
0000
0000
1000
0000
0000
0001
0000
,
0000
0000
0000
0000
,
1000
1000
0001
0001
,
1000
1000
0001
1000
,
0010
0010
0100
0100
,
0010
0010
0100
0010
,
1000
0100
1000
0010
,
0100
0001
0010
0001
,
0100
0010
0100
0010
,
2000
0000
0000
3000
,
0001
1000
0100
1000
,
0001
0100
0001
1000
,
0001
1000
0010
1000
,
0001
0010
0001
0100
,
0001
0001
1000
1000
,
0001
1000
0010
0100
,
0010
0010
0100
0100
,
0001
0100
0010
1001
,
1000
0000
0001
0000
0010
0100
0000
0100
,
1000
0000
0001
0000
0100
0010
0000
0010
,
1000
0000
0001
0000
0010
0001
0000
0001
,
0100
0000
0010
0000
1000
0010
0000
0010
,
0100
0000
0010
0000
1000
0100
0000
0010
,
0100
0000
0010
0000
0001
0100
0000
0010
,
0100
0100
0100
0100
,
0110
1000
1001
0010
,
2000
0001
0000
3010
,
0200
0010
0000
0310
,
2000
0001
0000
3001
,
2000
0100
0000
3100
,
0010
0001
0100
0010
,
0100
0001
1000
0001
,
0100
0000
0001
0000
0000
1000
0000
0000
,
0000
0010
0100
0000
0010
0000
0100
0000
,
1001
0001
0100
1000
,
0100
0010
1000
0100
,
0010
0001
0100
0001
,
0010
1000
0010
0001
,
1000
0001
0100
0010
,
1000
0100
0010
0100
,
1000
0001
0010
0100
,
0010
0001
0120
0000
,
1030
0001
0001
0001
,
0200
0301
0200
0310
,
1000
0001
0010
0001
,
2000
3100
0200
1300
,
0100
0010
0001
0100
,
0002
0000
0010
0000
0013
0100
0010
0000
,
0100
0000
0000
0100
0000
0000
0100
0000
,
0000
0100
0000
0000
0000
0000
0001
0000
,
2000
0000
0000
3010
0000
0000
2000
0000
,
0000
3100
0000
0000
1100
0000
0001
0000
,
2000
0000
0000
3010
0000
0000
2000
0000
,
0000
3100
0000
0000
1100
0000
1000
0000
,
0020
0000
0000
0130
0000
0000
0002
0000
,
0000
1003
0000
0000
0020
0000
0130
0000
,
0001
0000
1000
0000
0001
0000
1000
0010
,
1000
0010
1000
0010
1000
0000
0001
0000
,
0100
0001
0010
0100
,
1000
0100
0010
0001
,
1000
0001
0100
0010
,
1000
0100
0010
0100
,
1000
0100
1000
0100
,
0010
0001
0100
0010
,
0100
0010
0100
0010
,
0100
0001
1000
0001
,
1000
0010
1000
0001
,
0010
0100
1000
0001
,
0100
0001
0010
0001
,
0010
0100
0010
0001
,
0100
0001
1000
0100
,
1000
0010
0100
0001
,
0010
0100
1000
0001
,
0100
0000
0000
0000
0020
0000
0000
0000
0000
0000
0000
0030
0000
0000
0000
0000
;

//--------------- dance-single - Princess Pamela Vs. Pandemonium X ----------------
#NOTES:
     dance-single:
     Princess Pamela Vs. Pandemonium X:
     Medium:
     12:
     0,0,0,0,0:
0000
0000
0000
0000
,
0000
0000
0000
0000
,
0000
0000
0000
0000
,
0000
0000
0000
0000
,
0000
0000
0000
0000
,
0010
1000
0010
0000
0010
0100
0000
0010
,
0000
0100
0001
0000
0010
0100
0010
0000
,
0001
0010
0001
0000
1000
0100
0000
0010
,
0000
0100
1000
0000
0010
0100
0000
2002
,
0000
0000
0000
3003
,
0001
0001
1000
1000
,
0010
0010
1000
0100
,
0010
0010
0001
0001
,
0100
0000
0100
0000
0010
0000
0010
1000
,
0010
0100
0100
0001
,
0010
0000
0100
0000
1000
0000
0100
0010
,
0100
0000
0010
0001
0010
0000
0001
1000
,
0000
0100
0000
0000
1000
0000
0000
0010
0000
0000
0100
0000
0001
0000
0000
0000
,
1001
0000
1100
0000
0100
1000
0010
0000
,
0100
0000
0101
0000
0001
0010
0100
0000
,
0010
0000
0011
0000
0001
0100
0010
0000
,
1000
0000
1010
0000
0010
1000
0100
0000
,
1000
0010
1000
0000
0001
0100
0000
0010
,
1000
0000
0001
0100
0000
0010
0000
1000
,
0001
1000
0001
0000
1000
0100
0000
0010
,
0001
0000
0000
0001
0000
0000
0100
0000
0000
0010
0000
0000
1000
0000
0000
0000
,
1001
0000
1000
0000
0100
1000
0000
1010
,
0000
0010
0100
0000
0001
0010
0000
0110
,
0000
0010
0001
0000
0100
0010
0000
1010
,
0000
1000
0010
0000
0100
0001
0010
0000
,
1000
0010
0001
0000
1000
0100
0000
0010
,
0001
0000
1000
0100
0000
0010
0000
0001
,
0100
0001
0100
0000
0010
1000
0010
0000
,
1000
0100
0010
0001
0100
0000
0020
0000
,
1030
0001
1000
0000
0100
1000
0000
0100
,
0010
0000
0100
1000
0000
0100
0010
0000
,
0001
0100
0000
0001
0010
0000
0001
1000
,
0000
0001
0100
0000
0010
0100
0000
0001
,
0010
0100
1000
0100
0000
1000
0010
0000
,
0100
0001
0000
0010
0001
0000
0010
0100
,
0000
1000
0001
0000
0100
0010
0000
1000
,
0000
0000
0100
0000
2000
0000
0000
0010
0000
0000
3001
0000
0000
0000
0000
0000
,
1000
0010
1000
0000
0010
0000
0110
0000
,
0100
0001
0100
0000
0001
0000
0011
0000
,
0010
0100
0010
0000
0100
0000
1100
0000
,
1000
0010
1000
0000
0010
0100
1000
0100
,
0001
0000
0010
0001
0000
0010
1000
0010
,
0001
0000
0100
0001
0000
0100
1000
0100
,
0001
0000
0010
0001
0000
0010
1000
0010
,
0001
0000
0000
0001
0000
0000
1000
0000
0010
0000
0010
0000
0100
0000
0000
0000
,
0101
0000
0010
1000
0100
0001
0100
1000
,
0100
0000
1000
0100
0010
0100
1000
0000
,
0001
0000
0001
0010
1000
0010
0001
0000
,
0100
0000
0000
0100
0000
0000
0100
0000
0000
0000
0010
0000
1000
0000
1000
0000
,
0001
0000
0101
0000
0001
0010
1000
0000
,
0010
0001
0010
0100
1000
0100
1000
0000
,
0010
0000
0000
0100
0000
0000
1000
0000
0000
0100
0000
0000
0001
0000
0000
0000
,
0010
0000
0000
0100
0010
0000
0000
0000
0002
0003
0000
0000
1000
0000
0000
0000
,
0020
0000
0000
0230
0000
0000
2300
0000
,
0000
3200
0000
0301
0010
0000
0100
0000
,
2000
0000
0000
3200
0000
0000
0302
0000
,
0000
0203
0000
0310
0001
0100
0010
0000
,
2000
0000
3100
0200
0000
0310
0020
0000
,
0031
0002
0000
0103
0010
0000
1000
0001
,
1000
0000
0010
0100
0010
0000
1000
0100
,
0010
0001
0100
0000
1001
0000
1000
0100
,
1000
0000
0010
0000
0100
0000
0001
0100
,
0001
0000
0010
0100
1000
0000
0001
0010
,
0001
0000
0100
0000
0010
0000
1000
0010
,
1000
0000
0010
0100
0001
1000
0100
0000
,
0001
0100
1000
0001
1000
0010
0100
0000
,
1000
0100
0001
1000
0001
0010
0100
0000
,
0001
0000
0100
0000
1000
0000
0001
0000
1000
0000
0010
0000
0100
0000
0000
0100
,
0001
0000
0100
0000
0000
0010
0000
0000
2000
0000
0000
0000
3001
0000
0100
0000
,
0010
0000
0001
0000
0010
0000
1000
0100
,
0001
0000
0100
0000
0010
0000
0001
0010
,
1000
0000
0010
0000
0100
0000
1000
0100
,
0001
0000
0100
0000
1000
0100
0010
0000
,
0001
0100
1000
0100
0010
1000
0001
0000
,
1000
0100
0001
0100
0010
0001
1000
0000
,
0001
0000
0100
0000
1000
0000
0100
0000
0010
0000
1000
0000
0001
0000
0000
0100
,
0001
0000
0100
0000
0020
0000
0000
0000
0000
0000
0000
0030
0000
0000
0000
0000
;

//--------------- dance-single - Princess Pamela Vs. Pandemonium X ----------------
#NOTES:
     dance-single:
     Princess Pamela Vs. Pandemonium X:
     Hard:
     16:
     0,0,0,0,0:
0000
0000
0000
0000
,
0000
0000
0000
0000
,
0000
0000
0000
0000
,
0000
0000
0000
0000
,
0000
0000
0000
0000
,
0001
0000
0010
0000
0001
0000
1000
0010
0000
1000
0010
0000
0000
0000
0100
0000
,
0000
0000
0010
0000
1000
0000
0001
0010
0000
0001
0010
0000
0001
0000
0000
0000
,
1000
0000
0100
0000
1000
0000
0001
0100
0000
0001
0100
0000
0010
0000
1000
0000
,
0000
0000
0100
1000
0100
0000
0000
0010
0000
0000
0001
0000
0000
0000
2002
0000
,
0000
0000
0000
3003
,
0001
0100
0001
0100
0010
0100
1000
0100
,
0001
0100
0010
0100
1000
0100
0001
1000
,
0100
1000
0100
1000
0100
0010
0100
0001
,
0100
1000
0100
0010
0100
0001
0100
0100
,
1000
0010
1000
0010
0100
0010
0001
0010
,
1000
0010
0100
0010
0001
0010
1000
1000
,
0001
0000
0001
0000
0100
0000
0100
0000
0010
0000
0010
0000
1000
0001
1000
0001
,
0000
0010
0100
0000
1000
0001
0000
0100
0010
0000
0100
0000
1001
0000
0000
0000
,
1000
0000
0001
0100
0001
0000
1000
0000
0100
0010
0100
0000
1000
0000
0000
0000
,
0001
0000
1000
0100
1000
0000
0001
0000
0100
0010
0100
0000
0010
0000
1000
0000
,
0100
0000
1000
0001
1000
0000
0100
0000
0010
0001
0010
0000
0001
0000
0000
0000
,
0100
0000
0010
1000
0010
0000
0100
0000
0001
1000
0001
0000
0100
0000
0010
0000
,
1000
0100
0002
0000
0103
2000
0000
3010
,
0002
0000
0013
2000
0000
3200
0000
0310
,
0001
0100
2000
0000
3100
0002
0000
0013
,
0100
0000
1000
0010
0000
0100
0001
0000
1000
0100
0000
0010
0001
0000
0100
0000
,
1001
0000
0001
0000
0010
0000
0100
0010
0001
0000
0100
0000
0010
0000
1000
0000
,
0100
0000
0010
0100
1000
0000
0010
0000
0100
0000
0001
0000
0011
0000
0000
0000
,
0010
0000
0100
0000
1000
0000
0010
0100
0001
0000
0010
0000
0100
0000
0010
0000
,
0001
0000
0100
0010
1000
0000
0100
0000
1000
0001
1000
0000
0001
0000
0010
0000
,
0001
0100
2000
0000
3100
0002
0000
0013
,
2000
0000
3010
0002
0000
0203
0000
0310
,
1000
0001
1000
0001
1000
0001
1000
0001
,
0100
0010
0100
0010
1000
0001
1000
0001
0100
0010
1000
0001
0200
0000
0000
0000
,
0310
0000
1000
0000
0001
0000
0010
0001
0000
0010
0001
0000
0000
0000
0100
0000
,
0010
0000
1000
0000
0100
0000
1000
0001
0000
1000
0001
0000
0010
0000
0000
0000
,
0100
0000
1000
0000
0010
0000
0100
0010
0000
0100
0010
0000
0100
0000
0001
0000
,
0000
0000
0010
0000
0001
0000
1000
0100
0000
0100
1000
0000
0010
0000
0000
0000
,
0100
0000
0001
0000
0010
0000
0100
1000
0000
0100
1000
0000
0000
0000
0010
0000
,
0100
0000
0001
0000
1000
0000
0001
0100
0000
0001
0100
0000
0010
0000
0000
0000
,
1000
1000
0001
0100
0100
0001
0010
0100
,
0000
0000
1000
0001
1000
0000
0000
0010
0000
0000
0100
0000
0002
0000
0000
0000
,
1003
0000
0001
0100
0001
0000
1000
0000
0100
0010
0001
0000
0011
0000
0000
0000
,
0001
0000
1000
0100
1000
0000
0001
0000
0100
0010
1000
0000
1010
0000
0000
0000
,
1000
0000
0001
0010
0001
0000
1000
0000
0010
0100
0001
0000
0101
0000
0000
0000
,
0001
0000
1000
0010
1000
0000
0001
0000
0010
0100
1000
0000
0020
0000
0230
0000
,
0301
1000
0001
0000
0010
0000
0001
1000
0100
0000
0010
0000
0001
0100
0010
0000
,
1000
0001
1000
0000
0010
0000
1000
0001
0100
0000
0010
0000
1000
0100
0010
0000
,
0001
1000
0001
0000
0100
0000
0001
1000
0010
0000
0100
0000
0001
0010
0100
0000
,
1000
0001
0000
0100
0010
0000
1000
0001
0010
0100
1000
0001
0200
0000
0010
0000
,
0310
0000
0010
1000
0010
0001
0010
1000
,
0020
0000
0000
0000
0130
0000
0010
0100
1000
0000
0100
0000
0002
0000
0000
0000
,
0013
0100
0010
0001
0010
1000
0010
0000
,
0100
1000
0100
0010
0100
0000
0002
0000
0000
0103
1000
0000
0020
0000
0100
0000
,
0130
0000
0010
0001
0010
1000
0010
0000
,
1000
0100
1000
0100
0010
0001
0010
0100
1000
0000
0010
0100
0002
0000
0000
0000
,
0013
0000
0001
0010
0000
0100
1000
0000
0001
0100
0000
0010
1000
0000
0100
0010
,
0001
0000
0100
0001
0100
0000
0010
0000
2000
3000
0000
0000
0001
0000
0100
0000
,
0010
0000
1000
0000
0001
0000
0010
0000
0100
0000
1000
0000
0001
0100
0001
0000
,
1000
0100
1000
0000
0010
0000
0100
0000
0002
0000
0000
0000
1003
0000
0100
0000
,
0010
0000
0001
0000
1000
0000
0010
0000
0100
0000
0001
0000
0010
0000
0100
1000
,
0001
0000
0010
0000
0001
1000
0100
0000
0010
0001
0010
0001
1000
0000
0010
0000
,
1000
0001
0100
2000
0000
3100
0002
0000
,
0013
2000
0000
3010
0002
0000
0103
0010
,
0100
0000
0010
0000
0100
0000
0010
0000
0100
0000
0010
0000
1000
0001
1000
0001
,
0010
0100
1000
0001
0100
0010
1000
0001
0010
0000
0000
0000
0100
1000
0100
0000
,
0010
0000
0100
1000
0001
0000
0100
0000
0010
1000
0001
0000
1000
0000
0100
0010
,
0001
0000
0100
0000
0001
1000
0010
0000
0110
0000
0000
0000
0100
0001
0100
0000
,
0010
0000
0100
0001
1000
0000
0100
0000
0010
0001
1000
0000
0001
0000
0100
0010
,
1000
0000
0100
0000
1000
0001
0010
0000
0200
0000
0320
0000
0130
1000
0100
1000
,
0001
0000
0100
0001
1000
0000
1100
0000
0100
0010
0001
0000
0100
0001
0100
0001
,
1000
0000
0100
1000
0001
0000
0101
0000
0100
0010
1000
0000
0001
0010
0001
0010
,
0100
0000
1000
0010
0100
0000
0110
0000
0010
1000
0001
0000
0010
0100
0000
1000
,
0001
0000
0100
0010
0000
1000
0001
0000
0100
0001
1000
0010
0100
0001
0100
0000
,
0010
0000
0100
0001
1000
0000
0100
0000
0010
0001
1000
0000
0001
0000
0100
0010
,
1000
0000
0100
0000
1000
0001
0010
0000
0110
0000
0000
0000
0100
1000
0100
0000
,
0010
0000
0100
1000
0001
0000
0100
0000
0010
1000
0001
0000
1000
0000
0100
0010
,
0001
0000
0100
0000
0001
1000
0010
0000
0200
0000
0320
0000
1030
0001
0100
0001
,
1000
0000
0100
1000
0001
0000
0101
0000
0100
0010
1000
0000
0001
1000
0100
1000
,
0001
0000
0100
0001
1000
0000
1100
0000
0100
0010
0001
0000
1000
0010
1000
0010
,
0100
0000
0001
0010
0100
0000
0110
0000
0010
0001
1000
0000
0010
0100
0000
0001
,
1000
0000
0010
0000
1000
0100
0010
0001
1000
0010
0100
0001
0000
0000
0000
0000
;
