#VERSION:0.83;
#TITLE:Empire State Glory;
#SUBTITLE:;
#ARTIST:Dirty Androids;
#TITLETRANSLIT:;
#SUBTITLETRANSLIT:;
#ARTISTTRANSLIT:;
#GENRE:Cyberpunk;
#ORIGIN:;
#CREDIT:;
#BANNER:Empire State Glory.png;
#BACKGROUND:Empire State Glory-bg.png;
#PREVIEWVID:;
#JACKET:Empire State Glory-jacket.png;
#CDIMAGE:;
#DISCIMAGE:;
#LYRICSPATH:;
#CDTITLE:cdtitle.png;
#MUSIC:Empire State Glory.ogg;
#OFFSET:-0.340390;
#SAMPLESTART:57.219002;
#SAMPLELENGTH:11.098263;
#SELECTABLE:YES;
#BPMS:0.000=86.500,
18.000=173.000,
114.000=86.500,
130.000=173.000;
#STOPS:;
#DELAYS:;
#WARPS:;
#TIMESIGNATURES:0.000=4=4;
#TICKCOUNTS:0.000=4;
#COMBOS:0.000=1;
#SPEEDS:0.000=1.000=0.000=0;
#SCROLLS:0.000=1.000;
#FAKES:;
#LABELS:0.000=Song Start;
#BGCHANGES:;
#KEYSOUNDS:;
#ATTACKS:
;

//---------------dance-single - ----------------
#NOTEDATA:;
#CHARTNAME:;
#STEPSTYPE:dance-single;
#DESCRIPTION:;
#CHARTSTYLE:;
#DIFFICULTY:Challenge;
#METER:16;
#RADARVALUES:0.810140,0.863526,0.136240,0.544959,0.740804,666.000000,650.000000,16.000000,64.000000,9.000000,0.000000,0.000000,0.000000,0.000000,0.810140,0.863526,0.136240,0.544959,0.740804,666.000000,650.000000,16.000000,64.000000,9.000000,0.000000,0.000000,0.000000,0.000000;
#CREDIT:;
#NOTES:
// measure 0
0000
0000
0000
0000
,  // measure 1
0000
0000
0000
0000
,  // measure 2
1000
0100
0010
0000
0100
0010
0010
0001
0000
0100
0010
0000
0100
0010
1000
0000
,  // measure 3
0001
0000
0010
0000
0001
0000
1000
0000
0010
0000
1000
0000
0001
0000
0010
0000
0000
0000
0100
0010
0100
0000
0000
1000
0000
0000
0001
0000
0000
0000
2002
0000
,  // measure 4
0000
0000
0000
0000
0000
3003
0000
0000
1000
0000
0001
0000
0100
0000
0001
0000
,  // measure 5
1000
0001
0010
0001
0100
0001
1000
0001
,  // measure 6
0010
0001
0100
0100
0001
1000
0100
1000
,  // measure 7
0001
1000
0010
1000
0100
1000
0001
1000
,  // measure 8
0010
1000
0100
0100
0010
0001
1000
0010
,  // measure 9
1000
0001
0010
1000
0010
0001
1000
0010
,  // measure 10
0001
0010
1000
1000
0001
0001
1000
1000
,  // measure 11
0001
0000
0001
0000
1000
0000
0002
0000
0000
0010
0000
0000
2003
0000
0000
0010
,  // measure 12
0000
0000
3002
0000
0000
0000
0010
0000
0103
0000
0000
0000
0001
0100
0010
0000
,  // measure 13
0100
0010
1000
0000
1010
0000
0000
0000
0001
0000
0001
0000
1000
0100
1000
0000
,  // measure 14
0010
0000
0100
0000
0001
0000
1000
0000
0100
0000
0000
0000
1000
0100
0010
0000
,  // measure 15
0100
0010
0001
0000
0011
0000
0000
0000
1000
0000
1000
0000
0001
0100
0001
0000
,  // measure 16
0010
0100
1000
0002
0100
0100
2003
0000
,  // measure 17
0010
0000
3002
0000
0000
0000
0100
0000
2003
0000
0000
0000
3010
0100
0001
0000
,  // measure 18
0000
1001
0000
2000
0100
0100
3002
0000
,  // measure 19
0010
0000
2003
0000
0000
0000
0100
0000
3002
0000
0000
0103
0010
0000
1000
0000
,  // measure 20
0000
1000
0100
0000
0010
0001
1000
0000
0001
0000
0100
0000
0001
0000
0100
0010
,  // measure 21
1000
0000
0011
0000
0000
0000
1000
0000
1000
0000
0100
0000
1000
0000
0100
0010
,  // measure 22
0001
0000
1010
0000
0000
0000
0001
0000
0001
0000
0100
0000
0001
0000
0100
0010
,  // measure 23
1000
0000
0011
0000
0000
0000
1000
0000
0100
0000
0010
0000
0001
0000
1000
0010
,  // measure 24
0100
0001
1000
0000
0001
0000
2000
0000
0100
0000
0100
0000
3002
0000
0000
0000
,  // measure 25
0010
0000
2003
0000
0000
0000
0100
0000
3002
0000
0000
0000
0013
0100
1000
0000
,  // measure 26
0000
1001
0000
0001
0100
0100
0010
0010
,  // measure 27
1000
0000
1000
0000
0001
0000
0001
0000
1000
0100
1000
0100
0010
0001
1000
0001
,  // measure 28
0100
0000
0010
0000
1000
0000
0000
0000
2002
0000
3003
0000
0001
0002
0000
0010
,  // measure 29
0023
0000
0100
0230
0000
1000
2300
0000
0010
3020
0000
0100
0230
0000
0001
0302
,  // measure 30
0000
0000
1000
0000
2003
0000
0000
0000
3001
1000
0001
0000
1000
0000
0000
0000
0001
0000
0010
0000
0100
0000
0010
0000
0001
0000
0000
0000
0011
0000
0000
0000
,  // measure 31
1000
0010
0100
0010
1000
0000
0001
0010
1000
0010
0001
0000
1000
0010
0001
0010
,  // measure 32
1000
0000
0000
0000
0002
0000
0003
2000
0000
3000
0200
0000
0300
0000
0000
0000
1000
0000
0100
0000
1000
0000
0200
0000
0010
0000
0000
0000
0000
0000
0000
0000
,  // measure 33
1300
0000
0100
0000
0010
0001
1000
0000
0001
0100
0001
0200
0010
0000
0000
0000
,  // measure 34
0301
0000
0100
0000
0010
1000
0001
0000
1000
0100
1000
0200
0010
0000
0000
0000
,  // measure 35
1300
0000
0100
0000
0010
0001
1000
0000
0001
0100
0001
0200
0010
0000
0000
0000
,  // measure 36
0301
0000
0100
0001
1000
0001
0010
0000
0001
0010
0100
2000
0001
0000
0000
0000
,  // measure 37
3010
0M00
0010
0000
0001
0100
0010
0000
1000
0010
0100
0002
1000
0000
0000
0000
,  // measure 38
0013
0M00
0010
0000
1000
0100
0010
0000
0001
0010
0100
2000
0001
0000
0000
0000
,  // measure 39
3010
0M00
0010
0000
0001
0100
0010
0000
1000
0010
0100
0002
1000
0000
0000
0000
,  // measure 40
0013
0100
0010
0100
1000
0001
1000
0001
0100
0000
0100
0000
0001
0000
0100
0000
,  // measure 41
1000
0001
0010
1000
2010
0000
3001
1000
,  // measure 42
0100
1000
2010
0000
3100
0100
1000
0100
,  // measure 43
0001
0000
1000
0000
0010
0000
0001
0000
2000
0000
3001
1000
0001
0000
0200
0000
,  // measure 44
0300
0001
0010
0000
0012
0000
0000
0000
0103
0000
0100
0000
0001
0000
0100
0000
,  // measure 45
1000
0000
0001
0000
0010
0000
1000
0000
0001
1000
0001
1000
0100
0010
0100
0010
,  // measure 46
0001
0000
0010
0000
2002
0000
3003
0000
1000
0000
0001
0100
0000
0010
0100
0000
,  // measure 47
1000
0100
0000
0010
0200
0000
0301
1000
0100
0000
0001
0000
0100
0000
2000
0000
,  // measure 48
0002
0000
0000
0000
3003
0000
0000
0000
0001
0000
0010
0000
0100
0000
0010
0001
,  // measure 49
1000
0001
0100
0000
0010
0000
0001
0000
0010
0000
0100
0000
0001
0000
1000
0100
,  // measure 50
0010
0000
0001
0000
0011
0000
0000
0000
1000
0000
0010
0000
0100
0000
0010
1000
,  // measure 51
0001
1000
0100
0000
0010
0000
1000
0000
0010
0000
0100
0000
1000
0000
0001
0100
,  // measure 52
0010
0000
1000
0000
1010
0000
0000
0000
0001
0000
0100
0000
0010
0000
0100
0001
,  // measure 53
1000
0001
0010
0000
0100
0000
0001
0000
0100
0000
0010
0000
0001
0000
1000
0010
,  // measure 54
0100
1000
0100
0010
1000
1000
0100
0100
,  // measure 55
0010
0000
0010
0000
0001
0000
0001
0000
1000
0100
1000
0100
0010
0001
0010
0001
,  // measure 56
0100
0001
0010
0100
1000
0000
0000
0000
0001
0100
0001
0200
0010
0000
0000
0000
,  // measure 57
0301
0000
0100
0000
0010
1000
0001
0000
1000
0100
1000
0200
0010
0000
0000
0000
,  // measure 58
1300
0000
0100
0000
0010
0001
1000
0000
0001
0100
0001
0200
0010
0000
0000
0000
,  // measure 59
0301
0000
0100
0000
0010
1000
0001
0000
1000
0100
1000
0200
0010
0000
0000
0000
,  // measure 60
1300
0000
0100
1000
0001
1000
0010
0000
1000
0010
0100
0002
1000
0000
0000
0000
,  // measure 61
0013
0M00
0010
0000
1000
0100
0010
0000
0001
0010
0100
2000
0001
0000
0000
0000
,  // measure 62
3010
0M00
0010
0000
0001
0100
0010
0000
1000
0010
0100
0002
1000
0000
0000
0000
,  // measure 63
0013
0M00
0010
0000
1000
0100
0010
0000
0001
0010
0100
2000
0001
0000
0000
3010
,  // measure 64
0100
0000
0010
0000
0100
0010
1000
0001
1000
0100
1000
0200
0010
0000
0000
0000
,  // measure 65
0301
0000
0100
0000
0010
0100
1000
0000
0001
0100
0001
0200
0010
0000
0000
0000
,  // measure 66
1300
0000
0100
0000
0010
0100
0001
0000
1000
0100
1000
0200
0010
0000
0000
0000
,  // measure 67
0301
0000
0100
0000
0010
0100
1000
0000
0001
0100
0001
0200
0010
0000
0000
0000
,  // measure 68
0301
0000
0100
0001
1000
0001
0010
0000
0001
1000
0100
2000
0010
0000
0000
0000
,  // measure 69
3100
00M0
0100
0000
0001
0100
0010
0000
1000
0001
0100
0002
0010
0000
0000
0000
,  // measure 70
0103
00M0
0100
0000
1000
0100
0010
0000
0001
1000
0100
2000
0010
0000
0000
0000
,  // measure 71
3100
00M0
0100
0000
0001
0100
0010
0000
1000
0001
0100
0002
0010
0000
0000
0000
,  // measure 72
1003
0010
0100
0001
1000
0100
0010
0001
0000
0000
0000
0000
0000
0000
0000
0000
;

//---------------dance-single - ----------------
#NOTEDATA:;
#CHARTNAME:;
#STEPSTYPE:dance-single;
#DESCRIPTION:;
#CHARTSTYLE:;
#DIFFICULTY:Hard;
#METER:13;
#RADARVALUES:0.613079,0.801846,0.178815,0.604564,0.195845,504.000000,483.000000,21.000000,71.000000,0.000000,0.000000,0.000000,0.000000,0.000000,0.613079,0.801846,0.178815,0.604564,0.195845,504.000000,483.000000,21.000000,71.000000,0.000000,0.000000,0.000000,0.000000,0.000000;
#CREDIT:;
#NOTES:
0000
0000
0000
0000
,
0000
0000
0000
0000
,
1000
0000
0100
0000
0010
0000
0000
0001
0000
0000
0100
0000
0010
0000
1000
0000
,
0001
0000
0000
0000
0010
0000
0000
0000
0100
0000
0000
0000
0000
0000
1000
0000
0000
0000
0000
0000
0010
0000
0000
0100
0000
0000
0002
0000
0000
0000
2000
0000
,
0000
0000
3003
0000
0001
0000
1000
0001
,
0100
0000
1001
0000
1000
0001
0010
0000
,
1001
0000
1000
0001
0100
0000
0001
1000
,
0100
0000
1001
0000
0001
1000
0010
0000
,
1001
0000
0001
1000
0100
0000
0010
0001
,
0100
0000
1001
0000
0010
1000
0100
0000
,
1001
0000
0001
0100
0010
1000
0010
1000
,
0010
0000
1000
0000
0010
0000
2000
0000
0000
0010
0000
0000
3002
0000
0000
0010
,
0000
1003
0000
1002
0103
0000
0001
0100
,
0010
1000
0001
0000
0001
0100
0010
1000
,
0001
0001
1001
0000
1000
0000
1000
0100
,
0010
0001
1000
0000
1000
0100
0010
0001
,
1000
1000
0001
0100
0010
1000
2000
0000
,
0001
3002
0000
1000
2003
0000
0100
3100
,
0000
1001
0000
1000
0010
0100
0200
0000
,
0001
0302
0000
1000
2003
0000
3100
0010
,
0100
0010
0001
0000
1000
0010
0100
0010
,
1000
0100
0000
1000
0001
0010
0100
0010
,
0001
0100
0000
0001
1000
0010
0100
0010
,
1000
0100
0000
0010
0001
1000
0010
0100
,
0001
0001
1000
0100
0010
0001
0002
0000
,
1000
2003
0000
0001
3002
0000
0100
0103
,
0000
1001
0000
0001
0010
0100
0010
0100
,
1000
0001
1000
0001
0200
0000
0320
0000
,
1030
0000
0001
0000
0010
0000
0000
0000
2002
0000
3003
0000
0000
0002
0000
0000
,
0203
0000
0000
0320
0000
0000
2030
0000
0000
3200
0000
0000
0320
0000
0000
0032
,
0000
0000
2003
0000
3010
0100
0001
0000
1000
0100
1000
0100
0010
0000
0001
0000
,
1000
0010
1000
0010
0100
0000
0001
0010
0001
0010
0100
0000
1000
0010
1000
0010
,
0100
0000
0000
0000
0002
0000
0003
2000
0000
3000
0200
0000
0300
0000
0000
0000
1000
0000
0000
0000
0020
0000
0000
0000
0100
0000
0000
0000
0000
0000
0000
0000
,
1030
0000
0010
0000
1000
0010
1000
0000
0001
0000
0020
0000
0100
0000
0000
0000
,
0031
0000
0010
0000
0001
0010
0001
0000
1000
0000
0020
0000
0100
0000
0000
0000
,
1030
0000
0010
0000
1000
0010
1000
0000
0001
0000
0020
0000
0100
0000
0000
0000
,
0031
0000
1000
0001
1000
0000
0000
0000
0001
0000
0200
0000
1000
0000
0000
0000
,
0301
0000
1000
0000
0001
1000
0001
0000
1000
0000
0200
0000
0001
0000
0000
0000
,
1300
0000
0001
0000
1000
0001
1000
0000
0001
0000
0200
0000
1000
0000
0000
0000
,
0301
0000
1000
0000
0001
1000
0001
0000
1000
0000
0100
0000
0001
0000
0000
0000
,
0220
0000
0330
0000
1001
0000
0001
0100
,
0001
0100
0010
0100
2000
0000
3100
0010
,
1000
0010
0100
0000
1001
0000
1000
0100
,
1000
0100
0010
0100
0002
0000
0103
0020
,
0000
0130
0010
0001
1001
0000
0001
0100
,
0001
0100
0010
0100
2000
0000
3001
0010
,
0100
0000
0010
0000
1000
0000
0000
0000
2001
0000
0000
3200
0000
0000
0320
0000
,
0000
0230
0000
0000
0302
0000
0000
0000
1003
0000
0010
0000
0002
0000
2000
0000
,
0000
0000
3003
0000
1002
0000
0103
0010
,
0001
0010
0100
0000
0010
1000
0010
1000
,
0100
0010
0001
1000
2001
0000
3100
0010
,
1000
0010
0100
0000
0010
0001
0010
0001
,
0100
0010
1000
0001
2001
0000
3010
0100
,
1000
0100
0001
0000
0010
0100
0001
0100
,
1000
0001
0100
0000
0010
1000
0001
1000
,
0100
1000
0001
1000
0020
0000
2030
0000
,
3010
1000
1001
0000
0001
0020
0100
0000
,
0031
0000
0010
0000
0001
0010
0001
0000
1000
0000
0020
0000
0100
0000
0000
0000
,
1030
0000
0010
0000
1000
0010
1000
0000
0001
0000
0020
0000
0100
0000
0000
0000
,
0031
0000
0010
0000
0001
0010
0001
0000
1000
0000
0020
0000
0100
0000
0000
0000
,
1030
0000
0001
1000
0001
0000
0000
0000
1000
0000
0200
0000
0001
0000
0000
0000
,
1300
0000
0001
0000
1000
0001
1000
0000
0001
0000
0200
0000
1000
0000
0000
0000
,
0301
0000
1000
0000
0001
1000
0001
0000
1000
0000
0200
0000
0001
0000
0000
0000
,
1300
0000
0001
0000
1000
0001
1000
0000
0001
0000
0200
0000
1000
0000
0000
0000
,
0310
0000
0100
0000
0100
0000
0001
1000
0001
0000
2000
0000
0100
0000
0000
0000
,
3001
0000
0010
0000
0001
0010
0100
0000
1000
0000
0002
0000
0100
0000
0000
0000
,
1003
0000
0010
0000
1000
0010
0100
0000
0001
0000
2000
0000
0100
0000
0000
0000
,
3001
0000
0010
0000
0001
0010
0100
0000
1000
0000
0002
0000
0100
0000
0000
0000
,
1003
0000
0001
1000
0001
0000
0000
0000
0001
0000
0020
0000
1000
0000
0000
0000
,
0130
0000
0010
0000
0100
0010
0001
0000
1000
0000
0020
0000
0001
0000
0000
0000
,
0130
0000
0010
0000
0100
0010
1000
0000
0001
0000
0020
0000
1000
0000
0000
0000
,
0130
0000
0010
0000
0100
0010
0001
0000
1000
0000
0010
0000
0001
0000
0000
0000
,
0220
0000
0000
0000
0000
0000
0000
0330
0000
0000
0000
0000
0000
0000
0000
0000
;

//---------------dance-single - ----------------
#NOTEDATA:;
#CHARTNAME:;
#STEPSTYPE:dance-single;
#DESCRIPTION:;
#CHARTSTYLE:;
#DIFFICULTY:Medium;
#METER:9;
#RADARVALUES:0.439130,0.555124,0.229905,0.493869,0.034060,361.000000,334.000000,27.000000,58.000000,0.000000,0.000000,0.000000,0.000000,0.000000,0.439130,0.555124,0.229905,0.493869,0.034060,361.000000,334.000000,27.000000,58.000000,0.000000,0.000000,0.000000,0.000000,0.000000;
#CREDIT:;
#NOTES:
0000
0000
0000
0000
,
0000
0000
0000
0000
,
1000
0000
0000
0100
0000
0000
0010
0000
0000
0001
0000
0000
0100
0000
0000
0010
,
0000
0000
1000
0000
0000
0001
0000
0000
0010
0000
0000
0100
0000
0000
2000
0000
,
0000
0000
0000
0000
0000
3000
0000
0000
0001
0000
0000
0000
0001
0000
0000
0000
,
0001
0100
0010
0010
,
0100
0001
1000
1000
,
1000
0100
0010
0010
,
0100
1000
0001
0001
,
0100
0010
1000
0100
,
0010
0001
1000
0001
,
1000
0001
2002
0000
,
0000
0000
3003
0000
0001
0000
1000
0010
,
0100
0000
0010
0000
0100
0010
1000
0000
,
0001
0000
0001
0000
1000
0000
0001
0010
,
0100
0000
0010
0000
0100
0010
0001
0000
,
1000
0000
0001
0000
0100
0010
0100
0000
,
0020
0000
0100
0000
0032
0000
0000
0023
,
0000
2030
0000
0000
3100
0010
0100
0000
,
0020
0000
0100
0000
0031
0000
1000
0010
,
0100
0000
0001
0000
1000
0100
0010
0000
,
0001
0000
0011
0000
0001
0100
0010
0000
,
1000
0000
1010
0000
1000
0100
0010
0000
,
0001
0000
0011
0000
0001
0100
0010
0000
,
1000
0000
1000
0000
0100
0010
0100
0000
,
0020
0000
0100
0000
2030
0000
0000
3020
,
0000
0032
0000
0000
0103
0000
0100
0000
,
0010
0000
0010
0000
1000
0001
1000
0001
,
1000
0000
0002
0023
,
0230
0000
0000
2300
0000
0000
3020
0000
0000
0230
0000
0000
0302
0000
0000
0023
,
0000
0230
2300
3002
0103
0010
1000
1000
,
0100
0010
0001
0001
0010
0100
1000
0001
,
1000
2002
0000
3003
1000
0010
0200
0000
,
0300
0010
1000
0000
0001
0010
0200
0000
,
0300
0010
0001
0000
1000
0010
0200
0000
,
0300
0010
1000
0000
0001
0010
0100
0000
,
0010
0001
1000
0000
0001
0100
2000
0000
,
3000
0100
0001
0000
1000
0100
0002
0000
,
0003
0100
1000
0000
0001
0100
2000
0000
,
3000
0100
0001
0000
1000
0100
0001
0000
,
0220
0000
0330
0000
1001
0000
0001
0100
,
0010
0010
2010
0000
,
0001
0000
3010
0000
1001
0000
1000
0100
,
0010
0000
0010
0000
0012
0000
0000
1000
,
0000
0000
0013
0000
1001
0000
0001
0100
,
0010
0000
0010
0000
1000
0100
0010
0000
,
0100
0010
0001
0000
2002
0000
0000
0000
,
3003
0000
1001
0000
0001
0100
0020
2000
,
0000
0000
3030
0000
0002
0000
1003
0100
,
0010
0000
1100
0000
0011
0000
0010
0100
,
1000
0000
0001
0000
0200
0000
0301
0100
,
0010
0000
0101
0000
1010
0000
0010
0100
,
0001
0000
1000
0000
0200
0000
0310
0100
,
1000
0000
0110
0000
1001
0000
0001
0100
,
0010
0100
0001
0001
,
1000
1000
0002
2003
,
3001
1000
1001
0000
0001
0010
0200
0000
,
0300
0010
0001
0000
1000
0010
0200
0000
,
0300
0010
1000
0000
0001
0010
0200
0000
,
0300
0010
0001
0000
1000
0010
0100
0000
,
0010
1000
0001
0000
1000
0100
0002
0000
,
0003
0100
1000
0000
0001
0100
2000
0000
,
3000
0100
0001
0000
1000
0100
0002
0000
,
0003
0100
1000
0000
0001
0100
1000
0000
,
1000
0100
0001
0000
1000
0200
0010
0000
,
0300
1000
1100
0000
0001
0200
0010
0000
,
0300
0001
0101
0000
1000
0200
0010
0000
,
0300
1000
1100
0000
0001
0100
0010
0000
,
0100
0010
1000
0000
0001
0020
1000
0000
,
0030
0001
0011
0000
1000
0020
0001
0000
,
0030
1000
1010
0000
0001
0020
1000
0000
,
0030
0001
0011
0000
1000
0010
0001
0000
,
0220
0000
0000
0000
0000
0000
0000
0330
0000
0000
0000
0000
0000
0000
0000
0000
;

//---------------dance-single - ----------------
#NOTEDATA:;
#CHARTNAME:;
#STEPSTYPE:dance-single;
#DESCRIPTION:;
#CHARTSTYLE:;
#DIFFICULTY:Easy;
#METER:6;
#RADARVALUES:0.290726,0.308402,0.255450,0.349114,0.000000,239.000000,209.000000,30.000000,41.000000,0.000000,0.000000,0.000000,0.000000,0.000000,0.290726,0.308402,0.255450,0.349114,0.000000,239.000000,209.000000,30.000000,41.000000,0.000000,0.000000,0.000000,0.000000,0.000000;
#CREDIT:;
#NOTES:
0000
0000
0000
0000
,
0000
0000
0000
0000
,
1000
0100
0010
0001
,
1000
0010
0100
0001
,
0020
0000
0000
0000
0000
0030
0000
0000
0001
0000
0000
0000
0000
0000
0000
0000
,
0010
0100
0000
0010
,
0100
0000
1000
0000
,
0010
0100
0000
0010
,
0100
0000
0001
0000
,
1000
0100
0000
0010
,
0001
0000
1000
0001
,
1000
0001
2002
0000
,
0000
3003
1000
0000
,
0010
0000
1000
0010
,
0100
0001
0001
0000
,
0010
0000
0001
0010
,
0100
1000
2000
0000
,
0010
0000
0010
0010
,
3001
0000
0002
0000
,
0010
0000
1003
0001
,
1001
0000
0001
0001
,
0101
0000
1000
1000
,
1100
0000
0001
0001
,
0011
0000
1000
1000
,
1010
0000
0002
0000
,
0010
0000
0010
0010
,
1003
0000
1000
1000
,
0001
0001
0100
0010
,
1000
0000
0002
0003
,
0020
0030
0200
0300
,
2000
3000
0001
0100
,
0010
1000
0100
0010
,
0002
0000
1003
1020
,
0030
1000
0001
0021
,
0030
0001
1000
1020
,
0030
1000
0002
0010
,
2003
0010
3100
0120
,
0030
0001
0100
0120
,
0030
1000
0100
0120
,
0030
0001
0100
0010
,
2002
3003
1000
0100
,
0010
0100
1000
0000
,
1100
0000
0001
0100
,
0010
0100
0001
0000
,
0101
0000
1000
0100
,
0010
0001
1000
0000
,
1001
0000
0001
0100
,
0010
1000
0002
0000
,
0003
0000
1000
0100
,
0001
0000
0001
0100
,
1000
0000
1000
0010
,
0001
0000
0001
0010
,
1000
0000
0001
0010
,
1000
0000
1000
0010
,
0001
0000
0001
0100
,
1000
0100
0002
0000
,
0003
1001
0001
0021
,
0030
0001
1000
1020
,
0030
1000
0001
0021
,
0030
0001
2000
0010
,
3002
0010
0103
0120
,
0030
1000
0100
0120
,
0030
0001
0100
0120
,
0030
1000
0100
0010
,
0001
1000
0001
2010
,
3000
0001
1000
0012
,
0003
1000
0001
2010
,
3000
0001
2000
0100
,
3002
0100
0013
2100
,
3000
1000
0010
0102
,
0003
0001
0010
2100
,
3000
1000
0010
0100
,
2002
0000
0000
0000
0000
0000
0000
3003
0000
0000
0000
0000
0000
0000
0000
0000
;

//---------------dance-single - ----------------
#NOTEDATA:;
#CHARTNAME:;
#STEPSTYPE:dance-single;
#DESCRIPTION:;
#CHARTSTYLE:;
#DIFFICULTY:Beginner;
#METER:3;
#RADARVALUES:0.172733,0.241214,0.017030,0.153270,0.000000,142.000000,140.000000,2.000000,18.000000,0.000000,0.000000,0.000000,0.000000,0.000000,0.172733,0.241214,0.017030,0.153270,0.000000,142.000000,140.000000,2.000000,18.000000,0.000000,0.000000,0.000000,0.000000,0.000000;
#CREDIT:;
#OFFSET:-0.340390;
#BPMS:0.000000=173.000000
;
#STOPS:;
#DELAYS:;
#WARPS:;
#TIMESIGNATURES:0.000000=4=4
;
#TICKCOUNTS:0.000000=4
;
#COMBOS:0.000000=1
;
#SPEEDS:0.000000=1.000000=0.000000=0
;
#SCROLLS:0.000000=1.000000
;
#FAKES:;
#LABELS:0.000000=Song Start
;
#NOTES:
0000
0000
0000
0000
,
0000
0000
0000
0000
,
0000
0000
0000
0000
,
0000
0000
0000
0000
,
1000
0000
0000
0000
,
0100
0000
0000
0000
,
0010
0000
0000
0000
,
0002
0000
0000
0000
0000
0000
0000
0003
,
0000
0000
0000
0000
,
1000
0000
0010
0000
,
1000
0000
0000
0000
,
0001
0000
0010
0000
,
0001
0000
0000
0000
,
1000
0000
0010
0000
,
0100
0000
0000
0000
,
0001
0000
0010
0000
,
0200
0000
0300
0000
,
1000
0000
1000
0000
,
1000
1000
1000
0000
,
0001
0000
0001
0000
,
0001
0001
0001
0000
,
0200
0000
0300
0000
,
0100
0000
0010
0000
,
0200
0000
0300
0000
,
0100
0000
0010
0000
,
1000
1000
1000
0000
,
0001
0001
0001
0000
,
1000
1000
1000
0000
,
0001
0001
0001
0000
,
0020
0000
0030
0000
,
0010
0000
0100
0000
,
0020
0000
0030
0000
,
0001
0000
1000
0000
,
0001
0000
0000
0000
,
0000
0000
0000
0000
,
0000
0000
0000
0000
,
0000
0000
0000
0000
,
0002
0000
0003
0000
,
0200
0000
0300
0000
,
0020
0000
0030
0000
,
2000
0000
3000
0000
,
0001
0000
0010
0000
,
0001
0000
0010
0000
,
0001
0000
0010
0000
,
0001
0000
0001
0001
,
1000
0000
0010
0000
,
1000
0000
0010
0000
,
1000
0000
0010
0000
,
1000
0000
1000
1000
,
0002
0000
0003
0000
,
0010
0010
0010
0000
,
2000
0000
3000
0000
,
0010
0010
0010
0000
,
0002
0000
0003
0000
,
1000
0000
0001
0000
,
2002
0000
3003
0000
,
0010
0010
0000
0000
,
1000
1000
1000
0000
,
0100
0000
0010
0000
,
0001
0001
0001
0000
,
0100
0000
0010
0000
,
1000
1000
1000
0000
,
0100
0000
0010
0000
,
0001
0000
1000
0000
,
0002
0000
0003
0000
,
1000
0000
0010
0000
,
1000
0000
0010
0000
,
1000
0000
0010
0000
,
1000
0000
1000
1000
,
0001
0000
0010
0000
,
0001
0000
0010
0000
,
0001
0000
0010
0000
,
0001
0000
0001
0001
,
1000
0000
0010
0000
,
0100
0000
0001
0000
,
0100
0000
0010
0000
,
1000
0000
1000
1000
,
0001
0000
0010
0000
,
0100
0000
1000
0000
,
0100
0000
0010
0000
,
0001
0000
0000
0000
0000
0000
0000
0000
2002
0000
0000
0000
0000
0000
0000
3003
;
