#TITLE:Elfadiciell;
#SUBTITLE:;
#ARTIST:oo39.com;
#TITLETRANSLIT:;
#SUBTITLETRANSLIT:;
#ARTISTTRANSLIT:;
#GENRE:;
#CREDIT:;
#MUSIC:Elfadiciell.ogg;
#BANNER:Elfadiciell.png;
#BACKGROUND:Elfadiciell-bg.png;
#CDTITLE:./CDTITLES/DanceDanceRevolution UNIVERSE2.png;
#SAMPLESTART:16.238;
#SAMPLELENGTH:15.000;
#SELECTABLE:YES;
#OFFSET:0.000;
#BPMS:0.000=169.970;
#STOPS:;
#BGCHANGES:;
#FGCHANGES:;

//--------------- dance-single - Peter.org ----------------
#NOTES:
     dance-single:
     Peter.org:
     Beginner:
     5:
     0,0,0,0,0:
0000
0000
0000
0000
,
0000
0000
0000
0000
,
0000
0000
0000
0000
,
2000
0000
0000
0000
,
0000
0000
0000
0000
,
3200
0000
0000
0000
,
0000
0000
0000
0000
,
0320
0000
0000
0000
,
0031
0000
0000
0000
0000
0000
0000
0100
0000
0000
0000
0000
0000
0000
0000
0000
,
1001
0000
0000
0000
,
0000
0000
0000
0000
,
1000
0000
0001
0010
,
0001
0000
0100
0000
,
1000
0000
0100
0000
,
0010
0000
0001
0000
,
0010
0000
1000
0100
,
1000
0000
0001
0000
,
0100
0000
1000
0000
,
0100
0000
0001
0000
,
1000
0000
0001
0100
,
0001
0000
0010
0000
,
1000
0000
0010
0000
,
0100
0000
0001
0000
,
0100
0000
1000
0010
,
1000
0000
0001
0000
,
0010
0000
0000
0000
0000
0100
0000
0000
,
0000
0010
0000
0000
0001
0000
0000
0000
,
1000
0000
1001
0000
,
0000
0000
0000
0000
,
0000
0000
2002
0000
,
0000
0000
0000
0000
0000
0000
0000
0000
0000
0000
0000
0000
0000
3003
0000
0000
,
0000
0000
1000
0000
,
0010
0000
0001
0000
,
0100
0000
1000
0000
,
0010
0000
0001
0000
,
0010
0000
1000
0000
,
0100
0000
0010
0000
,
0001
0000
0010
0000
,
1000
0000
0100
0000
,
0001
0000
1001
0000
,
0110
0000
1001
0000
,
0110
0000
1000
0000
,
0000
0000
0000
0000
,
0001
0100
0001
0000
,
1000
0100
0001
0000
,
0100
0000
1000
0000
,
0010
0000
0100
0000
,
0001
0010
0001
0000
,
1000
0010
0001
0000
,
0010
0000
1000
0000
,
0001
1000
0002
0000
,
1003
0010
1000
0000
,
0001
0010
1000
0000
,
0010
0000
0001
0000
,
0100
0000
0010
0000
,
1000
0100
1000
0000
,
0001
0100
1000
0000
,
0100
0000
0001
0000
,
0010
0100
1000
0001
,
1001
0000
0000
0000
,
0000
0000
0000
0000
,
2002
0000
0000
0000
,
3003
0000
0000
0000
;

//--------------- dance-single - Peter.org ----------------
#NOTES:
     dance-single:
     Peter.org:
     Easy:
     9:
     0,0,0,0,0:
0000
0000
0000
0000
,
0000
0000
0000
0000
,
0000
0000
0000
0000
,
1000
0010
1000
0010
,
0001
0010
0001
0010
,
1000
0100
1000
0100
,
1000
0010
0001
0010
,
1000
0100
0010
0001
,
0100
0000
0000
0000
0100
0000
0000
0100
0000
0000
0000
0000
0020
0000
0000
0030
,
1001
0000
0000
0000
,
0001
0000
0000
0000
,
1000
0000
0000
0000
0010
0000
0000
0000
0001
0000
0000
0010
0000
0000
0000
0000
,
0100
0001
0010
0100
,
0010
0001
1000
0010
,
1000
0001
0010
0001
,
1000
0000
0000
0000
0010
0000
0000
0000
0100
0000
0000
1000
0000
0000
0000
0000
,
0100
0001
0010
0100
,
1000
0001
0100
0001
,
1000
0100
1000
0010
,
0001
0000
0000
0000
0010
0000
0000
0000
0100
0000
0000
1000
0000
0000
0000
0000
,
0100
0001
1000
0100
,
0010
0011
0100
0001
,
1000
0100
0001
0100
,
1000
0000
0000
0000
0100
0000
0000
0000
0001
0000
0000
0100
0000
0000
0000
0000
,
0010
0001
0100
0010
,
0100
0000
0001
0000
0000
1000
0000
0100
,
0000
1000
0010
0000
0001
0000
0010
0000
,
0100
0000
0000
0000
0001
0000
0000
0000
1001
0000
0000
1000
0000
0000
0000
0000
,
0100
0000
0000
0000
0010
0000
0000
0000
0001
0000
0000
0000
0000
0000
0000
1000
,
0000
0001
0000
0000
2002
0000
0000
0000
,
0000
0000
0000
0000
0000
0000
0000
0000
0000
0000
0000
0000
0000
3003
0000
0000
,
0000
0000
1000
0100
,
0001
0010
1000
0100
,
0001
0010
1000
0010
,
0001
0100
1000
0010
,
0001
0100
1000
0100
,
0010
0001
1001
0001
,
0010
0100
1000
0010
,
0001
0100
1000
0100
,
0001
0010
1001
0100
,
1001
0010
1001
0100
,
1001
0010
1000
0000
,
0000
0000
0000
0000
,
1000
0001
0010
1000
,
0010
0000
0000
0000
0001
0000
0000
0100
0000
0000
1000
0000
0000
0000
0000
0000
,
0100
0000
0010
0000
1000
0100
1000
0000
,
0001
0000
0100
0000
0000
0010
1000
0000
,
0001
1000
0010
0001
,
0010
0000
0000
0000
1000
0000
0000
0100
0000
0000
0001
0000
0000
0000
0000
0000
,
0100
0010
0001
1000
,
0010
0100
0010
0000
1000
0001
1000
0001
,
1000
0010
0100
1000
,
0100
0000
0000
0000
0010
0000
0000
0001
0000
0000
0010
0000
0000
0000
0000
0000
,
1000
0000
0001
0000
0010
0000
0100
0010
,
0000
1000
0010
0001
1000
0000
0010
0000
,
1000
0001
0010
0100
,
0001
0000
0000
0000
0100
0000
0000
0010
0000
0000
1000
0000
0000
0000
0000
0000
,
0010
0001
0100
0010
,
1000
0100
1000
0001
0100
0010
1000
0000
,
1001
0000
0000
1000
0000
0000
0000
0000
0100
0000
0000
0000
0010
0000
0000
0000
,
0001
0000
0000
0000
0000
0000
0000
1000
0000
0000
0001
0000
0000
0000
0000
0000
,
2002
0000
0000
0000
,
3003
0000
0000
0000
;

//--------------- dance-single - Peter.org ----------------
#NOTES:
     dance-single:
     Peter.org:
     Medium:
     12:
     0,0,0,0,0:
0000
0000
0000
0000
,
0000
0000
0000
0000
,
0000
0000
0000
0000
,
2000
0100
0100
0100
,
0100
0100
0100
0100
,
3002
0100
0100
0100
,
0103
0000
0000
0000
0010
0000
0000
0001
0000
0000
0010
0000
0000
0000
0000
0000
,
2000
0001
0001
0001
,
3010
0100
0000
0000
0001
1000
0000
0100
0000
0000
0000
0000
0020
0000
0000
0030
,
1001
0000
0000
0000
0000
0000
0000
0001
,
1000
0000
0000
0000
0000
1000
0000
1000
,
0001
0000
0000
0000
1000
0000
0000
0000
0010
0000
0000
0100
0000
0000
0000
0000
,
1000
0000
0100
0000
0001
0000
0000
0000
1000
0000
0000
0000
0100
0000
0000
0010
,
0000
0001
0000
0000
0100
0000
0010
1000
,
0010
0000
0100
0001
0100
0000
0001
0010
,
0100
0000
0000
0000
1000
0000
0000
0000
0010
0000
0000
0001
0000
0000
0000
0000
,
0010
0000
0100
0000
0001
0000
0000
0000
1000
0000
0000
0000
0100
0000
0000
0010
,
0000
0001
0000
0000
1000
0010
1000
0000
,
0001
0100
0001
0000
1000
0100
0010
0001
,
1000
0000
0000
0000
0001
0000
0000
0000
0010
0000
0000
0100
0000
0000
0000
0000
,
0001
0000
0100
0000
1000
0000
0000
0000
0001
0000
0000
0000
0100
0000
0000
0010
,
0000
1000
0000
0000
0001
0000
0010
0001
,
0010
0000
0100
1000
0100
0000
1000
0010
,
0100
0000
0000
0000
0001
0000
0000
0000
0010
0000
0000
1000
0000
0000
0000
0000
,
0010
0000
0100
0000
1000
0000
0000
0000
0001
0000
0000
0000
0100
0000
0000
0010
,
0000
1000
0000
0000
0001
0010
0000
1000
,
0000
0010
0001
0000
0100
0000
0010
0000
,
1000
0000
0100
0000
0010
0000
0001
0000
1000
0000
0000
0010
0000
0000
0000
0000
,
0000
0100
0000
0000
0001
0000
0000
0000
0010
0000
0000
0000
0100
0000
0000
1000
,
0000
0001
0000
0000
2002
0000
0000
0000
,
0000
0000
0000
0000
0000
0000
0000
0000
0000
0000
0000
0000
0000
3003
0000
0000
,
0000
0000
0000
0000
1000
0100
1000
0000
,
0001
0100
0001
0000
1000
0100
1000
0000
,
0001
0100
0001
0000
1000
0100
0010
0000
,
0001
0100
0010
0000
1000
0000
0100
0000
,
0001
0100
1000
0010
,
0100
0001
1001
0001
,
0010
1000
0010
0001
,
0100
0000
0010
0000
1000
0100
0010
0000
,
0001
0000
0100
0000
0010
0000
0000
0000
1001
0000
0000
1000
0000
0000
0100
0000
,
0110
0000
0000
0010
0000
0000
0001
0000
1001
0000
0000
1000
0000
0000
0010
0000
,
0110
0000
0000
0100
0000
0000
0001
0000
1000
0000
0000
0000
0000
0000
0000
0000
,
0000
0000
0000
0000
,
1000
0000
0010
0000
0100
0000
0000
0000
1000
0000
0000
0100
0000
0010
0000
0000
,
1000
0000
0100
0000
0001
0000
0000
0100
0000
0000
1000
0000
0000
0000
0000
0000
,
0001
0000
0100
0001
1000
0100
0010
0000
,
0001
1000
0010
1000
0000
0001
0010
0100
,
1000
0000
0100
0000
0010
0000
0000
0000
1000
0000
0000
0010
0000
0100
0000
0000
,
1000
0000
0010
0000
0001
0000
0000
0010
0000
0000
1000
0000
0000
0000
0000
0000
,
0001
0000
0010
0001
0100
0000
0010
1000
,
0001
0001
1000
1000
0010
0010
0100
0100
,
0001
0000
0010
0000
0100
0000
0000
0000
0001
0000
0000
0100
0000
0010
0000
0000
,
0001
0000
0100
0000
1000
0000
0000
0100
0000
0000
0001
0000
0000
0000
0000
0000
,
1000
0000
0010
0001
0010
0100
0001
0010
,
0000
0100
0010
0001
1000
0000
0100
0010
,
0001
0000
0100
0000
0010
0000
0000
0000
0001
0000
0000
0010
0000
0100
0000
0000
,
0001
0000
0010
0000
1000
0000
0000
0010
0000
0000
0001
0000
0000
0000
0000
0000
,
1000
0010
0100
0001
0010
0100
0010
0001
,
1000
0010
1000
0100
0001
0100
1000
0001
,
1000
0000
0000
0010
0000
0000
0000
0000
0000
0100
0000
0000
0001
0000
0000
0000
,
0010
0000
0000
0000
0100
0000
0000
1000
0000
0000
0001
0000
0000
0000
0000
0000
,
2002
0000
0000
0000
,
3003
0000
0000
0000
;

//--------------- dance-single - Peter.org ----------------
#NOTES:
     dance-single:
     Peter.org:
     Hard:
     15:
     0,0,0,0,0:
0000
0000
0000
0000
,
0000
0000
0000
0000
,
0000
0000
0000
0000
,
0000
0010
0000
1000
0000
0100
0000
1000
,
0000
0010
0000
1000
0000
0100
0000
1000
,
0000
0001
0010
0001
0000
0001
0100
0001
,
0000
0000
0001
0000
0010
0100
0000
1000
0000
0000
0001
0000
0000
0000
0000
0000
,
1000
0100
1000
0001
1000
0010
0000
0010
,
1000
0001
0000
0001
1000
0001
0000
0001
0000
0000
0000
0000
0020
0000
0000
0030
,
1001
0000
0000
0000
0000
0000
0000
0100
,
0100
0000
0000
0000
0000
0100
0000
0100
,
1001
0000
0000
1000
0100
0000
0010
0001
0010
0000
0000
1000
0000
0000
0010
0000
,
0000
0010
0000
0010
0001
0010
0000
0000
0001
0000
0100
0000
0010
1000
0000
0001
,
0000
1000
1100
0000
0100
0010
0100
0001
,
0100
0010
0100
1000
0001
0100
0010
1000
,
0100
0000
1000
0100
0000
0000
1000
0001
0100
0000
0000
1000
0000
0000
0100
0000
,
0000
0100
0000
0100
0001
0100
0000
0000
0010
0000
1000
0000
0100
0010
0000
0001
,
0000
1000
1000
0000
0010
0100
0010
0001
,
0010
0100
0010
1000
0100
0010
0100
1000
,
0001
1000
0001
1000
0001
1000
0001
1000
0010
0000
0000
0001
0000
0000
0010
0000
,
0000
0010
0000
0010
1000
0010
0000
0000
1000
0000
0100
0000
0001
0100
0000
0010
,
0000
0001
0101
0000
0100
1000
0100
0010
,
0100
1000
0100
0001
0010
0100
1000
0010
,
1000
0000
0001
0010
0000
0000
0001
1000
0100
0000
0000
0001
0000
0000
0100
0000
,
0000
0100
0000
0100
1000
0100
0000
0000
0010
0000
0001
0000
0100
0010
0000
1000
,
0000
0000
0001
0000
0001
0000
0000
0000
1000
0000
0010
0100
0000
0100
0010
0100
,
0000
0000
0001
0000
0010
0000
1000
0000
0020
0000
0030
0010
0001
0000
0000
0000
,
1000
0001
1000
0001
1000
0001
1000
0001
1000
0000
0000
0100
0000
0000
0000
0000
,
0000
0010
0000
0010
0001
0010
0000
0000
0001
0000
0100
0000
0010
1000
0000
0001
,
0000
1000
0000
0000
2002
0000
0000
0000
,
0000
0000
0000
0000
0000
0000
0000
0000
0000
0000
0000
0000
0000
3003
0000
0000
,
0000
0000
0000
0000
0000
0000
0000
0000
1000
0100
0000
0100
1000
0000
0001
0000
,
1000
0100
0000
0100
1000
0000
0001
0000
1000
0100
0000
0100
1000
0000
0001
0000
,
1000
0100
0000
0100
1000
0000
0001
0000
0100
0010
0000
0010
0100
0000
0001
0000
,
1000
0010
0000
0010
1000
0000
0001
0000
0010
0100
0000
0010
0100
0000
1000
0000
,
0001
0100
0010
1000
0001
0010
1000
0010
,
0001
0100
0010
1000
1001
0000
1000
0100
,
0010
0001
0100
0010
1000
0010
0001
0010
,
1000
0000
0001
0000
0010
0100
0000
0100
1000
0000
1000
0010
0000
0010
0100
0000
,
0100
0001
0000
0001
0010
0000
0100
0000
0110
0000
0000
0010
0001
0000
0100
0000
,
0110
0000
0000
0010
1000
0000
0100
0000
0110
0000
0000
0010
0001
0000
1000
0000
,
0001
1000
0001
1000
0001
1000
0001
1000
0001
0000
0000
0000
0000
0000
0000
0000
,
0000
0000
0000
0000
,
1100
0000
0100
0000
0001
0000
0100
0000
0000
0010
0000
0010
1000
0010
0000
0000
,
0001
0000
1000
0000
0010
0100
0000
1000
0000
1000
0100
0000
0010
0000
1000
0000
,
0100
0000
1000
0000
0001
0100
0000
0100
0010
0100
0000
0010
1000
0000
0000
0001
,
0010
0000
1000
0000
0010
0000
0001
0000
0000
1000
0010
1000
0001
0000
0100
0000
,
0101
0000
0100
0000
1000
0000
0100
0000
0000
0010
0000
0010
0001
0010
0000
0000
,
1000
0000
0100
0000
0001
0100
0000
1000
0000
1000
0010
0000
0100
0000
0010
0000
,
1000
0000
0100
0000
1000
0001
0100
0000
0010
0100
0001
0000
1000
0100
0010
0000
,
0001
0010
0001
0000
1000
0010
1000
0000
0001
1000
0001
1000
0001
1000
0001
1000
,
0001
0000
0100
0000
1000
0000
0100
0000
0010
0001
0000
0001
0010
0001
0000
0000
,
0010
0000
0100
0000
0001
0010
0000
0010
0000
0010
1000
0000
0010
0000
0001
0000
,
1000
0000
0100
0000
1000
0000
0001
0000
0100
0010
0100
0000
1000
0000
0100
0001
,
0000
0100
0010
0100
0001
1000
0100
1000
0001
0000
0010
0000
0100
0000
1000
0001
,
1000
0000
0010
0000
0001
0000
0010
0000
0100
1000
0000
1000
0100
1000
0000
0000
,
0100
0000
0001
0000
1000
0100
0000
0100
0000
0100
0010
0000
1000
0000
0010
0000
,
0100
0000
1000
0000
0010
0000
0001
0000
0010
0100
0001
0000
0010
0000
0100
1000
,
0001
0100
0001
0100
0010
1000
0010
1000
0001
1000
0001
1000
0001
1000
0001
1000
,
0001
0000
0000
0100
0000
0000
0000
0000
0000
0100
0000
0100
0010
0100
0000
0000
,
0010
0000
1000
0000
0100
0010
0000
0001
0000
0000
1000
0000
0000
0000
0000
0000
,
2002
0000
0000
0000
,
3003
0000
0000
0000
;

//--------------- dance-single - Peter.org ----------------
#NOTES:
     dance-single:
     Peter.org:
     Challenge:
     18:
     0,0,0,0,0:
0000
0000
0000
0000
,
0000
0000
0000
0000
,
0000
0000
0000
0000
,
0002
0000
0000
0000
,
0000
0000
0000
0000
,
0203
0010
0000
0010
0000
0010
0000
0010
,
0300
0000
0010
0000
1000
0001
0000
0010
0000
0100
1000
0000
0010
0000
0100
0000
,
0002
1000
0000
1000
0000
1000
0000
1000
,
0013
0100
0000
0100
0010
0100
0000
0100
1000
0000
0000
0000
0020
0000
0000
0030
,
1001
0000
0000
0000
0000
0000
0000
0100
,
0110
0000
0000
0000
0000
0001
0000
0001
,
1001
0000
1000
0010
0100
0000
0001
0010
0100
0000
1000
0001
0000
0000
0100
0000
,
0001
0010
0000
0010
0100
0010
0100
0000
1000
0000
0010
0000
0001
0010
0000
0100
,
0001
0000
1000
0000
1100
0000
0000
0000
0001
0000
0100
0001
0000
0001
0100
0000
,
0001
1000
0100
1000
0000
1000
0100
0000
1000
0000
0000
0001
0100
0001
0000
0001
,
1000
0001
0010
0100
1000
0000
0010
0100
0001
0000
1000
0100
0000
0000
1000
0000
,
0001
0100
0000
0100
0010
0100
0010
0000
1000
0000
0100
0000
0001
0100
0000
0010
,
0000
0001
1000
0000
1010
0000
0000
0000
0001
0000
0010
0001
0000
0001
0010
0001
,
1000
0000
0010
1000
0010
0000
1000
0010
1000
0001
1000
0001
1000
0001
1000
0001
,
1000
0100
0010
0001
1000
0001
0010
0100
1000
0100
0000
0100
0010
0000
0001
0000
,
0100
1000
0000
1000
0100
1000
0100
0000
0010
0000
1000
0000
0100
0010
0000
1000
,
0000
0010
0100
0000
1100
0000
0000
0000
1000
0000
0010
1000
0000
1000
0010
1000
,
0001
0000
0010
0001
0010
0000
0000
0001
0010
0001
0000
0001
0010
0001
1000
0010
,
0100
0000
0010
0100
0010
0000
0001
0010
1000
0010
0000
0010
0100
0000
0001
0000
,
1000
0100
0000
0100
0001
0100
0001
0000
0100
0000
0010
0000
0001
0100
0000
1000
,
0000
0100
0001
0000
0101
0000
0000
0000
0000
0000
0010
0001
0000
0001
0100
0001
,
1000
0000
0100
0000
0010
0000
1000
0000
0010
0001
0010
0001
1000
0001
1000
0001
,
1000
0100
0010
0001
1000
0001
0010
0100
1000
0000
0000
0010
0000
0000
0000
0000
,
0000
0001
0000
0001
0010
0100
0000
0000
0100
0000
0001
0000
1000
0100
0000
0010
,
0000
0010
0001
0000
0000
0000
1000
0000
2002
0000
0000
0000
0000
0000
0000
0000
,
0000
0000
0000
0000
0000
0000
0000
0000
0000
0000
0000
0000
0000
3003
0000
0000
,
0000
0000
0000
0000
0000
0000
0000
0000
1000
0100
0000
0100
1000
0000
0001
0100
,
0010
1000
0000
1000
0010
0000
0100
0001
1000
0100
0000
0100
1000
0000
0001
0100
,
0010
1000
0000
1000
0010
0000
0100
0001
1000
0010
0000
0010
0100
0000
0001
0010
,
0100
1000
0000
1000
0010
0000
0100
0001
1000
0100
0000
0010
0001
0000
0100
0010
,
0000
1000
0100
0000
0010
0001
0000
0001
0100
0000
0100
0010
0000
0010
1000
0000
,
1000
0100
0000
0100
0010
0000
0001
0000
1001
0000
0000
0000
0001
0000
0010
0000
,
0100
0000
1000
0000
0010
0000
0100
0000
0001
0010
0000
0010
0100
0000
0100
1000
,
0000
1000
0001
0000
0100
0010
0000
1000
0100
0000
0010
0001
0000
1000
0010
0000
,
0001
0010
0000
0100
0001
0000
1000
0000
1001
0000
0001
0010
0100
0000
1000
0000
,
1100
0000
1000
0010
0100
0000
0001
0000
1000
0100
0010
0100
1000
0001
0100
0010
,
1000
0100
0010
0001
1000
0001
0010
0100
1000
0000
0000
0000
0000
0000
0000
0000
,
0000
0000
0000
0000
,
1100
0000
0100
1000
0100
0010
0001
0000
0010
0100
0000
0100
0001
0100
0010
0000
,
0001
0100
0010
0000
0001
0010
0000
0010
1000
0010
0100
0000
0010
0000
0000
1000
,
0001
0000
0100
0001
0100
0010
0000
0010
0001
0010
0000
0010
0100
1000
0000
1000
,
0100
0000
0010
1000
0001
0010
0001
0010
0000
0001
1000
0010
0100
0000
0001
1000
,
0001
0000
0010
0001
0010
0100
1000
0000
0100
0010
0000
0010
1000
0010
0000
0010
,
0100
1000
0010
0000
0100
1000
0000
0100
0001
0100
0010
0000
0100
0000
0000
0001
,
1000
0000
0100
0000
0010
0100
0001
0000
0100
0010
0001
0000
0000
0100
0010
0100
,
0001
0100
0001
1000
0100
1000
0001
1000
0001
0010
0100
1000
0001
1000
0100
0010
,
0001
0000
0100
0010
1000
0001
0010
0000
0100
0001
0000
0001
0100
0010
0001
0000
,
1000
0010
0100
0000
1000
0100
0000
0100
0001
1000
0001
0000
0010
0100
1000
0100
,
0010
0001
1000
0000
0010
1000
0001
0010
0100
0001
0000
0000
0100
0010
0000
0010
,
1000
0010
0001
1000
0010
1000
0100
1000
0010
0000
0100
0000
0001
0000
1000
0001
,
1000
0000
0010
0100
0001
1000
0100
0000
0010
1000
0000
1000
0010
0100
1000
0000
,
0010
0001
0010
0000
0100
0001
0000
0010
0100
1000
0001
0000
0100
0010
0100
0001
,
1000
0100
0010
0000
0001
0100
0010
0000
0001
0010
0000
0100
1000
0000
0100
0001
,
1000
0100
0001
0100
0010
0100
0001
0100
1000
0100
0010
0001
1000
0001
0010
0100
,
1000
0000
0000
0010
0000
0000
0000
0000
0000
0001
0000
0001
0010
0100
0000
0000
,
0100
0000
0001
0000
1000
0100
0000
0010
0000
0010
0001
0000
0000
0000
1000
0000
,
2002
0000
0000
0000
,
3003
0000
0000
0000
;

//--------------- dance-double - Peter.org ----------------
#NOTES:
     dance-double:
     Peter.org:
     Challenge:
     18:
     0,0,0,0,0:
00000000
00000000
00000000
00000000
,
00000000
00000000
00000000
00000000
,
00000000
00000000
00000000
00000000
,
00000000
00010000
00000000
00100000
00000000
10000000
00000000
01000000
,
00000000
00010000
00000000
00001000
00000000
00000010
00000000
00000001
,
00000000
00000100
00000000
00001000
00000000
00010000
00000000
00100000
,
00000000
00000000
00010000
00000000
00001000
00000010
00000000
00001000
00010000
00000000
01000000
00000000
00000000
00000000
10000000
00000000
,
00000000
00100000
00000000
00010000
00000000
00001000
00000000
00000100
,
00000010
00001000
00000000
00001000
00100000
00001000
00000000
01000000
00000000
00000000
00000000
00000000
00002000
00000000
00000000
00003000
,
00011000
00000000
00000000
00000000
00000000
00000000
00000000
00010000
,
00001000
00000000
00000000
00000000
00000000
00001000
00000000
00001000
,
00011000
00000000
00000000
00010000
00100000
00000000
10000000
00100000
00010000
00000000
00000000
00001000
00010000
00000000
00000100
00000000
,
00000010
00000001
00000000
00000001
00000100
00000001
00000000
00000000
00000100
00000000
00001000
00000000
01000000
00010000
00000000
00100000
,
00001000
00000000
00010000
00000000
00011000
00000000
00000000
00000000
00001000
00000000
00010000
00000100
00001000
00000000
00000001
00000100
,
00000000
00000010
00001000
00000010
00000000
00010000
00001000
00100000
00000000
00000000
00000000
01000000
10000000
00000000
00000000
00100000
,
00010000
00000000
00010000
00001000
00000100
00000000
00000001
00000100
00001000
00000000
00000000
00010000
00001000
00000000
00100000
00000000
,
01000000
10000000
00000000
10000000
00100000
10000000
00000000
00000000
01000000
00000000
00010000
00000000
00000100
00001000
00000000
00000010
,
00010000
00000000
00001000
00000000
00011000
00000000
00000000
00000000
00010000
00000000
00001000
00100000
00010000
00000000
10000000
00100000
,
01000000
00000000
00001000
00010000
00000100
00000000
00001000
00000001
00000100
00000010
00000100
00000010
00001000
00000100
00001000
00000100
,
00010000
00001000
00010000
00001000
00000010
00000000
00000001
00000010
00001000
00000000
00000000
00010000
00001000
00000000
01000000
00000000
,
00100000
10000000
00000000
10000000
01000000
10000000
00000000
00000000
00100000
00000000
00010000
00000000
00000010
00001000
00000000
00000100
,
00010000
00000000
00001000
00000000
00011000
00000000
00000000
00000000
00010000
00000000
00001000
00100000
01000000
00000000
10000000
00010000
,
01000000
00000000
00001000
00010000
00000100
00000000
00001000
00000010
00001000
00000001
00000000
00000010
00000100
00001000
00000100
00010000
,
00000000
00000000
00001000
00010000
01000000
00000000
10000000
01000000
00010000
00000000
00000000
00001000
00010000
00000000
00000010
00000000
,
00000100
00000001
00000000
00000001
00000010
00000001
00000000
00000000
00000010
00000000
00001000
00000000
00100000
00010000
00000000
01000000
,
00001000
00000000
00010000
00000000
00011000
00000000
00000000
00000000
00001000
00000000
00000100
00001000
00000000
00010000
00100000
00010000
,
00000000
00000000
00001000
00000000
00000010
00000000
00000001
00000000
00000100
00001000
00000100
00001000
00010000
00001000
00010000
00001000
,
00100000
00010000
00100000
00010000
10000000
00010000
10000000
00010000
10000000
00000000
00000000
01000000
00000000
00000000
00000000
00000000
,
00000000
00100000
00000000
00100000
00010000
00001000
00000000
00000000
00000100
00000000
00000010
00000000
00000001
00000100
00000000
00001000
,
00000000
00010000
00000000
00001000
00022000
00000000
00000000
00000000
,
00000000
00000000
00000000
00000000
00000000
00000000
00000000
00000000
00000000
00000000
00000000
00000000
00000000
00033000
00000000
00000000
,
00000000
00000000
00000000
00000000
00000000
00000000
00000000
00000000
00010000
01000000
00000000
10000000
01000000
00000000
00010000
00000000
,
00001000
00000100
00000000
00000001
00000100
00000000
00001000
00000000
00010000
01000000
00000000
10000000
01000000
00000000
00010000
00000000
,
00001000
00000100
00000000
00000001
00000100
00000000
00001000
00000000
00010000
00100000
00000000
10000000
00100000
00000000
00010000
00000000
,
00001000
00000010
00000000
00000001
00000010
00000000
00001000
00000000
00010000
00100000
00000000
00100000
10000000
00000000
10000000
01000000
,
00000000
01000000
00010000
00000000
00010000
00001000
00000000
00001000
00000010
00000000
00000010
00000001
00000000
00000001
00000100
00000000
,
00001000
00010000
00100000
00010000
00011000
00000000
00001000
00000100
,
00000001
00000000
00000010
00000000
00001000
00000000
00010000
00000000
01000000
10000000
00000000
10000000
00100000
00000000
00100000
00010000
,
00000000
00010000
00001000
00000000
00001000
00000100
00000000
00000100
00000001
00000000
00000010
00001000
00000000
00010000
01000000
00000000
,
10000000
00100000
00000000
00010000
00001000
00000000
00010000
00000000
00011000
00000000
00010000
00000100
00000010
00000000
00001000
00000000
,
00011000
00000000
00001000
01000000
00100000
00000000
00010000
00000000
00011000
00000000
00010000
00000100
00000010
00000000
00000001
00001000
,
00000001
00000010
00000100
00001000
00010000
00100000
01000000
10000000
00000000
00000000
00000000
00000000
00000000
00000000
00000000
00000000
,
00000000
00000000
00000000
00000000
,
00011000
00000000
00001000
00010000
00000100
00000010
00000001
00000000
00000100
00001000
00000000
00001000
01000000
00001000
00000000
00001000
,
00100000
00000000
10000000
00000000
00100000
00010000
00000000
00000010
00000001
00000000
00001000
00000000
00001001
00000000
00000000
00000000
,
00000001
00000000
00000100
00000000
00000010
00010000
00001000
00000000
00010000
01000000
00000000
10000000
01000000
00000000
00100000
10000000
,
00100000
00000000
00001000
00010000
00000100
00000010
00001000
00000010
00000000
00000001
00000100
00001000
00010000
00000000
00001000
00000000
,
00011000
00000000
00010000
00001000
01000000
00100000
10000000
00000000
01000000
00010000
00000000
00010000
00000100
00010000
00000000
00010000
,
00000010
00000000
00000001
00000000
00000010
00001000
00000000
00100000
10000000
00000000
00010000
00000000
10010000
00000000
00000000
00000000
,
10000000
10000000
00010000
00010000
00001000
00001000
00000001
00000001
,
00000010
00000000
00001000
00000000
00010000
00000000
01000000
00000000
10000000
01000000
00100000
00010000
00001000
00000100
00000010
00000001
,
00010000
00000000
00001000
00010000
00000010
00000100
00000001
00000000
00000010
00001000
00000000
00001000
00100000
00001000
00000000
00001000
,
01000000
00000000
10000000
00000000
01000000
00010000
00000000
00000100
00000001
00000000
00001000
00000000
00001001
00000000
00000000
00000000
,
00000001
00000000
00000010
00000000
00000100
00000000
00010000
00001000
00100000
01000000
00010000
00000000
01000000
10000000
00100000
00010000
,
00000000
00001000
00010000
00001000
00000100
00000001
00000100
00000001
00000010
00000000
00000000
00000100
00010000
00000000
00001000
00000000
,
00011000
00000000
00010000
00001000
00100000
01000000
10000000
00000000
00100000
00010000
00000000
00010000
00000010
00010000
00000000
00010000
,
00000100
00000000
00000001
00000000
00000100
00001000
00000000
01000000
10000000
00000000
00010000
00000000
10010000
00000000
00000000
00000000
,
10000000
10000000
00010000
00010000
00001000
00001000
00000001
00000001
,
00001000
00000010
00010000
00001000
00100000
00010000
01000000
00100000
10000000
01000000
00100000
00010000
00001000
00000100
00000010
00000001
,
00001000
00000000
00000000
00000001
00000000
00000000
00000000
00000000
00000000
00000010
00000000
00000010
00000100
00001000
00000000
00000000
,
00010000
00000000
00100000
00000000
01000000
10000000
00000000
00001000
00000000
00000000
00010000
00000000
00000000
00000000
00001000
00000000
,
00022000
00000000
00000000
00000000
,
00033000
00000000
00000000
00000000
;
