#VERSION:0.83;
#TITLE:Eira;
#SUBTITLE:;
#ARTIST:DJ TOTTO;
#TITLETRANSLIT:;
#SUBTITLETRANSLIT:;
#ARTISTTRANSLIT:;
#GENRE:Legendary Mountain;
#CREDIT:Banner by forcednature;
#MUSIC:Eira.ogg;
#BANNER:Eira.png;
#BACKGROUND:Eira-bg.png;
#CDTITLE:;
#SAMPLESTART:83.225;
#SAMPLELENGTH:15.000;
#SELECTABLE:YES;
#OFFSET:0.000;
#BPMS:0.000=93.000
,33.250=186.000
,114.000=93.000
,122.000=186.000
,138.000=93.000
,177.250=186.000
;
#STOPS:33.250=0.2419354838709677
,177.250=0.2419354838709677
;
#TIMESIGNATURES:0.000=2=4,
34.000=4=4,
114.000=2=4,
122.000=4=4,
138.000=2=4,
178.000=4=4
;
#BGCHANGES:;
#FGCHANGES:;

//--------------- dance-single - Extraordiberry ----------------
#NOTEDATA:;
#STEPSTYPE:dance-single;
#DESCRIPTION:Extraordiberry;
#DIFFICULTY:Beginner;
#METER:4;
#RADARVALUES:0,0,0,0,0;
#CREDIT:Extraordiberry;
#NOTES:
0000
0000
0000
0000
,
0000
0000
0000
0000
,
0000
0000
1000
0000
,
0000
0000
0001
0000
,
0000
0000
2000
0000
,
0000
3000
0002
0000
,
0000
0003
1000
0000
,
0100
0000
0010
0000
,
0001
0000
0000
0000
,
0000
0000
1000
0000
,
0000
0000
0000
0000
,
0000
0000
0010
0000
,
0000
0000
0000
0000
,
0000
0000
1000
0000
,
0000
0000
0000
0000
,
0000
0000
0100
0000
,
0000
0000
1000
0000
,
1000
0000
1000
0000
,
0000
0000
0001
0000
,
0001
0000
0001
0000
,
0000
0000
0100
0000
,
0000
0000
0010
0000
,
0000
0000
1000
0000
,
0001
0000
1001
0000
,
0000
0000
1000
1000
,
1000
0000
0000
0000
,
0000
0000
0001
0001
,
0001
0000
0000
0000
,
0000
0000
1000
0000
,
0000
0000
0001
0000
,
0000
0000
0000
0000
,
0000
0000
0001
0001
,
0001
0000
0000
0000
,
0000
0000
1000
1000
,
1000
0000
0000
0000
,
0000
0000
1000
0000
,
0000
0000
0002
0000
,
0000
0003
0000
0000
,
0000
0000
2000
0000
,
0000
3000
0000
0000
,
0000
0000
0001
0000
,
0000
0000
0100
0000
,
0000
0000
1000
0000
,
0100
0000
0010
0000
,
0001
0000
0000
0000
,
0000
0000
1000
0000
,
0000
0000
0000
0000
,
0000
0000
0010
0000
,
0000
0000
0100
0000
,
0100
0000
0100
0000
,
0000
0000
0001
0000
,
0001
0000
0001
0000
,
0001
0000
1000
0000
,
0000
0000
0100
0000
,
0000
0000
0010
0000
,
0000
0000
0001
0000
,
0001
0000
0001
0000
,
0000
0000
1000
0000
,
0000
0000
0010
0000
,
0010
0000
0010
0000
,
0000
0000
2000
0000
,
0000
0000
0000
0000
,
0000
0000
0000
0000
,
0000
0000
0000
0000
,
3000
0000
0001
0001
,
0001
0000
1000
1000
,
1000
0000
0001
0001
,
0001
0000
1000
1000
,
1000
0000
0000
0000
0000
0000
0000
0001
;

//--------------- dance-single - Extraordiberry ----------------
#NOTEDATA:;
#STEPSTYPE:dance-single;
#DESCRIPTION:Extraordiberry;
#DIFFICULTY:Easy;
#METER:7;
#RADARVALUES:0,0,0,0,0;
#CREDIT:Extraordiberry;
#NOTES:
0000
0000
0000
0000
,
0000
0000
0000
0000
,
0000
0000
2000
0000
,
0001
0000
3002
0000
,
1000
0000
2003
0000
,
3200
0000
2300
0000
,
3020
0000
0130
0100
,
0001
0001
2000
0000
,
0000
3001
1000
0001
,
0100
0010
0100
0001
,
2000
0000
3001
1000
,
0100
0010
0100
1000
,
0002
0000
1003
0010
,
0100
0001
0100
0010
,
2000
0000
3001
0010
,
0200
0000
0310
0001
,
1000
0000
0001
1000
,
0010
0100
0010
1000
,
0002
0000
1003
0001
,
0010
0100
0010
0001
,
2000
0000
3001
0100
,
0001
0000
1000
0010
,
1000
0000
0001
1000
,
0100
0010
0110
0000
,
1001
0000
0001
0001
,
1000
1000
0000
0001
,
0001
0000
0010
0010
,
0010
0000
0100
0100
,
0100
0000
2001
0000
,
0000
3001
1000
0010
,
0100
0100
0001
0000
1000
0000
1000
0000
,
0001
0001
0000
1000
,
1000
0000
0010
0010
,
0010
0000
0100
0100
,
0100
0000
1002
0000
,
0000
1003
0001
0010
,
0100
0100
1000
0000
0002
0000
0000
0000
,
0203
0000
0320
0000
,
2030
0000
3002
0000
,
0010
0000
2003
0000
,
0010
0000
3002
0000
,
0203
0000
0302
0000
,
0023
0000
0130
0100
,
1000
1000
0002
0000
,
0000
1003
0001
0100
,
0010
1000
0010
0100
,
0002
0000
1003
0100
,
0010
0001
0010
0100
,
2000
0000
3001
0100
,
0020
0000
0130
0001
,
2000
0000
3100
0010
,
0001
0100
0010
0000
,
0110
0000
1000
0100
,
0010
0001
0010
0100
,
1000
1000
0001
0100
,
0010
1000
0100
0010
,
0110
0000
0001
0100
,
0010
0100
0001
1000
,
0100
1000
0001
0100
,
0010
1000
0200
0000
,
0310
0000
2002
0000
,
0000
0000
0000
0000
,
0000
0000
0000
0000
,
0000
0000
0000
0000
,
3003
0000
0001
0001
,
1000
1000
0000
0010
,
0010
0100
0001
0001
,
1000
1000
0000
0100
,
0100
0000
0010
0000
0001
0000
0000
2000
,
0000
0000
0000
0000
,
0000
0000
0000
0000
,
0000
0000
0000
0000
,
0000
0000
3000
0000
;

//--------------- dance-single - Extraordiberry ----------------
#NOTEDATA:;
#STEPSTYPE:dance-single;
#DESCRIPTION:Extraordiberry;
#DIFFICULTY:Medium;
#METER:12;
#RADARVALUES:0,0,0,0,0;
#CREDIT:Extraordiberry;
#NOTES:
0000
0000
0000
0000
,
0000
0000
0000
0000
,
0000
0000
2000
0000
,
3002
0000
1003
0001
,
1000
0000
1000
0000
0001
0000
0001
0000
2000
0000
0000
3200
0000
0000
0320
0000
,
0000
0230
0000
0000
2300
0000
0000
0000
3002
0000
0000
0203
0000
0000
0320
0000
,
0000
0230
0000
0000
0302
0000
0000
0000
1003
0000
0100
0000
1000
0000
0100
0000
,
0010
0001
0010
0001
2000
0000
0000
0000
,
3001
0000
1000
0000
0001
0002
0003
0000
1000
0000
0100
0000
0010
0000
0001
0000
,
0010
0100
1000
0001
0100
0010
1000
0002
,
0000
0010
0013
0000
0001
0100
0010
1000
,
0010
0000
0100
0000
0001
0000
1000
0000
0100
0000
0010
0000
0100
0000
0000
1000
,
0000
0001
1000
0000
0001
0100
0010
1000
,
0010
0100
0001
1000
0100
0010
0001
2000
,
0000
0000
0010
0000
3010
0000
0000
0000
1000
0000
0000
0010
0000
0000
0100
0000
,
0010
0000
0100
0001
1000
0100
0001
0100
,
1000
0001
2000
0000
3001
0100
0010
1000
,
0010
0100
0001
1000
0100
0010
0001
2000
,
0000
0010
3010
0000
1000
0100
0010
0001
,
0010
0000
0100
0000
1000
0000
0001
0000
0100
0000
0010
0000
0100
0000
0000
0001
,
0000
1000
0001
0000
1000
0100
1000
0100
,
0010
0001
0010
0001
1000
1000
0010
0100
,
0001
0001
0100
0010
1000
0100
0010
0001
,
0100
0010
1000
0100
0020
0000
0000
0100
,
0000
0001
0031
0000
1000
0001
1000
0000
,
0010
0100
0010
0100
0000
0001
1000
0001
,
1000
0001
0000
0010
0100
0010
0100
0010
,
0100
0000
1000
0001
1000
0001
1000
0001
,
1000
0000
1002
0000
,
2003
0000
0000
0000
0000
0000
0000
0000
3001
0100
0010
0100
0000
0001
0000
1000
,
0000
0001
0000
0010
0100
0010
0100
0000
1000
0000
0001
0000
1000
0000
0000
0000
,
0010
0100
0010
0100
0000
0001
1000
0001
,
1000
0001
0000
0010
0100
0010
0100
0010
,
0100
0000
1000
0001
1000
0001
1000
0001
,
1000
0000
2001
0000
,
3002
0000
0000
0000
0000
0000
0000
0000
1003
0100
0010
0100
0000
1000
0000
0001
,
0000
0100
0000
0010
0100
0010
0100
0000
0002
0000
0000
0000
0000
0000
0000
0000
,
0023
0000
0230
0000
,
2300
0000
3002
0000
,
0203
0000
0310
1000
,
0100
0000
0100
0000
0010
0000
0010
0000
0002
0000
0000
0203
0000
0000
0320
0000
,
0000
0230
0000
0000
0302
0000
0000
0000
2003
0000
0000
3200
0000
0000
0320
0000
,
0000
0230
0000
0000
2300
0000
0000
0000
3001
0000
0100
0000
0001
0000
0100
0000
,
0010
1000
0010
1000
0002
0000
0000
0000
,
1003
0000
0001
0000
1000
2000
3000
0000
0001
0000
0010
0000
0100
0000
1000
0000
,
0100
0010
0001
1000
0010
1000
0100
0010
,
0001
1000
0010
0000
1000
0100
0010
0001
,
0010
0100
1000
0001
0100
1000
0100
0000
,
0001
1000
0100
0000
1000
0100
0010
0020
,
0000
0001
0031
0000
0001
0100
0010
0020
,
0000
1000
1030
0000
1000
0100
0001
0100
,
1000
0100
0001
0100
2000
0000
0000
0001
,
3001
0000
1001
0000
0001
0100
0010
1000
,
0010
0100
0001
1000
0100
0010
0001
0000
,
0100
0010
1000
0000
0001
0010
0100
1000
,
0100
0000
0010
0000
0001
0000
1000
0000
1001
0000
0000
0100
0000
0000
0001
0000
,
1001
0000
0110
0000
0001
0100
1000
0100
,
0001
1000
0010
1000
0001
0100
1000
0100
,
0001
1000
0010
0000
1000
0100
0001
0100
,
1000
0001
0100
0010
2000
0000
0000
0001
,
3001
0000
0000
1000
0002
0000
0000
0203
,
0000
0000
0000
0000
0320
0000
0000
2030
,
0000
0000
0000
0000
3002
0000
0000
0023
,
0000
0000
0000
0000
0230
0000
0000
2300
,
0000
0000
0000
0000
0000
0000
0000
0000
3001
0000
1000
0010
0000
0100
0000
0001
,
0000
0100
0000
0010
0000
1000
0000
0001
0000
0000
1000
0000
1000
0000
0001
0010
,
0000
0100
0000
0010
0000
0000
0001
0000
1000
0000
0001
0100
0000
0010
0000
1000
,
0000
0010
0000
0100
0000
0001
0000
1000
0000
0000
0001
0000
0001
0000
1000
0100
,
0000
0010
0000
0100
0000
0000
1000
0000
0001
0100
0001
0000
1000
0000
0200
0000
,
0000
0000
0000
0000
,
0000
0000
0000
0000
,
0000
0000
0000
0000
,
0000
0000
0300
0000
;

//--------------- dance-single - Extraordiberry ----------------
#NOTEDATA:;
#STEPSTYPE:dance-single;
#DESCRIPTION:Extraordiberry;
#DIFFICULTY:Hard;
#METER:15;
#RADARVALUES:0,0,0,0,0;
#CREDIT:Extraordiberry;
#NOTES:
0000
0000
0000
0000
,
0000
0000
0000
0000
,
0000
0000
2000
0000
,
3002
0000
0000
0000
1003
0010
0100
0001
,
1000
0100
1000
0100
0010
0001
0010
0001
1000
2000
0000
3010
0020
0000
0130
0200
,
0000
0310
0020
0000
1030
2000
0000
0000
3001
0002
0000
0013
0020
0000
0130
0200
,
0000
0310
0020
0000
0031
0001
0000
1000
0001
0100
0001
0100
0010
1000
0010
1000
,
0001
0001
0010
0010
0100
0100
1000
1000
0002
0000
0000
0000
0000
0000
0000
0000
,
0103
0000
0001
0000
1000
2000
3000
0000
0001
0100
0001
0000
0100
0000
0010
1000
,
0010
0000
1000
0000
0001
0010
0100
0000
0010
0000
0001
0000
1000
0000
0020
0000
,
0000
0000
0130
0000
0002
0000
0000
0000
1003
0100
1000
0000
0100
0000
0010
0001
,
0010
0000
0001
0000
1000
0010
0100
0000
0010
0000
1000
0000
0001
0000
0010
0100
,
0000
0010
0001
0000
1000
0000
0001
0000
0100
0001
0100
0000
0010
0000
1000
0010
,
1000
0000
0001
0000
0010
0100
1000
0000
0100
0000
0010
0000
0001
0000
0200
0000
,
0000
0000
0310
0000
2000
0000
0000
0000
3100
0000
0010
0001
0000
0010
0100
0000
,
1000
0001
1000
0000
0010
0000
0100
0000
0002
0000
2003
0000
3200
0000
0302
0000
,
0203
0000
2300
0000
3002
0000
0000
0000
1003
0100
0010
0000
0001
0000
0010
0100
,
1000
0000
0001
0000
1000
0010
0100
0000
0010
0000
1000
0000
0001
0000
0020
0000
,
0000
0000
0130
0000
2000
0000
0000
0000
3001
0100
0010
0000
1000
0000
0010
0100
,
0001
0000
1000
0000
0001
0010
0100
0000
0010
0000
0001
0000
1000
0000
0001
0100
,
0000
0010
0100
0000
0001
0000
1000
0000
0100
0000
0100
0000
0010
0000
0010
0000
,
0001
0000
0001
0000
1000
0000
0001
0100
0010
0000
0100
0000
0001
0000
1000
0100
,
0000
0010
0001
0000
1000
0000
0001
0000
0100
0001
0100
0000
0010
1000
0010
0000
,
1000
0100
1000
0100
0010
0001
0010
0001
2000
0000
0000
0000
0000
0000
0010
0000
,
0000
0001
3001
0000
1001
1000
1001
0000
,
0001
0100
0001
0101
0000
1000
0010
1000
,
1010
0010
0000
1000
0100
0010
0001
0010
,
0011
0000
0010
0001
0100
0010
1000
0010
,
1010
0000
1002
0023
,
0230
0000
0000
0000
2300
0000
0000
0000
3001
1000
0010
0100
0000
0010
0000
1000
,
0000
0000
0001
0000
0000
0000
1000
0100
1000
0000
0001
0000
0100
0000
0000
0000
1001
0000
0000
0000
0001
0000
0000
0000
1001
0000
0000
0000
0000
0000
0000
0000
,
1000
0100
1000
1100
0000
0001
0010
0001
,
0011
0010
0000
0001
0100
0010
1000
0010
,
1010
0000
0010
1000
0100
0010
0001
0010
,
0011
0000
2001
3020
,
0230
0000
0000
0000
0302
0000
0000
0000
1003
0001
0010
0100
0000
1000
0001
1000
,
0000
0000
0010
0000
0000
0000
0100
0010
0100
0000
0001
0000
1000
0000
0000
0000
0002
0000
0000
0000
0000
0000
0000
0000
0000
0000
0000
0000
0000
0000
0000
0000
,
2003
0000
3200
0000
,
0320
0000
0032
0010
,
2003
0000
0010
0000
3001
0010
0100
1000
,
0001
0100
0001
0100
0010
1000
0010
1000
0001
0002
0000
0013
0020
0000
0130
0200
,
0000
0310
0020
0000
0031
0002
0000
0000
1003
2000
0000
3010
0020
0000
0130
0200
,
0000
0310
0020
0000
1030
1000
0000
0001
1000
0100
1000
0100
0010
0001
0010
0001
,
1000
1000
0010
0010
0100
0100
0001
0001
2000
0000
0000
0000
0000
0000
0000
0000
,
3100
0000
1000
0000
0001
0002
0003
0000
1000
0100
0010
0000
0001
0000
0010
0100
,
1000
0000
0001
0000
1000
0010
0100
0000
0010
0000
1000
0000
0100
0000
0010
0100
,
0000
0010
0001
0000
2000
0000
0000
0000
3001
0100
0010
0000
1000
0000
0010
0100
,
0001
0100
0000
0001
1000
0000
0001
0000
0010
0100
0010
0100
0010
0000
0001
0000
,
1000
0001
0200
0000
0301
1000
0002
0023
,
2030
3020
0032
1003
0001
0001
2000
3020
,
0032
0000
0023
0000
2030
0000
3001
0000
1000
0100
1000
0000
0100
0010
0100
0000
,
0010
0000
0001
0000
0011
0000
0010
0000
0002
0000
0000
0000
0000
0000
1003
0001
,
1000
0000
0001
0000
1001
0000
0000
0000
0001
0100
0010
0000
1000
0000
0010
0100
,
0001
0000
1000
0000
0001
0010
0100
0000
0010
0000
0001
0000
0100
0000
0010
0100
,
0000
0010
1000
0000
0001
0000
0001
0000
1000
0100
0010
0000
0001
0000
0010
0100
,
1000
0100
0000
1000
0001
0000
0100
0000
0101
0000
0000
0110
0000
0000
0010
0000
,
1000
0000
0010
0000
1010
0000
1000
0000
0001
0000
0010
0100
0010
0000
0001
0000
,
0100
0010
0100
0000
0001
0000
0001
0000
1000
0000
0100
0010
0100
0000
1000
0000
,
0010
0100
0010
0000
2000
0000
0000
0000
3001
0010
0100
0000
1000
0100
0010
0000
,
0001
0100
0001
0100
0010
1000
0010
1000
0002
0000
0000
0000
0000
0000
1003
0001
,
0020
0000
0000
0031
0002
0000
0000
0203
,
0000
0000
0000
0000
0320
0000
0000
2030
,
0000
0000
0000
0000
3002
0000
0000
0023
,
0000
0000
0000
0000
0230
0000
0000
2300
,
0000
0000
0000
0000
3001
0000
0000
0000
1001
0000
1000
0100
0000
0010
0001
0010
,
0000
0100
0000
1000
0000
0001
0000
0100
0000
0000
0001
0000
1000
0100
0000
0010
,
0000
0001
0000
0010
0000
0100
1000
0000
1001
0000
0001
0100
0000
0010
1000
0010
,
0000
0100
0000
0001
0000
1000
0000
0100
0000
0000
1000
0000
0001
0100
0000
0010
,
0000
1000
0000
0010
0000
0100
0001
0000
1000
0100
0010
0001
0010
0100
2000
0000
,
0000
0000
0000
0000
,
0000
0000
0000
0000
,
0000
0000
0000
0000
,
0000
0000
3000
0000
;

//--------------- dance-single - Extraordiberry ----------------
#NOTEDATA:;
#STEPSTYPE:dance-single;
#DESCRIPTION:Extraordiberry;
#DIFFICULTY:Challenge;
#METER:17;
#RADARVALUES:0,0,0,0,0;
#CREDIT:Extraordiberry;
#NOTES:
0000
0000
0000
0000
,
0000
0000
0000
0000
,
0000
0000
2000
0000
,
3002
0000
0000
0000
0013
0010
0100
0100
,
1000
0001
1000
0001
0100
0010
0100
0010
1000
2000
0000
3001
0002
0000
0013
0020
,
0000
0130
0200
0000
1300
2000
0000
3001
0100
0200
0000
0310
0020
0000
1030
2000
,
0000
3001
0002
0000
0013
0010
0100
1000
0001
0100
0001
0100
0010
1000
0010
1000
,
0001
0100
0001
0100
0001
0100
0001
0100
0010
1000
0010
1000
0010
1000
0010
1000
0002
0000
0000
0000
0000
0000
0000
0000
0000
0000
0000
0000
0000
0000
0000
0000
,
0013
0000
0001
0000
1000
2000
3000
0000
0001
0100
0010
1000
0010
0000
0100
0001
,
0100
0010
1000
0000
0100
1000
0100
0010
0001
0000
1000
0010
0100
0000
0020
0000
,
0000
0000
1030
0000
0002
0000
0000
0000
1003
0100
0010
0001
0010
0000
0100
1000
,
0100
0010
0001
0000
0100
0001
0100
0010
1000
0000
0001
0000
0010
0000
0100
0010
,
0000
0001
1000
0001
1000
0000
0010
0000
0100
0001
0100
0010
1000
0000
0001
0100
,
0010
1000
0010
0000
1000
0100
0010
0001
0010
0000
0001
1000
0010
0000
0200
0000
,
0000
0000
0301
0000
2000
0000
0000
0000
3100
1000
0100
0010
0000
0100
0010
0001
,
0010
0000
0001
1000
0001
0000
0100
0000
0001
0100
0010
0000
2000
0000
3200
0000
,
0302
0000
0203
0000
2300
0000
3002
0000
0103
0001
0100
0010
1000
0000
0001
0100
,
0010
1000
0001
0000
1000
0100
0010
0100
0001
0000
0100
0010
0100
0000
2000
0000
,
0000
0000
3001
0000
0200
0000
0000
0000
0301
1000
0100
0010
0001
0000
1000
0100
,
0010
0001
1000
0000
0001
0100
0010
0100
1000
0000
0100
0000
0010
0000
0100
0001
,
0000
1000
0001
1000
0001
0000
0010
0000
0100
0000
1000
0000
0010
0000
1000
0000
,
0100
0000
1000
0000
0010
0000
1000
0001
0100
0000
0001
0000
0010
0000
0100
0010
,
0000
0001
1000
0000
0010
0000
0100
0000
0001
0100
0001
0100
0010
1000
0010
1000
,
0001
0010
0100
1000
0100
0010
0001
1000
0010
0000
0000
0000
0000
0000
0110
0000
,
0000
1000
1001
0000
0101
0100
0110
0000
,
0110
0010
1010
1000
0000
0100
1100
0010
,
0011
0001
0000
0100
0101
0010
1010
1000
,
1100
0000
0110
0010
0011
0001
0101
0100
,
0110
0000
0000
0000
0000
0000
0000
0000
1002
0000
0000
0000
0103
0010
1000
0010
,
0000
0000
0100
0000
0001
0000
0100
0000
0000
0000
0010
0000
1000
0000
0000
0000
0001
0000
1000
0100
1000
0000
0002
0000
0000
0000
0203
0000
0000
0000
0320
0000
,
0000
0000
2030
0000
0000
0000
3010
1000
0010
0000
0100
0000
0001
0000
0000
0000
1100
0000
0000
0000
0100
0000
0000
0000
0110
0000
0000
0000
0000
0000
0000
0000
,
0110
0010
0011
0001
0000
0100
0101
0010
,
1010
1000
0000
0100
1100
0010
0011
0001
,
0101
0000
0110
0010
1010
1000
1100
0100
,
0110
0000
0000
0000
0000
0000
0000
0000
2001
0000
0000
0000
3100
0010
0001
0010
,
0000
0000
0100
0000
1000
0000
0100
0000
0000
0000
0010
0000
0001
0000
0000
0000
1000
0000
0001
0100
0001
0000
2000
0000
0000
0000
3100
0000
0010
0000
0002
0000
,
0000
0000
0203
0000
0000
0000
0301
1000
0001
0000
0010
0000
0100
0000
1000
0000
0002
0000
0000
0000
0000
0000
0000
0000
0000
0000
0000
0000
0000
0000
0000
0000
,
0203
0000
0320
0000
,
2030
0000
3002
0023
,
0230
0000
2300
0000
3010
0010
0100
0100
,
0001
1000
0001
1000
0100
0010
0100
0010
0001
0002
0000
1003
2000
0000
3010
0020
,
0000
0130
0200
0000
0301
0002
0000
1003
0100
0200
0000
0310
0020
0000
0031
0002
,
0000
1003
2000
0000
3010
0010
0100
0001
1000
0100
1000
0100
0010
0001
0010
0001
,
1000
0100
1000
0100
1000
0100
1000
0100
0010
0001
0010
0001
0010
0001
0010
0001
2000
0000
0000
0000
0000
0000
0000
0000
0000
0000
0000
0000
0000
0000
0000
0000
,
3010
0000
1000
0000
0001
0002
0003
0000
1000
0001
0010
0100
1000
0000
0100
0010
,
0001
1000
0010
0000
0100
0001
1000
0100
0010
0000
0001
0000
0100
0000
0010
1000
,
0000
0001
0100
0000
0010
0000
1000
0000
0001
0010
0100
0000
0010
0000
0001
1000
,
0010
0100
0000
0010
1000
0000
0001
0000
1000
0100
0010
0100
0001
0000
0100
0010
,
0100
1000
0001
0000
0100
0000
0010
0000
1010
0000
1000
0000
0100
0000
1100
0000
,
1000
0010
0100
0001
0011
0010
0001
0101
,
0100
0000
0001
0000
0010
0000
0001
0000
1000
0001
0100
0010
1000
0010
0100
0001
,
1000
0000
0100
0000
0010
0000
0001
0000
0012
0000
0000
0000
0103
0000
0010
0100
,
0001
0000
1000
0000
1001
0000
0000
0000
0001
1000
0100
0010
0001
0000
0010
0100
,
1000
0001
0100
0000
0010
1000
0001
0010
0100
0000
0010
0000
0001
0000
1000
0010
,
0000
0100
0001
0000
0100
0000
0010
0000
1000
0100
1000
0100
0010
0001
0010
0001
,
1000
0010
0000
0100
0001
0000
1000
0000
1010
0000
0000
1001
0000
0000
1000
0000
,
1100
0000
0100
0000
0110
0000
0010
0000
0002
0000
1003
0010
0100
0010
0002
0000
,
0013
0100
0010
0000
1000
0000
0001
0000
2000
0000
3001
0010
0100
0010
2000
0000
,
3010
0100
0010
0000
0001
0100
0010
0000
1000
0100
0010
0001
0010
0100
1000
0001
,
0100
0010
1000
0100
0010
0001
0100
0010
2000
0000
0000
0000
0000
0000
3001
1000
,
0200
0000
0000
0310
0020
0000
0000
0032
,
0000
0000
0000
0000
0203
0000
0000
0320
,
0000
0000
0000
0000
2030
0000
0000
3200
,
0000
0000
0000
0000
0320
0000
0000
0032
,
0000
0000
0000
0000
1003
0000
0000
0000
0001
0010
0001
0010
0000
1000
0010
1000
,
0010
0000
0100
0010
0000
0001
0000
0100
0000
0000
0010
0000
1000
0100
1000
0100
,
0000
0010
0000
0001
0000
1000
0001
0000
1000
0010
1000
0010
0000
0001
0010
0001
,
0010
0000
0100
0010
0000
1000
0000
0100
0000
0000
0010
0000
0001
0100
0001
0100
,
0000
0010
0000
1000
0100
0010
0100
0010
0001
0100
0010
1000
0100
0010
0002
0000
,
0000
0000
0000
0000
,
0000
0000
0000
0000
,
0000
0000
0000
0000
,
0000
0000
0003
0000
;

//--------------- dance-double - Extraordiberry ----------------
#NOTEDATA:;
#STEPSTYPE:dance-double;
#DESCRIPTION:Extraordiberry;
#DIFFICULTY:Easy;
#METER:7;
#RADARVALUES:0,0,0,0,0;
#CREDIT:Extraordiberry;
#NOTES:
00000000
00000000
00000000
00000000
,
00000000
00000000
00000000
00000000
,
00000000
00000000
00020000
00000000
,
00000000
00000000
00032000
00000000
,
00010000
00010000
00023000
00000000
,
00000000
00000000
00030200
00000000
,
00000000
00000000
00002300
00000000
,
00003002
00000000
00000203
00000000
,
00000300
00001000
00010000
00001000
,
01000000
00010000
01000000
00001000
,
00020000
00000000
00031000
00010000
,
00000100
00001000
00000100
00010000
,
00002000
00000000
00013000
00001000
,
01000000
00010000
01000000
00001000
,
00020000
00000000
00031000
00010000
,
00000010
00001000
00000001
00000100
,
00002000
00000000
00013000
00001000
,
00100000
00010000
00100000
00001000
,
00020000
00000000
00031000
00010000
,
00000010
00001000
00000010
00010000
,
00002000
00000000
00013000
00001000
,
01000000
00000000
00010000
01000000
,
00100000
00000000
10000000
01000000
,
00010000
00001000
00022000
00000000
,
00033000
00000000
00010000
00010000
,
00001000
00001000
00000000
00010000
,
00010000
00000000
00001000
00001000
,
00010000
00000000
00010000
00010000
,
00001000
00000000
00012000
00000000
,
00000000
00013000
00001000
01000000
,
00001000
00001000
00010000
00000000
00001000
00000000
00001000
00000000
,
00010000
00010000
00000000
00001000
,
00001000
00000000
00010000
00010000
,
00001000
00000000
00001000
00001000
,
00010000
00000000
00021000
00000000
,
00000000
00031000
00010000
00000100
,
00010000
00010000
00001000
00000000
00020000
00000000
00000000
00000000
,
00000000
00000000
00032000
00000000
,
00000000
00000000
00203000
00000000
,
00302000
00000000
00023000
00000000
,
00001000
00001000
00032000
00000000
,
00000000
00000000
02003000
00000000
,
00000000
00000000
03020000
00000000
,
20030000
00000000
32000000
00000000
,
03000000
00010000
00001000
00010000
,
00000100
00001000
00000100
00010000
,
00002000
00000000
00013000
00001000
,
01000000
00010000
10000000
01000000
,
00020000
00000000
00031000
00010000
,
00000100
00001000
00000001
00000100
,
00000010
00001000
00000001
00000100
,
00001000
00010000
00002000
00000000
,
00013000
00000000
00001000
00100000
,
00010000
10000000
00100000
01000000
,
00002000
00000000
00013000
00000100
,
00001000
00000001
00000100
00001000
,
00020000
00000000
00031000
00010000
,
00100000
00000000
10000000
00100000
,
00010000
00000000
00001000
00010000
,
00100000
10000000
00010000
10000000
,
01000000
00010000
00002000
00000000
,
00000000
00000000
00000000
00000000
,
00000000
00000000
00000000
00000000
,
00000000
00000000
00000000
00000000
,
00003000
00000000
00010000
00010000
,
00001000
00001000
00000000
01000000
,
00001000
00001000
00010000
00010000
,
00001000
00001000
00000000
00010000
,
00000100
00000000
00010000
00000000
00001000
00000000
00000000
00020000
,
00000000
00000000
00000000
00000000
,
00000000
00000000
00000000
00000000
,
00000000
00000000
00000000
00000000
,
00000000
00000000
00030000
00000000
;

//--------------- dance-double - Extraordiberry ----------------
#NOTEDATA:;
#STEPSTYPE:dance-double;
#DESCRIPTION:Extraordiberry;
#DIFFICULTY:Medium;
#METER:12;
#RADARVALUES:0,0,0,0,0;
#CREDIT:Extraordiberry;
#NOTES:
00000000
00000000
00000000
00000000
,
00000000
00000000
00000000
00000000
,
00000000
00000000
00020000
00000000
,
00032000
00000000
02003000
00000000
,
03001000
00000000
00001000
00000000
00010000
00000000
00010000
00000000
00002000
00000000
00000000
00203000
00000000
00000000
00320000
00000000
,
00000000
00230000
00000000
00000000
00302000
00000000
00000000
00000000
00023000
00000000
00000000
00030020
00000000
00000000
00002030
00000000
,
00000000
00003020
00000000
00000000
00020030
00000000
00000000
00000000
00031000
00000000
00010000
00000000
00000100
00000000
00001000
00000000
,
00000001
00000100
00000001
00000100
00000010
00001000
00000010
00000000
00020000
00000000
00000000
00000000
00000000
00000000
00000000
00000000
,
00031000
00000000
00010000
00000000
00001000
00002000
00003000
00000000
00010000
00000000
00001000
00000000
01000000
00000000
00010000
00000000
,
01000000
00100000
10000000
00010000
10000000
00000000
01000000
00020000
,
00000000
00031000
00010000
00000000
00001000
00010000
00000100
00001000
,
00000100
00000010
00000001
00001000
00000010
00010000
00001000
00020000
,
00000000
00030100
00001000
00000100
00010000
00001000
01000000
00010000
,
01000000
00100000
10000000
00010000
10000000
00000000
01000000
00020000
,
00000000
00000000
00031000
00000000
00010000
00000000
00000000
00000000
00001000
00000000
00000000
01000000
00000000
00000000
00001000
00000000
,
00010000
00001000
00100000
00000000
00010000
10000000
01000000
00010000
,
00001000
00001000
00010000
00000000
00001000
00010000
00000010
00001000
,
00000010
00000100
00000001
00001000
00000001
00000000
00000010
00002000
,
00000000
00013000
00001000
00000000
00010000
00001000
00100000
00010000
,
00100000
01000000
10000000
00010000
00100000
00001000
00010000
00002000
,
00000000
00103000
00010000
00100000
00001000
00010000
00001000
00010000
,
00100000
10000000
00100000
10000000
00010000
00100000
00001000
00010000
,
00000100
00001000
00000001
00000010
00000100
00000100
00001000
00001000
,
00000001
00000001
00000100
00000100
00002000
00000000
00000000
00010000
,
00000000
00010000
00013000
00000000
00010000
00010000
00001000
00000000
,
01000000
00010000
01000000
00010000
00000000
10000000
01000000
10000000
,
01000000
10000000
00000000
00010000
00100000
00010000
00100000
00010000
,
00100000
00000000
00001000
00010000
00001000
00010000
00001000
00010000
,
00001000
00000000
00012000
00000000
,
00023000
00000000
00000000
00000000
00000000
00000000
00000000
00000000
00031000
00000000
00010000
00000100
00000000
00001000
00000000
00000001
,
00000000
00000100
00000000
00001000
00010000
00001000
00010000
00000000
00001000
00000000
00001000
00000000
00010000
00000000
00000000
00000000
,
00000100
00001000
00000100
00001000
00000000
00000001
00000100
00000001
,
00000100
00000001
00000000
00001000
00000010
00001000
00000010
00001000
,
00000010
00000000
00010000
00001000
00010000
00001000
00010000
00001000
,
00010000
00000000
00021000
00000000
,
00032000
00000000
00000000
00000000
00000000
00000000
00000000
00000000
00013000
00000000
00001000
01000000
00000000
00010000
00000000
10000000
,
00000000
01000000
00000000
00010000
00001000
00010000
00001000
00000000
00020000
00000000
00000000
00000000
00000000
00000000
00000000
00000000
,
00032000
00000000
02003000
00000000
,
03020000
00000000
20030000
00000000
,
32000000
00000000
03100000
00001000
,
00010000
00000000
00010000
00000000
00001000
00000000
00001000
00000000
00020000
00000000
00000000
00030020
00000000
00000000
00002030
00000000
,
00000000
00003020
00000000
00000000
00020030
00000000
00000000
00000000
00032000
00000000
00000000
00203000
00000000
00000000
00320000
00000000
,
00000000
00230000
00000000
00000000
00302000
00000000
00000000
00000000
00013000
00000000
00001000
00000000
01000000
00000000
00010000
00000000
,
10000000
01000000
10000000
01000000
00100000
00010000
00100000
00000000
00002000
00000000
00000000
00000000
00000000
00000000
00000000
00000000
,
00013000
00000000
00001000
00000000
00010000
00020000
00030000
00000000
00001000
00000000
00010000
00000000
00001000
00000000
00100000
00000000
,
00010000
00100000
01000000
10000000
01000000
01000000
00100000
00000000
,
00010000
00100000
00001000
00000000
00010000
00001000
00010000
00000100
,
00001000
00000010
00000100
00000001
00000100
00001000
00020000
00000000
,
00031000
00010000
00001000
00000000
00011000
00000000
00010000
00200000
,
00000000
10300000
00100000
00010000
00001000
00000000
00001000
00000020
,
00000000
00000031
00000010
00001000
00000010
00000001
00001000
00000010
,
00000100
00000001
00000100
00001000
00020000
00000000
00000000
00031000
,
00010000
00000000
00011000
00000000
00001000
00010000
00000010
00001000
,
00000010
00000100
00000001
00000100
00000010
00000010
00001000
00000000
,
00000010
00010000
00001000
00000000
00010000
00001000
01000000
00010000
,
01000000
00000000
00100000
00000000
10000000
00000000
01000000
00000000
00020000
00000000
00000000
00032000
00000000
00000000
00003020
00000000
,
00000032
00001003
00001001
00000000
00000001
00000100
00001000
00000100
,
00000001
00001000
00000010
00001000
00000001
00000100
00001000
00010000
,
00000010
00001000
00000010
00010000
00001000
00010000
00100000
10000000
,
00010000
00010000
10000000
01000000
00020000
00000000
00000000
00031000
,
00002000
00000000
00000000
00013000
00020000
00000000
00000000
00032000
,
00000000
00000000
00000000
00000000
00003020
00000000
00000000
00000032
,
00000000
00000000
00000000
00000000
00002003
00000000
00000000
00003020
,
00000000
00000000
00000000
00000000
00020030
00000000
00000000
00002000
,
00000000
00000000
00000000
00000000
00033000
00000000
00000000
00000000
00010000
00000000
00000000
00000100
00000000
00000000
00010000
00000000
,
00001000
00000000
00000000
00010000
00000000
00001000
00000000
00010000
00000000
00000000
00001000
00000000
01000000
00000000
00000000
00001000
,
00000000
00010000
00000000
00001000
00000000
00000000
00010000
00000000
00001000
00000000
00000000
00100000
00000000
00000000
00001000
00000000
,
00010000
00000000
00000000
00001000
00000000
00010000
00000000
00001000
00000000
00000000
00010000
00000000
00000010
00000000
00000000
00010000
,
00000000
00001000
00000000
00010000
00000000
00000000
00001000
00000000
00010000
00000000
00001000
00000000
00000010
00000000
00000002
00000000
,
00000000
00000000
00000000
00000000
,
00000000
00000000
00000000
00000000
,
00000000
00000000
00000000
00000000
,
00000000
00000000
00000003
00000000
;

//--------------- dance-double - Extraordiberry ----------------
#NOTEDATA:;
#STEPSTYPE:dance-double;
#DESCRIPTION:Extraordiberry;
#DIFFICULTY:Hard;
#METER:15;
#RADARVALUES:0,0,0,0,0;
#CREDIT:Extraordiberry;
#NOTES:
00000000
00000000
00000000
00000000
,
00000000
00000000
00000000
00000000
,
00000000
00000000
00020000
00000000
,
00032000
00000000
00000000
00000000
00013000
00001000
00000010
00000001
,
00000100
00000010
00000100
00000010
00001000
00000001
00001000
00000001
00000200
00000000
00000000
00002300
00000000
00000000
00023000
00000000
,
00000000
00230000
00000000
00000000
00320000
00000000
00000000
00031000
00020000
00000000
00000000
02030000
00000000
00000000
23000000
00000000
,
00000000
32000000
00000000
00000000
03010000
00001000
00010000
00000000
00001000
00000000
00000010
00000000
00000001
00000000
00001000
00000000
,
00000001
00000001
00000100
00000100
00000010
00000010
00001000
00001000
00020000
00000000
00000000
00000000
00000000
00000000
00000000
00000000
,
10030000
00000000
10000000
00000000
00010000
00020000
00030000
00000000
10000000
00000000
01000000
00000000
00010000
00000000
00001000
00000000
,
00100000
00000000
00010000
00000000
10000000
00000000
01000000
00000000
00010000
00000000
00001000
00010000
00001000
00000000
00000020
00000000
,
00000000
00000130
00002000
00000000
00003001
00000100
00001000
00010000
,
00000010
00000000
00001000
00000000
00000001
00000000
00000010
00000000
00001000
00000000
00010000
00000000
00001000
00000000
00000010
00000001
,
00000000
00001000
00000001
00000000
00002000
00000000
00000000
00000000
00003001
00000000
00000100
00000000
00001000
00000000
00010000
00000000
,
00000010
00000000
00001000
00000000
00000001
00000000
00000100
00000000
00001000
00000000
00010000
00001000
00010000
00000000
00200000
00000000
,
00000000
00000000
01300000
00000000
00020000
00000000
00000000
00000000
10030000
00000000
00010000
00100000
00000000
00000000
01000000
00000000
,
00010000
00001000
01000000
00010000
10000000
01000000
00100000
00010000
,
00001000
00000000
00000100
00000000
00000010
00000000
00000001
00000000
00000100
00000001
00000100
00000000
00000010
00000000
00001000
00000010
,
00001000
00000000
00000001
00000000
00000100
00000010
00000100
00000000
00001000
00000000
00010000
00000000
00100000
00000000
20000000
00000000
,
00000000
00000000
30010000
00000000
00200000
00000000
00000000
00000000
01300000
10000000
01000000
00000000
00100000
00000000
00010000
00100000
,
00010000
00000000
10000000
00000000
01000000
00100000
01000000
00000000
00010000
00000000
00001000
00000000
00010000
00000000
00100000
10000000
,
00000000
00010000
10000000
00000000
00020000
00000000
00000000
00000000
10030000
00000000
01000000
00000000
10000000
00000000
01000000
00000000
,
00010000
00000000
01000000
00000000
00010000
00000000
00001000
00010000
00001000
00000000
00010000
00000000
00001000
00000000
00000010
00000001
,
00000000
00001000
00000001
00000000
00000100
00000000
00000100
00000000
00000001
00000100
00000001
00000000
00000100
00000010
00000100
00000000
,
00001000
00000100
00001000
00000000
00010000
00001000
00010000
00001000
00020000
00000000
00000000
00000000
00000000
00000000
00001000
00000000
,
00000000
00001000
00031000
00000000
00011000
00001000
00011000
00000000
,
01010000
01000000
01010000
00010000
00000000
10000000
11000000
01000000
,
11000000
10000000
00000000
00010000
00110000
00100000
00110000
00010000
,
00110000
00000000
00001100
00001000
00001100
00000100
00001100
00001000
,
00001100
00000000
00021000
00032000
,
02003000
00000000
00000000
00000000
03020000
00000000
00000000
00000000
10030000
01000000
00100000
00010000
00000000
10000000
00000000
01000000
,
00000000
00000000
00010000
00000000
00000000
00000000
00001000
00010000
00001000
00000000
00010000
00000000
00001000
00000000
00000000
00000000
00011000
00000000
00000000
00000000
00010000
00000000
00000000
00000000
00011000
00000000
00000000
00000000
00000000
00000000
00000000
00000000
,
00001100
00000100
00001100
00001000
00000000
00000001
00000101
00000100
,
00000101
00000001
00000000
00001000
00001010
00000010
00001010
00001000
,
00001010
00000000
01010000
00010000
01010000
01000000
01010000
00010000
,
01010000
00000000
00012000
00023000
,
00030200
00000000
00000000
00000000
00002300
00000000
00000000
00000000
00003001
00000100
00000010
00001000
00000000
00000001
00000100
00001000
,
00000000
00000000
00010000
00000000
00000000
00000000
00001000
00010000
00001000
00000000
00010000
00000000
00001000
00000000
00000000
00000000
00020000
00000000
00000000
00000000
00000000
00000000
00000000
00000000
00000000
00000000
00000000
00000000
00000000
00000000
00000000
00000000
,
00030200
00000000
00002300
00000000
,
00003002
00000000
00000203
00001300
,
00002000
00000000
00013000
00000000
00001000
00010000
00100000
10000000
,
01000000
00100000
01000000
00100000
00010000
10000000
00010000
10000000
02000000
00000000
00000000
03020000
00000000
00000000
00032000
00000000
,
00000000
00003020
00000000
00000000
00002030
00000000
00000000
00013000
00002000
00000000
00000000
00003200
00000000
00000000
00000302
00000000
,
00000000
00000203
00000000
00000000
00001300
00010000
00001000
00000000
00010000
00000000
00100000
00000000
10000000
00000000
00010000
00000000
,
10000000
10000000
01000000
01000000
00100000
00100000
00010000
00010000
00002000
00000000
00000000
00000000
00000000
00000000
00000000
00000000
,
00003001
00000000
00001000
00000000
00000001
00000002
00000003
00000000
00000100
00000001
00000100
00000000
00000010
00000000
00001000
00000010
,
00001000
00000000
00000001
00000000
00000100
00000010
00000100
00000000
00001000
00000000
00010000
00000000
00000010
00000000
00001000
00000010
,
00000000
00000100
00000001
00000000
00000200
00000000
00000000
00000000
00001300
00010000
00001000
00000000
01000000
00000000
00010000
01000000
,
00010000
01000000
00000000
00100000
10000000
00000000
00010000
00000000
00100000
00010000
00100000
00010000
00100000
00000000
00001000
00000000
,
00010000
00000100
00002000
00000000
00003001
00000100
00001000
00010000
,
00000010
00001000
00010000
01000000
00001000
00010000
00100000
10000000
,
00010000
00000000
00100000
00000000
01000000
00000000
10000000
00000000
01000000
10000000
01000000
00000000
00100000
00010000
00100000
00000000
,
00001000
00010000
00001000
00000000
00010000
00000000
00001000
00000000
00021000
00000000
00000000
00000000
00000000
00000000
00130000
10000000
,
00100000
00000000
00000000
00000000
11000000
00000000
00000000
00000000
01000000
10000000
01000000
00000000
00100000
00000000
00010000
00100000
,
00010000
00000000
10000000
00000000
01000000
00100000
01000000
00000000
00010000
00000000
00001000
00000000
00000010
00000000
00000001
00001000
,
00000000
00000001
00000100
00000000
00000010
00000000
00001000
00000000
00000001
00000100
00000001
00000100
00000001
00000000
00000100
00000000
,
00001000
00010000
00000000
00001000
00010000
00000000
00100000
00000000
10100000
00000000
00000000
11000000
00000000
00000000
01000000
00000000
,
01100000
00000000
00100000
00000000
00120000
00000000
00000000
00000000
10030000
00000000
01000000
00100000
01000000
00000000
00010000
00000000
,
00001000
00010000
00001000
00000000
00000010
00000000
00000001
00000000
00001000
00000000
00000001
00000100
00000001
00000000
00000100
00000000
,
00001000
00010000
00001000
00000000
00010000
00000000
00100000
00000000
10000000
01000000
10000000
00000000
01000000
00100000
01000000
00000000
,
00100000
00010000
00100000
00000000
00001000
00010000
00001000
00010000
00002000
00000000
00000000
00000000
00000000
00000000
00003010
00000000
,
00000002
00000000
00000000
00001003
00002000
00000000
00000000
00003002
,
00000000
00000000
00000000
00000000
00000203
00000000
00000000
00002300
,
00000000
00000000
00000000
00000000
00023000
00000000
00000000
00230000
,
00000000
00000000
00000000
00000000
20300000
00000000
00000000
00020000
,
00000000
00000000
00000000
00000000
30030000
00000000
00000000
00000000
10000000
00000000
00010000
00100000
00000000
01000000
10000000
01000000
,
00000000
00100000
00000000
00001000
00000000
00010000
00000000
00000100
00000000
00000000
00001000
00000000
00000001
00000100
00000000
00000010
,
00000000
00000010
00000000
00001000
00000000
00000010
00000100
00000000
00000001
00000000
00001000
00000010
00000000
00000100
00000001
00000100
,
00000000
00000010
00000000
00010000
00000000
00001000
00000000
01000000
00000000
00000000
00010000
00000000
10000000
01000000
00000000
00100000
,
00000000
00100000
00000000
00010000
00000000
00100000
01000000
00000000
10000000
01000000
00100000
00010000
00100000
00001000
00020000
00000000
,
00000000
00000000
00000000
00000000
,
00000000
00000000
00000000
00000000
,
00000000
00000000
00000000
00000000
,
00000000
00000000
00030000
00000000
;

//--------------- dance-double - Extraordiberry ----------------
#NOTEDATA:;
#STEPSTYPE:dance-double;
#DESCRIPTION:Extraordiberry;
#DIFFICULTY:Challenge;
#METER:17;
#RADARVALUES:0,0,0,0,0;
#CREDIT:Extraordiberry;
#NOTES:
00000000
00000000
00000000
00000000
,
00000000
00000000
00000000
00000000
,
00000000
00000000
00020000
00000000
,
00032000
00000000
02003000
03020000
,
10030000
01000000
10000000
01000000
00100000
00010000
00100000
00010000
10000000
20000000
00000000
31000000
02000000
00000000
03010000
00020000
,
00000000
00031000
00002000
00000000
01003000
02000000
00000000
03010000
10000000
20000000
00000000
31000000
02000000
00000000
03010000
00020000
,
00000000
00031000
00002000
00000000
00003010
00000010
00000100
00001000
00000001
00000100
00000001
00000100
00000010
00001000
00000010
00001000
,
00010000
01000000
00010000
01000000
00010000
01000000
00010000
01000000
00100000
10000000
00100000
10000000
00100000
10000000
00100000
10000000
00020000
00000000
00000000
00000000
00000000
00000000
00000000
00000000
00000000
00000000
00000000
00000000
00000000
00000000
00000000
00000000
,
10030000
00000000
00010000
00000000
00001000
00002000
00003000
00000000
00000001
00000100
00000010
00001000
00000010
00000000
00000100
00000001
,
00000100
00000010
00001000
00000000
00000010
00001000
00000010
00010000
00001000
00000000
00010000
00001000
01000000
00000000
00020000
00000000
,
00000000
00000000
10030000
00000000
02000000
00000000
00000000
00000000
13000000
01000000
00100000
00010000
00100000
00000000
01000000
10000000
,
01000000
00100000
00010000
00000000
00100000
00010000
00100000
00001000
00020000
00000000
00030200
00000000
00002300
00000000
00003100
00010000
,
00000000
00001000
00010000
00001000
01000000
00000000
00010000
00000000
10000000
01000000
00100000
00010000
00100000
00000000
01000000
10000000
,
01000000
00100000
00010000
00000000
00100000
00010000
00100000
00001000
00010000
00000000
00001000
00010000
00000100
00000000
00002000
00000000
,
00000000
00000000
00003001
00000000
00000200
00000000
00000000
00000000
00000301
00000100
00000010
00001000
00000000
00000001
00000010
00000100
,
00001000
00000000
00000100
00000010
00000001
00000000
00001000
00000000
00000010
00000100
00000001
00000000
00000100
00000000
00001000
00000000
,
00010000
00000000
01000000
00000000
10000000
00000000
00010000
00000000
10000000
01000000
00100000
00010000
00100000
00000000
01000000
10000000
,
01000000
00100000
00010000
00000000
10000000
01000000
00100000
01000000
00010000
00000000
00001000
00010000
00001000
00000000
00000020
00000000
,
00000000
00000000
00000031
00000000
00002000
00000000
00000000
00000000
00003001
00000100
00000010
00001000
00000010
00000000
00000100
00000001
,
00000100
00000010
00001000
00000000
00000001
00000100
00000010
00000100
00001000
00000000
00010000
00000000
00001000
00000000
00000100
00000001
,
00000000
00001000
00000010
00010000
00001000
00000000
00010000
00000000
00000100
00000000
00001000
00000000
00000100
00000000
00001000
00000000
,
00000001
00000000
00000100
00000000
00000001
00000000
00000100
00001000
00000100
00000000
00001000
00000000
00010000
00000000
00100000
10000000
,
00000000
00010000
00100000
00000000
01000000
00000000
10000000
00000000
00010000
00100000
00010000
00100000
00001000
00010000
00001000
00010000
,
00000100
00001000
00000100
00001000
00000001
00000100
00000001
00000100
00002000
00000000
00000000
00000000
00000000
00000000
00010000
00000000
,
00000000
00010000
00013000
00000000
00011000
00001000
00011000
00000000
,
00011000
00010000
00110000
00100000
00000000
10000000
11000000
01000000
,
01010000
00010000
00000000
00001000
00011000
00010000
00011000
00001000
,
00001010
00000000
00000011
00000001
00000101
00000100
00001100
00001000
,
00011000
00000000
00000000
00000000
00000000
00000000
00000000
00000000
00020000
00000000
00000000
00000000
00031000
01000000
00010000
01000000
,
00000000
00000000
00100000
00000000
10000000
00000000
00100000
00000000
00000000
00000000
01000000
00000000
00010000
00000000
00000000
00000000
10000000
00000000
00010000
00100000
00010000
00000000
20000000
00000000
00000000
00000000
32000000
00000000
00000000
00000000
03020000
00000000
,
00000000
00000000
00032000
00000000
00000000
00000000
00013000
00001000
00010000
00000000
00001000
00000000
00010000
00000000
00000000
00000000
00011000
00000000
00000000
00000000
00001000
00000000
00000000
00000000
00011000
00000000
00000000
00000000
00000000
00000000
00000000
00000000
,
00011000
00001000
00001100
00000100
00000000
00000001
00000011
00000010
,
00001010
00001000
00000000
00010000
00011000
00001000
00011000
00010000
,
01010000
00000000
11000000
10000000
10100000
00100000
00110000
00010000
,
00011000
00000000
00000000
00000000
00000000
00000000
00000000
00000000
00002000
00000000
00000000
00000000
00013000
00000100
00001000
00000100
,
00000000
00000000
00000010
00000000
00000001
00000000
00000010
00000000
00000000
00000000
00000100
00000000
00001000
00000000
00000000
00000000
00000001
00000000
00001000
00000010
00001000
00000000
00000002
00000000
00000000
00000000
00000203
00000000
00002300
00000000
00023000
00000000
,
00000000
00000000
00030200
00000000
00000000
00000000
00010300
00001000
00010000
00000000
00001000
00000000
00010000
00000000
00000000
00000000
00002000
00000000
00000000
00000000
00000000
00000000
00000000
00000000
00000000
00000000
00000000
00000000
00000000
00000000
00000000
00000000
,
02003000
00000000
03020000
00000000
,
20030000
00000000
32000000
03020000
,
00032000
00000000
00003020
00000000
00000031
00000001
00001000
00001000
,
00000001
00000100
00000001
00000100
00000010
00001000
00000010
00001000
00000001
00000002
00000000
00000103
00000200
00000000
00001300
00002000
,
00000000
00013000
00020000
00000000
00030100
00000200
00000000
00001300
00000001
00000002
00000000
00000103
00000200
00000000
00001300
00002000
,
00000000
00013000
00020000
00000000
00130000
00100000
01000000
00010000
10000000
01000000
10000000
01000000
00100000
00010000
00100000
00010000
,
00001000
00000100
00001000
00000100
00001000
00000100
00001000
00000100
00000010
00000001
00000010
00000001
00000010
00000001
00000010
00000001
00002000
00000000
00000000
00000000
00000000
00000000
00000000
00000000
00000000
00000000
00000000
00000000
00000000
00000000
00000000
00000000
,
00003001
00000000
00001000
00000000
00010000
00020000
00030000
00000000
10000000
01000000
00100000
00010000
00100000
00000000
00001000
00010000
,
00001000
00100000
00010000
00000000
00100000
00001000
00010000
00000100
00001000
00000000
00000100
00000000
00010000
00000000
00001000
00000010
,
00000000
00000001
00000010
00000000
00000001
00000000
00001000
00000000
00000001
00000100
00000010
00000000
00001000
00000000
00000010
00001000
,
00000010
00010000
00000000
00001000
00010000
00000000
00100000
00000000
00010000
00100000
01000000
00100000
10000000
00000000
00010000
10000000
,
01000000
00100000
00010000
00000000
01000000
00000000
00100000
00000000
10000000
00000000
01000000
00000000
00010000
00000000
00012000
00000000
,
00000000
00003010
00000001
00000100
00000001
00000010
00001000
00021000
,
00000000
00000000
01030000
00000000
10000000
00000000
00100000
00000000
10000000
01000000
00100000
00010000
00100000
00001000
00010000
00000100
,
00002000
00000000
00003002
00000000
00000203
00000000
00002300
00000000
00023000
00000000
00000000
00000000
00031000
00000000
00010000
00001000
,
00000100
00000000
00000010
00000000
00001000
00000000
00000000
00000000
00000001
00000010
00000100
00001000
00000100
00000000
00010000
00001000
,
00010000
00000100
00001000
00000000
00000100
00010000
00001000
00100000
00010000
00000000
00100000
00000000
00001000
00000000
00010000
01000000
,
00000000
10000000
01000000
00000000
10000000
00000000
00100000
00000000
10000000
01000000
10000000
01000000
00100000
00010000
00100000
00010000
,
10000000
01000000
00000000
00010000
00001000
00000000
00000010
00000000
00000011
00000000
00000000
00000101
00000000
00000000
00000100
00000000
,
00001100
00000000
00001000
00000000
00011000
00000000
00010000
00000000
00100000
00000000
00010000
00001000
00010000
00000000
01000000
00000000
,
00010000
00001000
00010000
00000000
00100000
00000000
10000000
00000000
01000000
00000000
00010000
00001000
00010000
00000000
00100000
00000000
,
00010000
00001000
00010000
00000000
00001000
00000000
00000010
00000000
00000001
00000100
00000010
00001000
00000010
00010000
00001000
01000000
,
00010000
10000000
00100000
01000000
00010000
10000000
01000000
00010000
00002000
00000000
00000000
00000000
00000000
00000000
00013000
00000100
,
00002000
00000000
00000000
00003001
00000002
00000000
00000000
00000203
,
00000000
00000000
00000000
00000000
00002300
00000000
00000000
00023000
,
00000000
00000000
00000000
00000000
00230000
00000000
00000000
20300000
,
00000000
00000000
00000000
00000000
30020000
00000000
00000000
00230000
,
00000000
00000000
00010000
00000000
00310000
00000000
00000000
00000000
10000000
01000000
10000000
01000000
00000000
00010000
00001000
00010000
,
00001000
00000000
00000010
00000001
00000000
00000010
00000000
00001000
00000000
00000000
00010000
00000000
00100000
10000000
00100000
10000000
,
00000000
00100000
00000000
00010000
00000000
00001000
00000100
00000000
00000001
00000010
00000001
00000010
00000000
00001000
00010000
00001000
,
00010000
00000000
01000000
10000000
00000000
01000000
00000000
00010000
00000000
00000000
00001000
00000000
00000100
00000001
00000100
00000001
,
00000000
00000100
00000000
00001000
00000000
00010000
00100000
00000000
01000000
00010000
10000000
01000000
00100000
00010000
02000000
00000000
,
00000000
00000000
00000000
00000000
,
00000000
00000000
00000000
00000000
,
00000000
00000000
00000000
00000000
,
00000000
00000000
03000000
00000000
;
