#VERSION:0.83;
#TITLE:Echoes of Sunfall;
#SUBTITLE:;
#ARTIST:nora2r;
#TITLETRANSLIT:;
#SUBTITLETRANSLIT:;
#ARTISTTRANSLIT:;
#GENRE:;
#CREDIT:Braeden;
#MUSIC:Echoes of Sunfall.ogg;
#BANNER:ban.png;
#BACKGROUND:bg.png;
#CDTITLE:;
#SAMPLESTART:43.592;
#SAMPLELENGTH:15.375;
#SELECTABLE:YES;
#OFFSET:-0.092;
#BPMS:0.000=160.000;
#STOPS:174.000=0.375;
#SPEEDS:0.000=0.750=0.000=0,
23.000=1.000=8.000=0
;
#SCROLLS:0.000=1.000,
48.000=0.750,
52.000=1.000,
67.000=0.750,
69.000=1.000,
80.000=0.750,
84.000=1.000,
108.000=0.750,
116.000=1.000,
128.000=0.750,
132.000=1.000,
174.000=0.750,
179.000=1.000,
239.000=0.750,
243.000=1.000,
291.000=0.750,
307.000=1.000
;
#BGCHANGES:;
#FGCHANGES:;

//--------------- dance-single - ----------------
#NOTEDATA:;
#STEPSTYPE:dance-single;
#DESCRIPTION:;
#DIFFICULTY:Beginner;
#METER:3;
#RADARVALUES:0,0,0,0,0;
#NOTES:
0000
0000
0000
0000
,
0000
0000
0000
0000
,
0000
0000
0000
0000
,
0001
0000
0000
0000
,
1000
0000
0000
0000
,
0010
0000
0000
0000
,
2000
0000
3000
0000
,
0002
0000
0003
0000
,
1000
0000
0000
0000
,
1001
0000
0000
0000
,
1001
0000
0000
0000
,
1001
0000
0000
0000
,
0001
0000
0000
0000
,
1000
0000
0010
0000
,
0100
0000
0001
0000
,
1000
0000
0100
0000
,
1000
0000
0001
0000
,
0000
1001
0000
1000
,
0000
0010
0000
0100
,
0000
0001
0000
0000
,
0010
0000
0000
0000
,
1001
0000
0001
0000
,
0100
0000
0010
0000
,
1000
0000
0100
0000
,
0010
0000
0001
0000
,
1000
0000
0001
0000
,
0100
0000
0001
0000
,
1001
0000
0000
0000
,
0001
0000
0000
0000
,
2000
0000
3002
0000
,
0000
0000
0000
0003
,
1000
0000
0010
0000
,
1000
0000
0000
0000
,
1001
0000
0001
0000
,
0100
0000
0010
0000
,
1000
0000
0001
0000
,
0010
0000
0001
0000
,
1000
0000
0001
0000
,
0100
0000
0001
0000
,
1000
0000
0010
0000
,
1000
0000
0001
0000
,
2000
0000
3010
0000
,
0100
0000
0001
0000
,
2000
0000
3010
0000
,
0000
0000
0000
1001
,
0000
0000
0000
0001
,
0000
0000
0000
0100
,
0000
0000
0000
0010
,
0000
0000
0000
1000
,
0000
0000
0000
0001
,
0000
0000
0000
1000
,
0000
0000
0000
1001
,
0000
0000
0000
0001
,
0000
0001
0000
0100
,
0000
0100
0000
0010
,
0000
0010
0000
1000
,
0000
0000
0000
0001
,
0000
0000
0000
1000
,
0000
0000
0000
0001
,
0000
1000
0000
0001
,
0000
0000
0000
1001
,
0000
0001
0000
0100
,
0000
0010
0000
1000
,
0000
0100
0000
0010
,
0000
0100
0000
1000
,
0000
0001
0000
1000
,
0000
0010
0000
0100
,
0000
0001
0000
0100
,
0000
0000
0000
0001
,
0000
1000
0000
0010
,
0000
1000
0000
0001
,
0000
0100
0000
0010
,
0000
1000
0000
0001
,
0000
0000
0000
0100
,
0000
0000
0000
0010
,
0000
1000
0000
0001
,
0000
0000
0000
1001
;

//--------------- dance-single - XMOD ----------------
#NOTEDATA:;
#STEPSTYPE:dance-single;
#DESCRIPTION:XMOD;
#DIFFICULTY:Easy;
#METER:8;
#RADARVALUES:0,0,0,0,0;
#NOTES:
0000
0000
0000
0000
,
0000
0000
0000
0000
,
0000
0000
0000
0000
,
0001
0100
0010
1000
,
0001
0010
0001
1000
,
1010
0010
0100
0001
,
1000
0010
0200
0302
,
2003
3020
0230
0302
,
0013
0200
0300
1001
,
0102
0100
0010
0103
,
2010
0001
3010
0100
,
0102
1000
0100
1003
,
1001
0001
0100
0010
,
1010
1000
0001
0100
,
0001
0010
0001
1000
,
0010
0100
0001
0010
,
0100
1000
0001
1000
,
0010
1010
1000
0001
,
0010
0100
1000
0001
,
0100
0000
0000
0000
0010
0000
0000
0000
1000
0000
0000
0001
0000
0000
1000
0000
,
0001
0010
0001
1000
,
1001
0001
0100
0010
,
1000
0001
0010
0100
,
1010
0100
0001
0010
,
0001
0000
0000
0000
0100
0000
0000
0000
0010
0000
0000
0100
0000
0000
0001
0000
,
0010
0001
1000
0010
,
0101
0001
1000
0001
,
1001
0001
0100
0010
,
1000
0001
1000
0001
,
2001
0000
0000
0000
0000
0000
0000
0000
3001
0000
0000
0000
0100
0000
0000
0010
,
0000
0000
1000
0000
0000
0001
0000
0000
1000
0000
0000
0010
0000
0000
1000
0000
,
0002
0000
0203
0000
0320
0000
1030
0001
,
1000
0000
0000
0000
0001
0000
0000
0010
0000
0000
0000
0000
0001
0000
0000
0000
,
2001
0000
3001
0100
0002
0000
0103
0000
,
0020
1030
1002
1003
,
0002
0103
0020
1030
,
0200
0310
1000
0001
,
1001
0002
2003
3010
,
2000
3001
0021
0031
,
2000
0010
3002
0103
,
0010
1000
0001
1000
,
2001
0000
0000
0000
0000
0000
3010
0000
1000
0000
0001
0000
,
0001
0000
1000
0000
1000
0000
0010
0000
0010
0000
1000
0000
,
2002
3003
M110
0010
,
0100
0010
0100
1001
,
0001
1000
0010
0100
,
0001
0010
0001
1000
,
0010
0100
0001
0010
,
0100
1000
0010
0100
,
0001
0010
0001
1000
,
0010
1000
0001
0010
,
0100
1000
0001
1001
,
1000
0010
0100
0001
,
1000
0010
1000
0001
,
0010
0001
0100
0110
,
0010
1000
0001
1000
,
0010
0000
0000
0000
0100
0000
0000
0000
0001
0000
0000
0000
1000
0000
0000
0001
,
0000
0000
0010
0000
0000
0001
0000
0000
1000
0000
0000
0000
0001
0000
0000
0010
,
0000
0000
0001
0000
0000
1000
0000
0000
0010
0000
0000
0000
1000
0000
0000
0000
,
0010
1000
0001
0100
,
0010
1000
0001
1001
,
0010
0000
0000
0000
0100
0000
0000
0001
0000
0000
0100
0000
0000
0000
0000
0000
,
0010
0000
0000
0000
1000
0000
0000
0001
0000
0000
1000
0000
0000
0000
0000
0000
,
0001
0000
0000
0000
0100
0000
0000
0001
0000
0000
1000
0000
0010
0000
0000
0000
,
0100
0000
0001
0000
1000
0000
0000
0001
,
0000
1000
0000
0000
0010
0000
0000
1000
0000
0000
0001
0000
0000
0000
1000
0000
,
0000
0010
0000
0000
1000
0000
0000
0001
0000
0000
0100
0000
0000
0000
0010
0000
,
0000
1000
0000
0000
0001
0000
0000
0100
0000
0000
0010
0000
1000
0000
0000
0000
,
0001
0010
0001
1001
,
1000
0010
0100
0001
,
0100
0010
1000
0100
,
0010
0100
1000
0001
,
0100
0010
1000
1001
,
0001
0100
0010
1000
,
0001
0100
0001
1001
,
0000
1000
0000
0001
,
0000
0000
1000
0011
;

//--------------- dance-single - XMOD XO RH ----------------
#NOTEDATA:;
#STEPSTYPE:dance-single;
#DESCRIPTION:XMOD XO RH;
#DIFFICULTY:Medium;
#METER:11;
#RADARVALUES:0,0,0,0,0;
#NOTES:
0000
0000
0000
0000
,
0000
0000
0000
0000
,
0000
0000
0000
0000
,
1001
0000
0000
0001
0000
0000
0100
0000
,
0100
0010
1000
0001
,
1001
0000
0000
1000
0000
0000
0010
0000
,
0100
0000
0001
1000
0001
0000
1000
0000
,
0002
1000
0203
0010
,
0301
0000
1000
0000
0001
0000
0000
1000
0000
0000
0010
0000
1001
0000
0000
0000
,
2010
0000
0001
0000
0010
0000
3001
1000
,
1020
0000
0100
0000
1030
0100
1000
0001
,
1000
0000
0010
0000
0100
0001
0010
0001
,
10M1
1000
0010
0100
,
M001
0100
1000
0000
0100
0001
0100
0010
,
1000
0001
1000
0000
1001
0000
0001
0100
,
1000
0100
0010
1000
0001
0000
1000
0010
,
1000
0002
2003
3M10
,
1000
0010
1M20
0000
1030
0000
0001
0010
,
1000
0010
0001
0000
0101
0000
0100
0010
,
0100
0000
0001
0000
0100
0000
0000
0000
0010
0000
0000
1000
0000
0000
0001
0000
,
1M01
0000
1000
0000
0010
1000
0001
0000
,
2M01
0000
3010
1000
0001
0000
0001
0100
,
0010
0100
0001
0000
2001
0000
3010
0100
,
0001
0010
0001
0000
2001
0000
3010
0000
,
1000
0000
0000
0000
0001
0000
0000
0000
0100
0000
0000
0010
0000
0000
1000
0000
,
1002
0000
0103
0010
0200
0000
0301
0000
,
1001
0000
1000
0000
0001
0010
0100
1000
,
00M1
0100
0001
0000
1000
0000
0010
0000
,
1000
0001
0100
0001
,
20M0
0000
0000
0000
0000
0000
0000
0000
3001
0000
0000
0000
1000
0000
0000
0100
,
0000
0000
0010
0000
0000
0001
0000
0000
0100
0000
0000
0010
0000
0000
1000
0000
,
0010
0000
1010
0000
0110
0000
0100
0001
,
1M00
0000
0010
0000
1000
0000
0000
0001
0000
0000
0100
0000
0110
0000
0000
0000
,
0M20
0000
0000
0000
0000
0000
0000
0000
1030
0000
0001
0000
1000
0000
0001
0000
1000
0000
0000
0000
0000
0100
0000
0000
0000
0010
0000
0000
0000
0000
0000
0000
,
0001
0000
0000
0000
0000
0100
0000
0000
0000
0010
0000
0000
0000
0000
0000
0000
1000
0000
0000
0000
0000
0001
0000
0000
1000
0000
0000
0000
0000
0000
0000
0000
,
0100
0000
0000
0000
0010
0000
0000
0000
0010
0000
0000
0000
0001
0000
0000
0000
0001
0000
0000
0000
0000
0100
0000
0000
0000
0010
0000
0000
0000
0000
0000
0000
,
1000
0000
0000
0000
0000
0001
0000
0000
0000
1000
0000
0000
0000
0000
0000
0000
0001
0000
0000
0000
0010
0000
0000
0000
0100
0000
0000
0000
1000
0000
0000
0000
,
1001
0000
0000
0000
0000
0000
0000
0000
0002
0000
0000
0000
0000
0000
0000
0000
0013
0000
0000
0000
0000
0001
0000
0000
1000
0000
0000
0000
0000
0000
0000
0000
,
0010
0000
0000
0000
0000
1000
0000
0000
0001
0000
0000
0000
0000
0000
0000
0000
0100
0000
0000
0000
0000
0010
0000
0000
1000
0000
0000
0000
0000
0000
0000
0000
,
0001
0100
0001
0100
0010
1000
0010
1000
,
0001
0010
0100
1000
0001
0100
0010
0000
,
2001
0000
0000
0000
0000
0000
3010
0000
1000
0000
0001
0000
,
1000
0000
0010
0000
0100
0000
0001
0000
0100
0000
0001
0000
,
2002
3003
011M
0010
,
1000
0000
0001
0000
1000
0000
0001
1000
,
0010
0000
1000
0100
1000
0000
0001
0010
,
0001
0000
0100
0000
0010
0000
1000
0001
,
1000
0001
0010
0001
1000
0000
0010
0000
,
1000
0000
0001
0000
1000
0000
0001
0000
0000
0000
0000
0000
2000
0000
0000
0000
0000
0000
3001
0000
0000
0010
0000
0000
,
0100
0000
1000
0000
0001
0000
0100
0010
,
0100
0000
0001
0000
1000
0000
0001
0010
,
0001
0100
0010
1001
,
0001
0000
0100
0000
0001
0000
1000
0000
0000
0000
0000
0000
0010
0000
0100
0000
0001
0000
0100
0000
0000
0001
0000
0000
,
1000
0000
0100
0000
0001
0000
0100
1000
,
0010
0000
0100
0000
0001
0100
0001
0010
,
0001
1000
0100
0010
,
0010
0000
0000
0000
0001
0000
0000
0000
1000
0000
0000
0000
0020
0000
0000
0000
0000
0000
0030
0000
0000
0000
0000
0000
0200
0000
0000
0000
0000
0000
0300
0000
0000
0000
0000
0000
0101
0000
0000
0000
0000
0000
0000
0000
0000
0001
0000
0000
,
0000
0000
0100
0000
0000
0010
0000
0000
1000
0000
0001
0000
1000
0000
0000
0100
,
0000
0000
0010
0000
0000
0001
0000
0000
1000
0000
0000
0000
0001
0000
0010
0000
,
0001
0010
0100
1000
0100
1000
00M1
0000
,
0100
0000
0010
1000
0010
0000
100M
0100
,
0010
0000
0100
0000
1000
0000
0000
0010
0000
0000
0100
0000
0001
0000
0000
0000
,
2000
0000
0000
0000
3001
0000
0000
0100
0000
0000
1000
0000
0100
0000
0000
0000
,
0002
0000
0000
0000
1003
0000
0000
0010
0000
0000
0001
0000
0010
0000
0000
0000
,
1010
0000
1000
0000
1001
0000
0001
1000
,
0000
0100
0000
0000
0001
0000
0000
0100
0000
0000
0010
0000
0001
0000
1000
0000
,
0000
0100
0000
0000
0001
0000
0000
0100
0000
0000
1000
0000
0001
0000
0100
0000
,
0000
0010
0000
0000
0100
0000
0000
0001
0000
0000
1000
0000
2001
0000
0000
0000
,
3010
0100
0001
0100
0010
0000
0210
0000
,
0310
0000
0000
0000
1000
0000
0000
0001
0000
0000
1000
0000
0001
0000
0100
0000
,
0001
0000
0000
0000
0100
0000
0000
0010
0000
0000
1000
0000
1002
0000
0000
0000
,
0103
0000
0000
0000
0010
0000
0000
1000
0000
0000
0100
0000
1000
0000
0001
0000
,
0100
0000
0010
1000
0001
0100
01M2
0000
,
1003
0000
0001
0000
0100
0000
0010
1000
,
0001
0010
0100
1010
,
0000
0001
0000
0100
,
0000
0000
0010
0220
,
0000
0330
0000
0000
;

//--------------- dance-single - XMOD XO JA RH FS SJ- DS- ----------------
#NOTEDATA:;
#STEPSTYPE:dance-single;
#DESCRIPTION:XMOD XO JA RH FS SJ- DS-;
#DIFFICULTY:Hard;
#METER:15;
#RADARVALUES:0,0,0,0,0;
#NOTES:
0000
0000
0000
0000
,
0000
0000
0000
0000
,
0000
0000
0000
0000
,
1001
0000
1000
0100
2000
0000
3001
0000
,
0100
0010
1000
0001
,
1001
0000
1000
0010
0100
0000
0001
0000
,
0100
0010
0100
0001
0100
0000
0020
0000
,
1000
0000
0130
1000
0001
0010
0001
0100
,
0001
0000
1000
0000
0001
0000
0000
0100
0000
0001
0010
0001
1000
0000
0000
0000
,
1002
0000
0000
0000
0100
0000
0000
0000
1003
0000
0100
0000
0010
0000
0001
1000
,
0002
0000
0100
0000
1003
0100
0010
0001
,
0102
0000
0000
0000
1000
0000
0000
0000
1003
0100
1000
0000
0001
0010
0100
0000
,
210M
0000
0000
3001
0100
0010
1000
0000
0000
0001
0000
0000
,
1001
0000
0001
0000
1000
0000
0100
0000
0001
0000
0100
0000
1000
0000
0001
0010
,
0001
0000
0100
0000
0100
0000
0010
1000
0010
0000
1000
0000
1000
0000
0001
0010
,
0001
0000
1000
0000
0001
0100
0001
0100
0002
0000
0000
0000
1003
0000
0001
0100
,
0002
0000
0000
0000
0100
0000
1003
0000
0000
0000
0010
0100
002M
0000
0000
0000
,
0130
0000
0100
0000
M101
0000
0001
0000
0100
0000
00M0
0000
1100
0000
1000
0001
,
1000
0000
1000
0000
1000
0000
0100
0000
0001
0000
0100
0000
1100
0000
1000
0001
,
0010
0000
0100
1000
0100
1000
0100
0000
1100
0000
0000
1000
0000
0000
0001
0000
,
10M1
0000
1000
0010
0100
0002
1003
0000
,
10M2
0000
0000
0000
1003
0000
0001
1000
0200
0000
0000
0000
1300
0000
0001
1000
,
0010
0000
0010
0000
0010
0000
1000
0000
0001
0000
0100
00M0
0100
0000
1000
0001
,
1000
0000
1000
0000
1000
0000
0001
0100
0020
0000
0000
0000
1030
0100
1000
0001
,
1000
0000
0100
0000
0001
0000
0100
0000
1000
0000
0000
0010
0000
0000
1000
0000
,
1010
0000
0010
1000
0020
0000
1000
0000
1030
0000
0001
0000
0100
0000
0001
1000
,
0010
0000
0100
0000
0001
0000
0010
0000
0100
1000
0100
1000
0001
0010
0001
0010
,
0M01
1000
0001
0000
2000
3000
0002
0003
,
2000
0000
0000
3000
0000
0000
0001
0000
0100
0000
0010
0000
1000
0000
0000
0000
0000
0000
0010
0000
0000
0000
0000
0000
,
201M
0000
0000
0000
0000
0000
3000
0000
1001
0000
0000
0000
1000
0000
0000
0001
,
0000
0000
1000
0000
0000
0010
0000
0000
0100
0000
0000
0001
0000
0000
1000
0000
,
0001
0000
0010
0000
0001
0000
1000
0000
0100
0000
1000
0000
0001
0000
0100
0000
0001
0000
1000
0000
0000
0010
0000
0000
,
100M
0000
0100
0000
1000
0000
0000
0001
0000
0000
1000
0000
1001
0000
0000
0000
,
01M2
0000
0000
0000
0000
0000
0000
0000
1003
0000
0100
0000
1000
0000
0100
0000
1000
0000
0000
0000
0000
0010
0000
0M00
0000
0010
0000
0000
0000
0000
0000
0000
,
0001
0000
0000
0000
0000
0100
0000
00M0
0000
0100
0000
0000
0000
0000
0000
0000
1000
0000
0000
0000
0000
0100
0000
00M0
0000
0100
0000
0000
0000
0000
0000
0000
,
0001
0000
0000
0000
0100
0000
0000
0000
0010
0000
1000
0000
0010
0000
1000
0000
0002
0000
0000
0000
0000
0100
0000
0000
0000
1003
0000
0000
0000
0000
0000
0000
,
2000
0000
0000
0000
0000
0100
0000
0000
0000
3001
0000
0000
0000
0000
0000
0000
1001
0000
0000
0000
1000
0000
0000
0000
0100
0000
0000
0000
1000
0000
0000
0000
,
1010
0000
0000
0000
0000
0000
0000
0000
0040
0000
0000
0000
0000
0000
0000
0000
1030
0000
0000
0000
0000
0100
0000
0000
0010
0000
0000
0000
0000
0000
0000
0000
,
0001
0000
0000
0000
0000
0100
0000
0000
0010
0000
0000
0000
0000
0000
0000
0000
1010
0000
0000
0000
0000
1000
0000
0000
0001
0000
0000
0000
0000
0000
0000
0000
,
2000
0100
0001
3001
1000
0100
0100
1000
,
0001
0100
0001
0000
1000
0010
1000
0000
0002
0000
0000
0000
0103
0000
0000
0000
,
0002
0000
0000
0000
0000
0000
1003
0000
0100
0000
0001
0000
,
0100
0000
1000
0000
0001
0000
1000
0000
0010
0000
1000
0000
,
2002
0000
0000
3003
M110
0000
0002
0000
,
0203
0000
0320
0000
1030
0000
M001
0100
,
2000
0000
3100
0010
1000
0100
1000
0010
,
0001
0010
0100
0001
1000
0001
1000
0100
,
0001
0100
1000
0001
0100
0001
1000
0100
,
1000
0000
0000
0000
0100
0000
0000
0000
0010
0000
0000
0000
0001
0000
0000
0000
0000
0000
0100
0000
0000
0000
0000
0000
0001
0000
0000
0000
0000
0000
1000
0000
0000
0000
0000
0000
0100
0000
0000
0000
0000
0000
0010
0000
0000
0M00
0000
0000
,
0010
0000
1000
0001
1000
0000
0001
0100
0001
0000
1000
0001
1000
0000
0100
00M0
,
0100
0000
0001
1000
0001
0000
1000
0100
0010
0000
0001
0010
0001
0000
0100
00M0
,
0100
0000
1000
0001
1000
0000
0001
0010
0100
0000
1000
0001
0200
0000
0000
0000
,
0310
0000
1000
0000
0010
0000
0200
0000
0000
0000
0000
0000
0301
0000
0000
0000
0000
0000
1001
0000
0000
1000
0000
0000
,
1000
0001
0100
1000
0100
0001
1000
1000
,
1000
0010
0001
0010
0100
0001
1001
1000
,
1000
0100
0001
0100
1000
0001
0100
0010
,
1000
0000
0000
0000
0010
0000
0000
0000
0100
0000
0000
0000
0001
0000
0000
0000
0000
0000
0000
0000
0000
0000
0000
0000
1000
0000
0000
0000
0000
0000
0000
0000
0000
0000
0000
0000
1001
0000
0000
0000
0000
0000
0001
0000
0000
0100
0000
0000
,
0000
0100
0010
0000
0010
1000
0000
1000
0001
0000
0100
0000
0001
0000
1000
0100
,
0000
1000
0001
0000
1000
0100
0000
1000
0001
0000
0010
0000
0100
0000
1000
0100
,
0000
1000
0010
0000
0100
0001
0000
0100
0010
0000
1000
0001
2M00
0000
0000
0000
,
3010
0000
0100
0000
0001
0000
1000
0000
0000
0001
0000
0000
0100
0000
0000
0000
0000
0000
01M1
0000
0000
0001
0000
0000
,
0100
0001
0000
1000
0001
0000
0000
0100
0000
0000
1000
0000
0100
0000
0001
0000
,
0010
0100
0000
1000
0001
0000
0000
0010
0000
0000
1000
0000
0010
0000
0100
0000
,
1000
0001
0000
1000
0100
0000
0000
0010
0000
0000
0001
0000
0101
0000
0100
0000
,
0110
0000
0010
0000
1010
0000
1000
0000
1001
0000
0001
0000
1000
0001
1000
0000
,
0001
0100
0000
0100
0010
0000
0010
1000
0000
1000
0001
0000
1000
0100
1000
0000
,
0001
0100
0000
0100
0010
0000
0010
1000
0000
1000
0001
0000
0100
0010
0100
0000
,
0001
0010
0000
0001
0100
0000
0010
1000
0000
0001
0100
0000
0101
0000
0001
0000
,
0100
0010
1000
0100
0010
0001
1001
1000
,
0100
0000
0010
0000
0001
0000
1000
0100
0000
0010
0100
0000
0010
0000
0001
0000
,
1000
0000
0010
0000
1000
0000
0001
0100
0000
0010
1000
0000
1001
0000
0001
0000
,
0010
0001
1000
0100
0010
0001
0100
0010
,
1000
0000
0001
0000
1000
0100
0010
0001
1000
0010
0100
0001
M100
0000
0010
0000
,
0200
0301
0100
0010
2000
3001
0100
0010
,
2000
3000
0002
0003
0200
0300
0101
0000
,
0000
1010
0000
1001
,
0000
0000
0101
0220
,
0000
0330
0000
0000
;

//--------------- dance-single - XMOD FS DS RH XO ----------------
#NOTEDATA:;
#STEPSTYPE:dance-single;
#DESCRIPTION:XMOD FS DS RH XO ;
#DIFFICULTY:Challenge;
#METER:17;
#RADARVALUES:0,0,0,0,0;
#NOTES:
0000
0000
0000
0000
,
0000
0000
0000
0000
,
0000
0000
0000
0000
,
1001
0000
0002
0100
1003
0001
1000
0000
,
0001
0100
0010
1000
,
1001
0000
1000
0100
0010
0000
0002
0000
,
0023
0030
0000
0000
0000
0000
0000
0000
0002
0000
0003
0000
0000
0000
0000
0000
0200
0000
0000
0300
0000
0000
0000
0000
0020
0000
0000
0000
0030
0000
0000
0000
,
2000
0000
0001
0000
0100
0000
3001
0100
,
0010
0000
1000
0000
0001
0000
0000
1000
0000
0100
0010
0001
2000
0000
3000
0000
,
2001
0000
0000
0000
3020
0000
0000
0000
1030
0000
0010
0000
1000
0000
0001
0010
,
0200
0000
0000
0000
2300
0000
0000
0000
3001
0010
0001
0010
0100
1000
0001
0000
,
1000
0000
0100
0000
0010
0000
0001
0000
0100
0001
1000
0001
0010
0100
0010
0001
,
M200
0000
0000
0000
0000
0000
0301
0000
0100
0000
0010
0000
2000
0000
0000
0000
0000
0000
3001
0000
0000
1000
0000
0000
,
00M1
0000
1000
0100
1000
0000
0001
0010
0100
0000
1000
0001
0010
0000
0100
0010
,
1000
0000
0010
0000
0001
0000
1000
0010
0100
0000
0001
0000
0100
0000
0001
1000
,
0001
0000
0000
0000
0010
0000
0000
0000
0001
0000
1000
0000
0100
00M0
0100
0000
0001
0000
0000
0000
1000
0000
0000
0000
0100
0000
0010
0000
0100
M000
0100
0000
,
0001
0000
0100
0010
1000
0000
1000
0000
0001
0100
0010
0100
M002
0000
0000
0000
,
1000
0003
0001
0000
10M1
0000
1000
0100
0001
0000
0100
1000
0001
0000
1000
0010
,
0100
0000
0100
0000
0100
0000
0001
0010
1000
0000
0010
0001
1000
0000
0001
1000
,
0010
0000
1000
0100
1000
0001
1000
0000
1001
0000
0000
0101
0000
0000
0101
0000
,
10M1
0000
0000
0000
0001
0000
1000
0010
0100
0000
0001
0000
0100
0000
0000
0000
,
10M1
0000
0001
0000
1000
0000
0010
0100
1000
0000
0100
0010
1000
0000
1000
0000
,
0001
0000
0000
0000
0001
0000
0000
0000
0001
0000
0000
0000
1000
0000
0010
0000
0100
0000
0000
0000
0001
0000
1000
0000
0001
0000
0000
0000
0100
00M0
0100
0000
,
1000
0000
0001
0000
1000
0100
0010
0001
1000
0000
0001
0000
0100
0000
0010
0100
,
2000
0000
0000
3100
0010
0000
1000
0000
1001
0000
0000
0101
0000
0000
1010
0000
,
1000
0000
0000
0000
0010
0000
0100
0000
1000
0000
0000
0000
0100
0000
0000
0000
0002
0000
0000
0000
1000
0000
0000
0000
1003
0000
0000
0000
0010
0M00
0010
0000
,
0001
0000
1000
0010
0200
0000
0000
0000
0301
0010
0100
1000
0001
0100
0001
1000
,
00M1
0100
0010
0000
2000
0000
3001
0000
,
0200
0000
0000
0000
0000
0000
0000
0000
0000
0000
0000
0000
0301
0000
0000
0000
0010
0000
0000
0000
0100
0000
0000
0000
1000
0000
0000
0001
0000
0000
1000
0000
0000
0001
0000
0000
0100
0000
0000
0000
0000
0000
0000
0000
0000
0000
0000
0000
,
20M1
0000
0000
0000
0000
0000
0000
0000
3001
0000
0000
0000
1000
0000
0000
0001
,
0000
0000
1000
0000
0000
0010
0000
0000
0100
0000
0000
0001
0000
0000
0010
0000
,
0001
0000
0000
0000
0100
0000
0000
0000
0001
0000
0000
0000
1000
0000
0000
0000
0010
0000
0000
0000
1000
0000
0000
0000
0001
0000
0000
0000
0100
0000
0000
0000
0010
0000
0000
0000
1000
0000
0000
0001
0000
0000
0100
0000
0000
0010
0000
0000
,
M100
0000
0001
0000
0001
0000
0100
0010
0000
0000
1000
0000
1001
0000
0000
0000
,
M101
0000
0000
0000
0000
0000
0000
0000
0100
00M0
0100
00M0
0100
00M0
0100
0000
1000
0000
0000
0000
0000
0100
0000
0000
0000
0100
0000
0000
0000
0000
0000
0000
,
0010
0000
0000
0000
0000
0001
0000
0000
0000
0001
0000
0000
0000
0000
0000
0000
1001
0000
0000
0000
0000
1000
0000
0000
0010
0000
0000
0000
0000
0000
0000
0000
,
1010
0000
0000
0000
1000
0000
0100
00M0
0100
0000
0001
0000
0100
00M0
0100
0000
1000
0000
0000
0000
0000
0001
0000
0000
0000
0001
0000
0000
0000
0000
0000
0000
,
0100
0000
0000
0000
0000
0010
0000
0000
0000
1000
0000
0000
0000
0000
0000
0000
1001
0000
0000
0000
0001
0000
0000
0000
0100
0000
0000
0000
0110
0000
0000
0000
,
1001
0000
0000
0000
0000
0000
0000
0000
0000
0000
0000
0000
0000
0000
0000
0000
0000
0000
0000
0000
0000
0000
0000
0000
0001
0000
0000
0000
0100
0000
0000
0000
0001
0000
0000
0000
0100
0000
0000
0000
0001
0000
0000
0000
0100
0000
0000
0000
0001
0000
0000
0000
0000
0000
0000
0000
0000
0000
0000
0000
0000
0000
0000
1000
0000
0000
0000
0000
0000
0000
0000
0000
0010
0000
0000
1000
0000
0000
0000
0000
0000
0000
0000
0000
0000
0000
0000
0000
0000
0000
0000
0000
0000
0000
0000
0000
,
0001
0000
0000
0000
0000
0100
0000
0000
0001
0100
0000
0000
0000
0000
0000
0000
0101
0000
0000
0000
0000
0001
0000
0000
1000
0001
0000
0000
0000
0000
0000
0000
,
0001
0100
0010
1000
1001
0001
0001
0100
,
0010
1000
0010
1000
0001
0010
0100
1000
0001
0100
0010
0100
0001
0000
0000
0000
,
1000
0100
1000
0001
0010
0001
1000
0100
1000
0100
1000
0010
,
0100
0001
0100
0010
0100
0001
1000
0100
1000
0010
0100
0001
,
2002
0000
0000
3003
M110
0000
0001
0000
,
0100
0000
0010
1000
0001
0000
02M0
0001
,
0301
0000
1000
0100
0010
0000
0001
0010
0100
0000
1000
0001
2000
0000
0100
0000
,
3001
0000
0010
0100
1000
0000
0001
0100
0001
0000
0100
0001
0020
0000
0001
0000
,
0130
0000
1000
0001
0100
0000
0010
1000
0001
0000
1000
0001
0100
0000
0100
0010
,
1000
0000
0000
0000
0100
0000
00M0
0000
0100
0000
0000
0000
0001
0000
0000
1000
0000
0000
0001
0000
0000
1000
0000
0000
0010
0000
0000
0100
0000
0000
0010
0000
0000
0100
0000
0000
0002
0000
0000
0000
0000
0000
0010
0000
0000
0000
0000
0000
,
1003
0000
0001
0010
0001
0000
1000
0100
1000
0000
0001
1000
0002
0000
0010
0000
,
1003
0000
0010
0100
0001
0100
0010
1000
0001
0000
0010
0100
2000
0000
0010
0000
,
3001
0000
0100
0010
1000
0000
0001
0100
0001
0000
0001
1000
0010
0000
1000
0100
,
1000
0000
0000
0000
0010
0000
0M00
0000
0010
0000
0000
0000
0001
0000
0000
1000
0000
0000
0010
0000
0000
1000
0000
0000
0001
0000
0000
0000
0000
0000
0000
0000
0000
0000
0000
0000
1001
0000
0000
0000
0000
0000
0001
0000
0000
0000
0000
0000
,
0100
0010
1000
0010
0001
0010
1000
0100
,
1000
0010
0001
0010
0100
0001
1001
1000
,
0010
1000
0100
0001
0100
1000
0001
0100
,
0001
0000
0000
0000
0010
0000
0M00
0000
0010
0000
0000
0000
2000
0000
0000
3000
0000
0000
0001
0000
0000
0100
0000
0000
0020
0000
0000
0030
0000
0000
1000
0000
0000
0001
0000
0000
1000
0000
0000
0001
0000
0000
0100
0000
0000
0100
0000
0000
,
1000
0100
0100
0001
0010
0010
1000
0010
0010
0001
1000
0010
1000
0001
0010
0010
,
1000
0010
0010
0001
0100
0100
1000
0100
0100
0010
1000
0000
0001
0010
0100
1000
,
0001
0100
0010
1000
0001
0010
0001
0010
0100
1000
0010
1000
010M
0000
0000
0000
,
1000
0000
0000
0000
0010
0000
0000
0000
0100
0000
0000
0000
0001
0000
0000
0000
0000
0000
1000
0000
0000
0000
0000
0000
0100
0000
0000
0000
0000
0000
0010
0000
0000
0000
0000
0000
M001
0000
0000
0010
0000
0000
0001
0000
0000
0010
0000
0000
,
0001
1000
0010
1000
0100
0000
0010
1000
0000
0010
0001
0000
1000
0001
0100
0010
,
1000
0000
0001
0100
0010
0000
0001
0010
0000
1000
0001
0000
1000
0100
0010
0001
,
1000
0000
0001
0100
0010
0000
0001
0010
0100
0010
1000
0000
0001
0010
0100
1000
,
0001
0000
1000
0010
0100
0000
0001
0100
0010
0000
1000
0001
1000
0010
1000
0001
,
1000
0000
0010
0000
0M00
0000
0010
0000
0001
0000
0000
0000
0001
0000
0100
00M0
0100
0000
1000
0000
0001
0000
0010
0000
0100
0000
1000
0000
0001
0000
0000
0000
,
1000
0000
0010
0000
0M00
0000
0010
0000
0001
0000
0000
0000
1000
0000
0100
00M0
0100
0000
0001
0000
1000
0000
0010
0000
1000
0000
0001
0000
1000
0000
0000
0000
,
0001
0000
0100
0000
00M0
0000
0100
0000
1000
0000
0000
0000
0001
0000
0010
0M00
0010
0000
1000
0000
0001
0000
0000
0000
1000
0000
0100
0000
0010
0000
0001
0000
,
0010
0100
1000
0001
1000
0010
0100
0001
1000
0010
2000
0000
3001
0100
0010
1000
,
0001
0010
0100
1000
0001
0000
0100
0010
0100
0010
1000
0001
0010
0001
1000
0100
,
0010
0001
0100
0010
1000
0100
0010
0001
1000
0001
0100
0010
1000
0000
0001
0000
,
0101
0000
0100
0010
1000
0000
0001
0100
0010
1000
0001
0000
0100
0000
0001
0010
,
0001
0000
1000
0100
1000
0000
0001
1000
0010
0100
0001
0010
M002
0000
0100
0000
,
1003
0000
0010
0100
0002
0000
0000
0000
2003
0000
0000
0000
3020
0000
0100
0000
,
2030
3002
0103
0101
,
0000
0000
0000
0000
0001
0000
0000
0000
0000
0000
0000
0000
1000
0000
0000
0001
,
0000
0000
0100
0000
0000
0010
0000
0000
1000
0000
0000
0000
0220
0000
0000
0000
,
0000
0000
0000
0330
0000
0000
0000
0000
;

//--------------- dance-double - ----------------
#NOTEDATA:;
#STEPSTYPE:dance-double;
#DESCRIPTION:;
#DIFFICULTY:Hard;
#METER:15;
#RADARVALUES:0,0,0,0,0;
#NOTES:
00000000
00000000
00000000
00000000
,
00000000
00000000
00000000
00000000
,
00000000
00000000
00000000
00000000
,
00001000
00000000
00001000
00100000
00010000
00000000
20000000
00000000
,
30010000
00000000
01000000
00000000
00000100
00000000
00010000
00000010
,
00001000
00000000
00000001
00001000
00000010
00000000
00001000
00000000
,
00000010
00002000
00003200
00020300
,
00032000
02003000
03200000
20300000
,
30010000
00000000
01000000
00000000
00002000
00000000
00000000
00013000
00000000
00001000
00010000
00001000
00010000
00000000
00000000
00000000
,
00010020
00000000
00000000
00000000
00001000
00000000
00000000
00000000
00010000
00000000
00000000
00000000
00000130
00000000
00000001
00000100
,
00000002
00000000
00000000
00000000
00000100
00000000
00000000
00001003
00000000
00000010
00001000
00000100
00001000
00000100
00001000
00000000
,
00000100
00000000
00010000
00000000
00001000
00000000
00010000
00000000
00001000
00100000
00001000
00100000
00010000
01000000
00010000
01000000
,
0001MM00
00000000
00000000
00100000
00001000
00010000
00000100
00000000
00000000
00001000
00000000
00000000
,
MM000100
00000000
00001000
00000000
00010000
00000000
00001000
00000000
00000100
00000000
00001000
00000000
00000001
00000000
00001000
00000010
,
00001000
00000000
00000001
00000000
00000001
00000000
00000000
00001000
00000100
00000000
00000000
00010000
00001000
00000000
00010000
00001000
,
00010000
00000000
00001000
00000000
01000000
00000000
00100000
10000000
00200000
00000000
00000000
00000000
10300000
00000000
00010000
01000000
,
00200000
00000000
10300000
01000000
00100000
00010000
002000MM
00000000
,
00301000
00000000
00010000
00000000
0MM11000
00000000
00000000
00000000
00002000
00000000
00000000
00000000
00013000
00000000
00000100
00001000
,
00000100
00000000
00000010
00000000
00000200
00000000
00000000
00000000
00010300
00000000
00000000
00000000
00010010
00000000
00000010
00001000
,
00000001
00000000
00000001
00000000
00000001
00000000
00001000
00000100
00001000
00000000
00000001
00000100
00000000
00000100
00000010
00000000
,
MM002010
00000000
00000000
00000000
00003001
00000000
00001000
00000100
00001000
00000000
00000100
00000000
00010000
00000000
00000000
00000000
,
0MM11000
00000000
00000000
00001000
00020000
00000000
00000000
00000000
00031000
00000000
00000000
00000000
01001000
00000000
01000000
00100000
,
01000000
00000000
00100000
00000000
00100000
00000000
10000000
00000000
00200000
00000000
00000000
00000000
10300000
00000000
00010000
01000000
,
00100000
00000000
10000000
00000000
10000000
00000000
01000000
00100000
00010000
00000000
00100000
00001000
00100000
00000000
00001000
00010000
,
00001000
00000000
00010000
00000100
00010000
00000000
00000100
00001000
00000100
00000000
00001000
00000010
00000000
00000000
00000010
00000000
,
00000100
00000000
00000001
00000000
00000100
00000000
00001000
00000000
00000100
00000000
00000010
00000000
00001000
00000000
00000100
00010000
,
00000100
00000000
00010000
00000000
00001000
00000000
01000000
00000000
00010000
00100000
01000000
10000000
00010000
01000000
00100000
10000000
,
000100MM
01000000
00100000
00000000
10000000
00000000
00100000
00000000
,
01000000
00000000
00000000
00001000
00010000
00001000
00010000
00000000
00000000
00000010
00000000
00000000
,
0MM02000
00000000
00000000
00000000
00000000
00000000
00000000
00000000
00003001
00000000
00000000
00000000
00000010
00000000
00000000
00001000
,
00000000
00000000
00010000
00000000
00000000
01000000
00000000
00000000
10000000
00000000
00000000
00010000
00000000
00000000
01000000
00000000
,
00010000
00000000
00000000
00000000
00100000
00000000
00000000
00000000
00010000
00000000
00000000
00000000
10000000
00000000
00000000
00000000
01000000
00000000
00000000
00000000
10000000
00000000
00000000
00000000
00010000
00000000
00000000
00000000
01000000
00000000
00000000
00000000
00010000
00000000
00000000
00000000
10000000
00000000
00000000
00010000
00000000
00000000
10000000
00000000
00000000
00010000
00000000
00000000
,
0010MM00
00000000
01000000
00000000
10000000
00000000
00000000
00010000
00000000
00000000
00100000
00000000
00101000
00000000
00000000
00000000
,
00001000
00000000
00000000
00000000
00000000
00000000
00000000
00000000
00010000
00000000
00001000
00000000
00010000
00000000
00001000
00000000
00010000
00000000
00000000
00000000
00000000
00000100
00000000
00000000
00000000
00000010
00000000
00000000
00000000
00000000
00000000
00000000
,
00000100
00000000
00000000
00000000
00000000
00001000
00000000
00000000
00000000
00000001
00000000
00000000
00000000
00000000
00000000
00000000
00001001
00000000
00000000
00000000
00000000
00000001
00000000
00000000
00000100
00000000
00000000
00000000
00000000
00000000
00000000
00000000
,
00000001
00000000
00000000
00000000
00001000
00000000
00000000
00000000
00000100
00000000
00000000
00000000
00010000
00000000
00000000
00000000
00001000
00000000
00000000
00000000
00000000
01000000
00000000
00000000
00000000
00100000
00000000
00000000
00000000
00000000
00000000
00000000
,
01000000
00000000
00000000
00000000
00000000
00010000
00000000
00000000
00000000
00100000
00000000
00000000
00000000
00000000
00000000
00000000
00101000
00000000
00000000
00000000
00001000
00000000
00000000
00000000
01000000
00000000
00000000
00000000
01100000
00000000
00000000
00000000
,
00100000
00000000
00000000
00000000
00000000
00000000
00000000
00000000
10000000
00000000
00000000
00000000
00000000
00000000
00000000
00000000
10010000
00000000
00000000
00000000
00000000
00010000
00000000
00000000
01000000
00000000
00000000
00000000
00000000
00000000
00000000
00000000
,
00100000
00000000
00000000
00000000
00000000
10000000
00000000
00000000
00010000
00000000
00000000
00000000
00000000
00000000
00000000
00000000
00110000
00000000
00000000
00000000
00000000
00100000
00000000
00000000
00010000
00000000
00000000
00000000
00000000
00000000
00000000
00000000
,
00100000
00001000
00010000
00001000
00010000
00000010
00000010
00000100
,
00000001
00000000
00000010
00000000
00000001
00000000
00010000
00000001
00010000
00000000
00001000
00000000
00010000
00000000
00000000
00000000
,
00002000
00000000
00000000
00000000
00000000
00000000
10003000
00000000
00100000
00000000
00010000
00000000
,
00100000
00000000
10000000
00000000
01000000
00000000
00010000
00000000
00001000
00000000
00010000
00000000
,
00020020
00030030
0MM01010
00000010
,
00001000
00000000
00000001
00000000
00000100
00000000
00001001
00000001
,
00001000
00000010
00000100
00001000
00000100
00000001
00001000
00000100
,
00010000
00001000
00010000
00100000
00010000
00001000
01000000
00100000
,
10000000
01000000
00010000
01000000
10000000
00010000
01000000
00000000
,
00010000
00000000
00100000
00000000
00010000
00000000
00100000
00000000
00000000
00001000
00000000
00000000
00100000
00000000
00000000
00010000
00000000
00000000
00100000
00000000
00000000
00001000
00000000
00000000
,
00010000
00001000
00000100
00000010
00010000
00001000
00010000
00000010
,
00000100
00000001
00001000
00000100
00010000
00001000
00000010
00001000
,
00010000
00001000
01000000
00100000
10000000
00010000
01010000
00000000
,
01000000
00000000
00001000
00000000
00010000
00000000
00001000
00000000
00000000
00000000
00000000
00000000
01000000
00000000
00000000
00000000
00000000
00000000
01001000
00000000
00000000
00001000
00000000
00000000
,
01000000
00100000
00010000
00100000
01000000
00001000
00010000
00000100
,
00001000
00000010
00001000
00000001
00001000
00000100
00000110
00000010
,
00000001
00001000
00000010
00010000
00001000
00010000
01000000
00010000
,
00001000
00000000
00000000
00000000
00100000
00000000
00000000
00000000
00001000
00000000
00000000
00000000
00100000
00000000
00000000
00000000
00000000
00000000
00000000
00000000
00000000
00000000
00000000
00000000
00010000
00000000
00000000
00000000
00000000
00000000
00000000
00000000
00000000
00000000
00000000
00000000
10010000
00000000
00000000
00000000
00000000
00000000
10000000
00000000
00000000
00100000
00000000
00000000
,
00000000
01000000
00010000
00000000
10000000
01000000
00000000
00100000
01000000
00000000
10000000
00000000
00100000
00000000
01000000
00010000
,
00000000
00100000
00010000
00000000
00100000
00001000
00000000
00010000
00001000
00000000
00010000
00000000
00001000
00010000
00001000
00010000
,
00000010
00001000
00000100
00001000
00000001
00000010
00000100
00001000
00000001
00000100
00000010
00001000
00MM0010
00000000
00000000
00000000
,
00001000
00000000
00000100
00000000
00000010
00000000
00000001
00000000
00000000
00000000
00000000
00000000
00001000
00000000
00000000
00000000
00000000
00000000
00MM1001
00000000
00000000
00000001
00000000
00000000
,
00001000
00000100
00000000
00000010
00000001
00000000
00001000
00000010
00000000
00001000
00000010
00000000
00010000
00000000
00001000
00000000
,
01000000
00100000
00000000
01000000
00010000
00000000
01000000
00100000
00000000
10000000
00100000
00000000
10000000
00000000
00010000
00000000
,
10000000
01000000
00000000
10000000
00100000
00000000
01000000
00001000
00000000
00100000
00010000
00000000
00100000
00000000
00001000
00000000
,
00011000
00010000
00000010
00001000
00001010
00000010
00001000
00000001
,
00001000
00000100
00000000
00000010
00000001
00000000
00001000
00000010
00000000
00000100
00000010
00000000
00010000
00000000
00001000
00000000
,
00100000
00010000
00000000
01000000
00100000
00000000
10000000
01000000
00000000
00100000
00010000
00000000
00100000
00000000
00001000
00000000
,
00010000
00001000
00000000
00010000
00000100
00000000
00001000
00000010
00000000
00000100
00000010
00000000
00001010
00000000
00000000
00000000
,
00000020
00000130
00000001
00000010
00000100
00001000
00000001
00000100
,
00001000
00000000
00010000
00000000
00001000
00000000
01000000
00010000
00000000
01000000
00100000
00000000
01000000
00000000
00100000
00000000
,
00010000
00000000
00001000
00000000
00010000
00000000
00000100
00001000
00000000
00000100
00001000
00000000
00000001
00000000
00000100
00000000
,
00001000
00000000
00010000
00000000
00001000
00000000
00100000
00010000
00000000
10000000
00010000
00000000
01000000
00000000
00010000
00000000
,
00100000
00000000
00001000
00000000
00010000
00001000
00010000
00000000
00000100
00010000
00000100
00000000
MM010100
00000000
00010000
00000000
,
00000010
00000000
00001000
00000000
00000010
00000000
00010000
00001000
,
00010000
00001000
01000000
01100000
,
00000000
00010000
00000000
01000000
,
00000000
00000000
00000010
00001001
;
