#TITLE:EZ DO DANCE;
#SUBTITLE:;
#ARTIST:TRF;
#TITLETRANSLIT:;
#SUBTITLETRANSLIT:;
#ARTISTTRANSLIT:;
#GENRE:;
#CREDIT:;
#BANNER:EZ DO DANCE.png;
#BACKGROUND:EZ DO DANCE-bg.jpg;
#LYRICSPATH:;
#CDTITLE:;
#MUSIC:EZ DO DANCE.ogg;
#OFFSET:-0.177000;
#SAMPLESTART:94.453384;
#SAMPLELENGTH:13.700015;
#SELECTABLE:YES;
#BPMS:0.000000=140.000000
;
#STOPS:
;
#BGCHANGES:0.000=EZ DO DANCE.avi=1.000=0=0=1=====,
99999=-nosongbg-=1.000=0=0=0 // don't automatically add -songbackground-
;
#KEYSOUNDS:;
#ATTACKS:;

//---------------dance-single - ----------------
#NOTES:
     dance-single:
     :
     Beginner:
     3:
     0.147795,0.231619,0.084927,0.038603,0.000000,134.000000,123.000000,11.000000,5.000000,0.000000,0.000000,0.147795,0.231619,0.084927,0.038603,0.000000,134.000000,123.000000,11.000000,5.000000,0.000000,0.000000:
0000
0000
0000
0000
,
0000
0000
0000
0000
,
0000
0000
0000
0000
,
0000
0000
0000
0000
,
0000
0000
0000
0000
,
0000
0000
0000
0000
,
0000
0000
0000
0000
,
1000
0000
0000
0000
,
0001
0000
0000
0000
,
0100
0000
0000
0000
,
0010
0000
0000
0000
,
1000
1000
1000
0000
,
0001
0001
0001
0000
,
1000
1000
1000
0000
,
0001
0001
0001
0000
,
0200
0000
0000
0300
,
0000
0000
0000
0000
,
0020
0000
0000
0030
,
0000
0000
0000
0000
,
1000
0000
1000
0000
,
0001
0000
0000
0000
,
0001
0000
0001
0000
,
1000
0000
0000
0000
,
0100
0000
0100
0000
,
0010
0000
0000
0000
,
0100
0000
0010
0000
,
1001
0000
0000
0000
,
0001
0000
0001
0000
,
1000
0000
1000
0000
,
0010
0000
0010
0000
,
0100
0000
1001
0000
,
1000
0000
1000
0000
,
0001
0000
0001
0000
,
0010
0000
0010
0000
,
0100
0000
1001
0000
,
0001
0000
0001
0000
,
1000
0000
1000
0000
,
0010
0000
1000
0000
,
0001
0000
1001
0000
,
1000
0000
1000
0000
,
0001
0000
0001
0000
,
0010
0000
0001
0000
,
1000
0000
1001
0000
,
1000
1000
1000
0000
,
0001
0001
0001
0000
,
0100
0000
0100
0000
,
0010
0000
0010
0000
,
1000
0000
1000
0000
,
0001
0000
0000
0000
,
0010
0000
0010
0000
,
0100
0000
1001
0000
,
1000
1000
1000
0000
,
0001
0001
0001
0000
,
1000
0000
0001
0000
,
1001
0000
0000
0000
,
1000
0000
1000
0000
,
0010
0000
0010
0000
,
0100
0000
0100
0000
,
0002
0000
0003
0000
,
0001
0000
0001
0000
,
0010
0000
0010
0000
,
0100
0000
0100
0000
,
2000
0000
3000
0000
,
1000
1000
1000
0000
,
0001
0001
0001
0000
,
0010
0000
1001
0000
,
0100
0000
1001
0000
,
0001
0001
0001
0000
,
1000
1000
1000
0000
,
0010
0000
1001
0000
,
0100
0000
1001
0000
,
0200
0000
0000
0000
,
0000
0000
0000
0000
,
0000
0000
0000
0000
,
0000
0000
0000
0000
,
0300
0000
0000
0000
;

//---------------dance-single - ----------------
#NOTES:
     dance-single:
     :
     Easy:
     6:
     0.252575,0.347429,0.169854,0.169854,0.000000,229.000000,207.000000,22.000000,22.000000,0.000000,0.000000,0.252575,0.347429,0.169854,0.169854,0.000000,229.000000,207.000000,22.000000,22.000000,0.000000,0.000000:
0000
0000
0000
0000
,
0000
0000
0000
0000
,
0000
0000
0000
0000
,
0000
0000
0000
0000
,
0000
0000
0000
0000
,
0000
0000
0000
0000
,
0000
0000
0000
0000
,
1000
0001
1000
0000
,
0001
1000
0001
0000
,
0100
0010
0100
0000
,
0010
0100
0010
0000
,
1000
0100
1000
1100
,
0001
0100
0001
0101
,
1000
0010
1000
1010
,
0001
0010
0001
0011
,
2002
0000
0000
3003
,
1000
0100
0010
0001
,
0220
0000
0000
0330
,
0001
1000
0001
0000
,
0100
0000
0010
0000
,
0100
0100
0100
0000
,
0001
0000
1000
0000
,
0100
0010
0110
0000
,
0001
1000
0010
0000
,
1000
0001
0010
0000
,
0100
0000
0010
0000
,
2002
0000
0000
3003
,
1000
0100
1000
1000
,
0001
0100
0001
0001
,
1000
0010
1000
1000
,
0001
0010
2002
3003
,
0001
0010
0100
0100
,
1000
0010
0100
0100
,
0001
1000
0100
0100
,
0010
0100
0220
0330
,
1000
0010
1000
1000
,
0001
0100
0001
0001
,
1000
0100
1000
1000
,
0001
0010
0022
0033
,
0001
0100
0001
0001
,
1000
0010
1000
1000
,
0001
0010
0001
0001
,
1000
0100
2200
3300
,
1000
0010
0100
0000
,
0001
0010
0100
0000
,
1000
0001
0100
0010
,
0100
0001
1000
0000
,
0100
0100
0010
0010
,
0100
0010
1001
0000
,
0001
1000
0010
0010
,
1000
0001
0010
0000
,
0001
1000
0100
1100
,
1000
0001
0100
0101
,
0001
1000
0010
1010
,
2002
0000
0000
3003
,
1000
0100
0010
0001
,
0100
0000
0000
0100
0000
0000
0100
0000
,
0000
0001
0010
0100
,
1000
0002
0003
0001
,
0000
1000
0010
0100
,
0010
0000
0000
0010
0000
0000
0010
0000
,
0000
1000
0100
0010
,
0001
2000
0000
3000
,
0001
0100
0101
0000
,
1000
0100
1100
0000
,
0001
0010
0100
1000
,
0020
0100
0130
0000
,
0100
0010
1010
0000
,
1000
0100
0011
0000
,
0001
0100
0010
1000
,
0002
1000
1003
0000
,
0220
0000
0000
0000
,
0000
0000
0000
0000
,
0000
0000
0000
0000
,
0000
0000
0000
0000
,
0330
0000
0000
0000
;

//---------------dance-single - ----------------
#NOTES:
     dance-single:
     :
     Medium:
     8:
     0.346326,0.434286,0.216178,0.208457,0.015441,314.000000,286.000000,28.000000,27.000000,0.000000,0.000000,0.346326,0.434286,0.216178,0.208457,0.015441,314.000000,286.000000,28.000000,27.000000,0.000000,0.000000:
0000
0000
0000
0000
,
0000
0000
0000
0000
,
0000
0000
0000
0000
,
0000
0000
0000
0000
,
0000
0000
0000
0000
,
0000
0000
0000
0000
,
0000
0000
0000
0000
,
1000
0001
1000
0000
,
0001
1000
0001
0000
,
0100
0010
0100
0000
,
0010
0100
0010
0000
,
1000
0000
0100
0000
1000
0100
1000
0000
,
0001
0000
0100
0000
0001
0100
0001
0000
,
1000
0000
0010
0000
1000
0010
1000
0000
,
0001
0000
0010
0000
0001
0010
0001
0000
,
2002
0000
0000
3003
,
1000
0000
0100
0000
0010
0001
0100
0000
,
0220
0000
0000
0330
,
2000
0001
3001
0000
,
1000
0100
0010
0000
0001
0001
0001
0000
,
0001
0100
0010
0000
1000
1000
1000
0000
,
0001
0010
0001
0011
,
1000
0010
1000
1010
,
0001
1000
0100
0000
0010
0010
0010
0000
,
0001
1000
0010
0000
0100
0100
0100
0000
,
0001
1000
0100
0010
,
0220
0000
0000
0330
,
1000
0000
0010
0000
0100
0001
1000
0000
,
0001
0000
1000
0000
0010
0100
0001
0000
,
1000
0000
0001
0000
0100
0010
1000
0000
,
0200
0010
0310
1001
,
0001
0000
0010
0000
0100
1000
0001
0000
,
1000
0000
0001
0000
0100
0010
1000
0000
,
0001
0000
1000
0000
0100
0010
0001
0000
,
0200
0010
0310
1001
,
1000
0000
0100
0000
0001
0100
1000
0000
,
0001
0000
0100
0000
1000
0100
0001
0000
,
1000
0000
0010
0000
0100
0001
0010
0000
,
0200
0010
0310
0110
,
0001
0000
0010
0000
1000
0010
0001
0000
,
1000
0000
0010
0000
0001
0010
1000
0000
,
0001
0000
0010
0000
0100
1000
0010
0000
,
0200
0010
0310
0110
,
1000
0100
0010
0000
0022
0000
0033
0000
,
0001
0100
0010
0000
2020
0000
3030
0000
,
1000
0100
1000
0000
0001
0100
0001
0000
,
0010
0100
0110
0000
,
0002
0103
0002
0103
,
0010
1000
0100
0000
2200
0000
3300
0000
,
1000
0000
0100
0000
0010
0001
0100
0000
,
0010
0000
0100
0100
0100
0000
0000
0000
,
0001
0000
0010
0000
0001
0000
0010
0100
,
1000
0000
0010
0000
1000
0000
0010
0100
,
0001
0000
0010
0000
1000
0000
0010
0002
,
2000
0000
0000
3003
,
1000
0100
1000
0000
0010
0000
0100
0000
,
0001
1000
0100
1001
,
0001
0010
0001
0000
0100
0010
0100
0002
,
0000
1000
1003
0000
0110
0000
1001
0000
,
0001
0100
0001
0000
0010
0000
0100
0000
,
1000
0001
0100
1001
,
1000
0010
1000
0000
0100
0010
0100
2000
,
0000
0001
3001
0000
0110
0000
1001
0000
,
1000
0000
0000
1000
0000
0000
0100
0000
0010
0000
0000
0000
0011
0000
0000
0000
,
0001
0000
0000
0001
0000
0000
0100
0000
0010
0000
0000
0000
1010
0000
0000
0000
,
1000
0000
0100
0000
0010
0001
0100
0020
,
0000
0100
0130
0000
0110
0000
1001
0000
,
0001
0000
0000
0001
0000
0000
0010
0000
0100
0000
0000
0000
1100
0000
0000
0000
,
1000
0000
0000
1000
0000
0000
0010
0000
0100
0000
0000
0000
0101
0000
0000
0000
,
0001
0000
0100
0000
0010
1000
0100
0020
,
0000
0100
0130
0000
0011
0000
1100
0000
,
2002
0000
0000
0000
,
0000
0000
0000
0000
,
0000
0000
0000
0000
,
0000
0000
0000
0000
,
3003
0000
0000
0000
;

//---------------dance-single - ----------------
#NOTES:
     dance-single:
     :
     Hard:
     12:
     0.477577,0.550095,0.231619,0.239340,0.301105,433.000000,403.000000,30.000000,31.000000,0.000000,0.000000,0.477577,0.550095,0.231619,0.239340,0.301105,433.000000,403.000000,30.000000,31.000000,0.000000,0.000000:
// measure 0
0000
0000
0000
0000
,  // measure 1
0000
0000
0000
0000
,  // measure 2
0000
0000
0000
0000
,  // measure 3
0000
0000
0000
0000
,  // measure 4
0000
0000
0000
0000
,  // measure 5
0000
0000
0000
0000
,  // measure 6
0000
0000
0000
0000
,  // measure 7
1000
0000
0000
0000
0100
0000
0000
0000
0010
0001
0000
0000
1000
0000
0000
0000
,  // measure 8
0001
0000
0000
0000
0100
0000
0000
0000
0010
1000
0000
0000
0001
0000
0000
0000
,  // measure 9
1000
0000
0000
0000
0100
0000
0000
0000
0010
0001
0000
0000
0100
0000
0000
0000
,  // measure 10
0010
0100
0001
0000
1000
0001
0000
0000
1000
0000
0100
0000
0010
0000
0001
0000
,  // measure 11
1000
0000
0000
1000
0000
0000
0100
0000
0000
0100
0000
0000
0010
0000
0010
0000
,  // measure 12
0001
0000
0000
0001
0000
0000
0100
0000
0000
0100
0000
0000
0010
0000
0010
0000
,  // measure 13
1000
0000
0000
1000
0000
0000
0001
0000
0000
0001
0000
0000
0100
0000
0100
0000
,  // measure 14
0001
0000
0000
0001
0000
0000
1000
0000
0000
1000
0000
0000
0100
0000
0100
0000
,  // measure 15
0220
0000
0000
0330
,  // measure 16
0001
0000
0000
0100
0000
0000
1000
0000
0000
0100
0000
0000
0010
0000
0010
0000
,  // measure 17
2002
0000
0000
3003
,  // measure 18
1000
0000
0000
1000
0100
0000
0000
0100
0001
0000
0000
0001
0010
0000
0000
0010
,  // measure 19
1000
0100
1100
0000
0001
0100
0001
0000
,  // measure 20
0001
0100
0101
0000
1000
0100
1000
0000
,  // measure 21
0002
0000
0000
0100
0000
0000
0010
0000
0000
0100
0000
0000
1003
0000
0001
0000
,  // measure 22
2000
0000
0000
0010
0000
0000
0100
0000
0000
0010
0000
0000
3001
0000
1000
0000
,  // measure 23
0001
0010
0011
0000
1000
0010
1000
0000
,  // measure 24
1000
0010
1010
0000
0001
0010
0001
0000
,  // measure 25
2000
0000
0000
0100
0000
0000
0001
0000
0000
0010
0000
0000
3100
0000
0000
0000
,  // measure 26
0220
0000
0000
0330
,  // measure 27
0001
0000
0000
0001
0100
0000
0010
0000
1000
0000
1000
0000
0001
0000
0001
0000
,  // measure 28
1000
0000
0000
1000
0100
0000
0010
0000
0001
0000
0001
0000
1000
0000
1000
0000
,  // measure 29
0001
0000
0000
0001
0100
0000
0010
0000
0100
0000
0100
0000
0001
0000
0001
0000
,  // measure 30
0020
0000
0000
1000
0000
0000
0100
0000
0130
0000
0000
0000
1001
0000
0000
0000
,  // measure 31
1000
0000
0000
0100
1000
0000
0010
0000
0100
0000
0100
0000
0001
0000
0001
0000
,  // measure 32
0010
0000
0000
0001
0010
0000
0001
0000
0100
0000
0100
0000
0010
0000
0010
0000
,  // measure 33
1000
0000
0000
0001
1000
0000
0100
0000
0010
0000
0010
0000
0100
0000
0100
0000
,  // measure 34
2000
0000
0000
0010
0000
0000
0001
0000
3001
0000
0000
0000
0110
0000
0000
0000
,  // measure 35
1000
0000
0000
0001
0100
0000
0010
0000
0100
0001
0100
0000
0001
0000
1000
0000
,  // measure 36
0001
0000
0000
1000
0100
0000
0010
0000
0100
1000
0100
0000
1000
0000
0001
0000
,  // measure 37
0100
0000
0000
0010
0100
0000
0001
0000
0010
0100
0010
0000
0001
0000
0100
0000
,  // measure 38
0020
0000
0000
0001
0000
0000
0100
0000
0130
0000
0000
0000
1001
0000
0000
0000
,  // measure 39
1000
0000
0000
0100
0010
0000
0100
0000
1000
0010
1000
0000
0001
0000
0100
0000
,  // measure 40
0001
0000
0000
0010
0100
0000
0010
0000
0001
0100
0001
0000
0010
0000
0100
0000
,  // measure 41
1000
0000
0000
0001
0100
0000
0001
0000
1000
0100
1000
0000
0001
0000
0010
0000
,  // measure 42
0200
0000
0000
0001
0000
0000
0010
0000
0310
0000
0000
0000
1001
0000
0000
0000
,  // measure 43
1000
0000
0100
0010
0000
0100
0010
0000
0002
0000
0000
0000
1003
0000
0000
0000
,  // measure 44
0001
0000
0100
0010
0000
0100
0010
0000
2000
0000
0000
0000
3001
0000
0000
0000
,  // measure 45
1000
0000
0010
0100
0000
0000
0100
0000
0001
0000
0010
0000
0100
0000
1000
0000
,  // measure 46
0002
0000
0000
0100
0000
0000
0010
0000
0020
0000
0000
0000
0033
0000
0000
0000
,  // measure 47
0001
0000
0000
1000
0100
0000
0100
0000
1000
0000
0000
0001
0100
0000
0100
0000
,  // measure 48
0001
0000
1000
0010
0000
0100
0001
0000
0020
0000
0000
0000
0130
0000
0000
0000
,  // measure 49
1000
0000
0001
0100
0000
0001
1000
0000
0000
0000
1000
0000
0100
0000
0000
0000
,  // measure 50
0010
0000
0000
0001
0100
0000
0010
0000
0220
0000
0000
0000
0330
0000
0000
0000
,  // measure 51
2000
0000
0000
0100
0000
0000
0010
0000
0000
0100
0000
0000
3001
0000
0100
0000
,  // measure 52
0002
0000
0000
0010
0000
0000
0100
0000
0000
0010
0000
0000
1003
0000
0001
0000
,  // measure 53
0200
0000
0000
1000
0000
0000
0001
0000
0000
0010
0000
0000
0301
0000
0010
0000
,  // measure 54
0220
0000
0000
0330
,  // measure 55
1000
0000
0100
0000
1000
0000
0010
0000
0100
0000
0000
0100
0001
0000
0010
0000
,  // measure 56
0100
0000
0000
0100
0010
0000
0001
0000
0000
0100
0010
0000
1010
0000
0000
0000
,  // measure 57
1000
0100
0001
0100
0010
0001
0100
0020
,  // measure 58
0000
0100
0130
0000
0110
0000
1001
0000
,  // measure 59
0001
0000
0100
0000
0001
0000
0010
0000
0100
0000
0000
0100
1000
0000
0010
0000
,  // measure 60
0100
0000
0000
0100
0010
0000
1000
0000
0000
0100
0010
0000
0011
0000
0000
0000
,  // measure 61
0001
0100
1000
0100
0010
1000
0100
0020
,  // measure 62
0000
0100
0130
0000
0110
0000
1001
0000
,  // measure 63
1000
0000
0000
0100
0001
0000
1000
0000
0010
0000
0000
0000
0011
0000
0000
0000
,  // measure 64
0001
0000
0000
0100
1000
0000
0001
0000
0010
0000
0000
0000
1010
0000
0000
0000
,  // measure 65
1001
0000
0000
0001
0010
0000
1000
0000
0010
0000
0001
0000
0100
0000
0020
0000
,  // measure 66
0000
0100
0130
0000
0110
0000
1001
0000
,  // measure 67
1000
0000
0000
0010
0001
0000
1000
0000
0100
0000
0000
0000
0101
0000
0000
0000
,  // measure 68
0001
0000
0000
0010
1000
0000
0001
0000
0100
0000
0000
0000
1100
0000
0000
0000
,  // measure 69
1001
0000
0000
1000
0010
0000
0001
0000
0010
0000
0100
0000
0001
0000
0020
0000
,  // measure 70
0000
0100
0130
0000
0110
0000
1001
0000
,  // measure 71
0220
0000
0000
0000
,  // measure 72
0000
0000
0000
0000
,  // measure 73
0000
0000
0000
0000
,  // measure 74
0000
0000
0000
0000
,  // measure 75
0330
0000
0000
0000
;
