#VERSION:0.83;
#TITLE:EVERYDAY AT THE BUS STOP;
#SUBTITLE:;
#ARTIST:Tommy february6;
#TITLETRANSLIT:;
#SUBTITLETRANSLIT:;
#ARTISTTRANSLIT:;
#GENRE:;
#ORIGIN:;
#CREDIT:;
#BANNER:banner.png;
#BACKGROUND:EVERYDAY AT THE BUS STOP-bg.png;
#PREVIEWVID:;
#JACKET:jacket.png;
#CDIMAGE:;
#DISCIMAGE:EVERYDAY AT THE BUS STOP-background.png;
#LYRICSPATH:EVERYDAY AT THE BUS STOP.lrc;
#CDTITLE:;
#MUSIC:EVERYDAY AT THE BUS STOP.ogg;
#OFFSET:1.709848;
#SAMPLESTART:49.117752;
#SAMPLELENGTH:15.760020;
#SELECTABLE:YES;
#BPMS:0.000=122.000;
#STOPS:;
#DELAYS:;
#WARPS:;
#TIMESIGNATURES:0.000=4=4;
#TICKCOUNTS:0.000=4;
#COMBOS:0.000=1;
#SPEEDS:0.000=1.000=0.000=0;
#SCROLLS:0.000=1.000;
#FAKES:;
#LABELS:0.000=Song Start;
#BGCHANGES:3.500=EVERYDAY AT THE BUS STOP.avi=1.000=0=0=1=====,
99999=-nosongbg-=1.000=0=0=0 // don't automatically add -songbackground-
;
#KEYSOUNDS:;
#ATTACKS:
;

//---------------dance-single - ----------------
#NOTEDATA:;
#CHARTNAME:;
#STEPSTYPE:dance-single;
#DESCRIPTION:;
#CHARTSTYLE:;
#DIFFICULTY:Beginner;
#METER:2;
#RADARVALUES:0.087620,0.118085,0.000000,0.000000,0.000000,87.000000,87.000000,0.000000,0.000000,0.000000,0.000000,0.000000,0.000000,0.000000,0.087620,0.118085,0.000000,0.000000,0.000000,87.000000,87.000000,0.000000,0.000000,0.000000,0.000000,0.000000,0.000000,0.000000;
#CREDIT:Venomothim;
#NOTES:
0000
0000
0000
0000
,
0000
0000
0000
0000
,
0000
0000
0000
0000
,
0000
0000
0000
0000
,
0000
0000
0000
0000
,
1000
0000
1000
0000
,
0001
0000
0001
0000
,
0100
0000
0100
0000
,
0010
0000
0010
0000
,
1000
0000
0000
0000
,
0100
0000
0000
0000
,
0010
0000
0000
0000
,
0001
0000
0000
0000
,
0100
0000
0000
0000
,
0010
0000
0000
0000
,
1000
0000
0000
0000
,
0001
0000
0000
0000
,
1000
0000
1000
0000
,
1000
0000
0000
0000
,
0001
0000
0001
0000
,
0001
0000
0000
0000
,
0100
0000
0000
0000
,
0010
0000
0000
0000
,
0100
0000
0000
0000
,
0001
0000
0001
0000
,
0000
0000
0000
0000
,
1000
0000
1000
0000
,
1000
0000
0000
0000
,
0001
0000
0001
0000
,
0001
0000
0000
0000
,
0100
0000
0100
0000
,
0100
0000
0000
0000
,
0010
0000
0010
0000
,
0010
0000
0000
0000
,
1000
0000
1000
0000
,
0100
0000
0100
0000
,
0010
0000
0010
0000
,
0001
0000
0000
0000
,
0001
0000
0001
0000
,
0100
0000
0100
0000
,
0010
0000
0010
0000
,
1000
0000
0000
0000
,
0001
0000
0000
0000
,
0010
0000
0000
0000
,
0100
0000
0000
0000
,
1000
0000
0000
0000
,
0010
0000
0000
0000
,
0100
0000
0000
0000
,
0001
0000
0000
0000
,
1000
0000
0000
0000
,
0001
0000
0001
0000
,
0001
0000
0000
0000
,
0010
0000
0010
0000
,
0010
0000
0000
0000
,
0100
0000
0000
0000
,
1000
0000
0000
0000
,
0001
0000
0000
0000
,
0100
0000
0100
0000
,
0010
0000
0010
0000
,
0100
0000
0100
0000
,
0001
0000
0000
0000
,
1000
0000
1000
0000
,
0001
0000
0000
0000
,
0100
0000
0100
0000
,
0010
0000
0000
0000
,
0010
0000
0010
0000
,
0100
0000
0000
0000
,
0001
0000
0000
0000
;

//---------------dance-single - ----------------
#NOTEDATA:;
#CHARTNAME:;
#STEPSTYPE:dance-single;
#DESCRIPTION:;
#CHARTSTYLE:;
#DIFFICULTY:Easy;
#METER:5;
#RADARVALUES:0.200417,0.243220,0.105748,0.014100,0.000000,199.000000,184.000000,15.000000,2.000000,0.000000,0.000000,0.000000,0.000000,0.000000,0.200417,0.243220,0.105748,0.014100,0.000000,199.000000,184.000000,15.000000,2.000000,0.000000,0.000000,0.000000,0.000000,0.000000;
#CREDIT:Venomothim;
#NOTES:
0000
0000
0000
0000
,
0000
0000
0000
0000
,
0000
0000
0000
0000
,
0000
0000
0000
0000
,
0000
0000
0000
0000
,
1000
1000
0001
0000
,
0100
0000
0100
0000
,
0001
0001
1000
0000
,
0100
0000
0100
0000
,
1000
0000
1000
0000
,
0010
0000
0010
0000
,
0100
0001
0100
0001
,
1000
0000
1000
0000
,
0001
0000
0001
0000
,
0010
0000
0010
0000
,
0100
1000
0100
1000
,
0001
0000
0001
0000
,
1000
0010
0100
0001
,
0010
0100
1000
0000
,
0001
0100
0010
1000
,
0100
0010
0001
0000
,
1000
0000
0001
0001
,
0100
0000
0001
1000
,
0100
0000
1000
0010
,
0100
0100
0001
0000
,
0010
0001
0001
1000
,
0001
0010
0100
1000
,
0010
0000
1001
0000
,
1000
0010
0100
0001
,
0010
0000
1001
0000
,
0001
1000
0100
1000
,
0001
0000
0101
0000
,
1000
0001
0100
0001
,
1000
0000
1100
0000
,
0001
0001
0100
0000
,
1000
1000
0100
0000
,
0001
0100
1000
0100
,
0001
0000
0110
0000
,
1000
1000
0010
0000
,
0001
0001
0010
0000
,
1000
0010
0001
0010
,
1000
0000
0110
0000
,
0000
1000
0000
1000
,
0000
0001
0000
0001
,
0000
0100
0000
0100
,
0000
0010
0000
0010
,
0100
0001
0100
0001
,
0010
0001
0010
0100
,
0010
0100
1000
0001
,
1000
0000
0001
0000
,
1000
0010
0100
0001
,
0010
0100
1000
0000
,
0001
0010
0100
1000
,
0010
0100
0001
0000
,
1100
0000
0001
1000
,
0101
0000
1000
0001
,
0110
0000
1001
0000
,
0001
0001
1000
0000
,
0010
0010
0100
0100
,
0001
0010
0100
1000
,
0001
0000
1001
0000
,
1000
0010
0100
0001
,
1000
0000
1100
0000
,
0100
1000
0010
0100
,
0001
0000
0101
0000
,
0100
0001
0010
0100
,
1000
0000
1010
0000
,
0220
0000
0000
0000
,
0000
0000
0000
0000
,
0330
0000
0000
0000
;

//---------------dance-single - ----------------
#NOTEDATA:;
#CHARTNAME:;
#STEPSTYPE:dance-single;
#DESCRIPTION:;
#CHARTSTYLE:;
#DIFFICULTY:Medium;
#METER:8;
#RADARVALUES:0.288037,0.413474,0.169196,0.183296,0.000000,286.000000,262.000000,24.000000,26.000000,0.000000,0.000000,0.000000,0.000000,0.000000,0.288037,0.413474,0.169196,0.183296,0.000000,286.000000,262.000000,24.000000,26.000000,0.000000,0.000000,0.000000,0.000000,0.000000;
#CREDIT:Venomothim;
#NOTES:
0000
0000
0000
0000
,
0000
0000
0000
0000
,
0000
0000
0000
0000
,
0000
0000
0000
0000
,
0000
0000
0000
0000
,
1000
0100
0010
0001
,
1000
0000
1000
0000
,
0001
0100
0010
1000
,
0001
0000
0001
0000
,
1000
0100
1000
0010
,
0100
0001
0010
0001
,
0100
0010
0100
0000
0001
0000
1000
0000
,
0100
0000
0100
0000
,
1000
0001
0010
0001
,
1000
0010
0100
0010
,
1000
0100
0010
0001
,
1000
0000
1000
0000
,
0001
0100
0010
0100
,
0001
1000
0001
1000
0000
0000
1000
0000
,
0001
0010
0100
0010
,
0001
1000
0001
1000
0000
0000
1000
0000
,
2020
0000
3030
1000
0001
0000
0001
0000
,
0022
0000
0033
0001
0100
0000
0110
0000
,
2002
0000
3003
0001
0010
0000
0010
0000
,
0100
1000
0100
1000
0001
0000
0001
0000
,
1000
1000
0110
1001
,
0001
0010
0100
0000
1000
0000
1000
0000
,
0001
0000
0001
0000
1000
0010
0100
0000
,
0010
1000
0001
0000
0010
0000
0100
0000
,
1000
1000
0001
0001
,
1000
0010
0100
0000
0010
0000
1000
0000
,
0001
0000
0001
0000
0010
0100
0010
0000
,
0001
1000
0001
0000
0100
0000
0010
0000
,
0100
0000
0100
0000
0001
0000
0000
0101
,
0000
1100
0101
0000
1100
0000
0000
0101
,
0000
1100
0101
0000
1100
0000
0000
0000
,
0002
0103
2000
3100
,
2002
0000
0000
3003
,
0002
0103
0002
0103
,
2000
3100
2000
3100
,
0002
0103
2000
3100
,
0220
0000
0000
0330
,
0000
1000
0000
1000
0000
0001
0000
0001
,
0000
0100
0000
0100
0000
0010
0000
0010
,
0000
0100
0000
0100
0000
0001
0000
0001
,
0000
1000
0000
1000
0000
0100
0000
0100
,
1000
1000
0010
0010
,
0100
0100
0001
0001
,
0010
0001
0100
0010
,
1000
0000
0000
0001
0010
0100
0010
0100
,
1000
1100
0001
0101
,
1000
0010
0100
0001
0000
0001
1000
0000
,
0001
0011
1000
1010
,
0001
0010
0100
1000
0000
1000
0001
0000
,
0220
0000
0330
0001
1000
0000
0010
0000
,
0202
0000
0303
1000
0001
0000
0010
0000
,
2200
0000
3300
0001
0100
0000
0010
0000
,
0100
0001
0010
0100
1000
0000
1000
0000
,
0001
0000
0001
0000
0100
0100
0010
0010
,
0100
0001
0100
0000
0010
0000
1000
0000
,
0100
0000
0100
0000
1000
0010
1000
0000
,
0001
0010
0001
0000
0100
0000
0010
0000
,
1000
1000
0001
0001
,
1000
0100
1000
0000
0001
0000
0010
0000
,
0001
0000
0001
0000
0100
0010
0100
0000
,
0010
1000
0010
0000
0100
0000
0100
0000
,
0001
0000
0001
0000
1000
0100
0010
0000
,
0220
0000
0000
0000
,
0000
0000
0000
0000
,
0330
0000
0000
0000
;

//---------------dance-single - ----------------
#NOTEDATA:;
#CHARTNAME:;
#STEPSTYPE:dance-single;
#DESCRIPTION:;
#CHARTSTYLE:;
#DIFFICULTY:Hard;
#METER:11;
#RADARVALUES:0.426012,0.462118,0.253795,0.296094,0.091648,423.000000,387.000000,36.000000,42.000000,0.000000,0.000000,0.000000,0.000000,0.000000,0.426012,0.462118,0.253795,0.296094,0.091648,423.000000,387.000000,36.000000,42.000000,0.000000,0.000000,0.000000,0.000000,0.000000;
#CREDIT:Venomothim;
#NOTES:
0000
0000
0000
0000
,
0000
0000
0000
0000
,
0000
0000
0000
0000
,
0000
0000
0000
0000
,
0000
0000
0000
0000
,
1000
0100
0001
0000
0100
1000
0010
0000
,
0110
0000
1001
0000
0001
0100
1000
0000
,
1000
0100
0001
0000
0001
0010
0100
0000
,
0110
0000
1001
0000
0001
1000
0001
0000
,
1000
0010
1000
0010
0100
0001
0100
0001
,
0010
0001
0010
0100
0000
0100
0010
0001
,
0100
0010
0100
0010
1000
0100
1000
0001
,
0000
0001
0000
0010
0100
0010
0100
1000
,
1000
0100
0001
0100
1000
0010
0001
0010
,
1000
0100
0010
0001
0000
0001
0100
0010
,
1000
0010
0001
0010
1000
0100
0001
0100
,
1000
0010
0000
0020
0230
0302
0023
0230
,
1300
0010
0000
0000
1000
0001
0000
0000
1000
0100
0000
0000
1000
0000
0010
0000
,
0100
0001
0010
0200
0000
0310
0001
1000
,
0001
0010
0000
0000
0001
1000
0000
0000
0001
0100
0000
0000
0001
0000
0010
0000
,
0100
1000
0010
0200
0000
0001
0301
0000
,
2002
0000
3003
1000
0010
0001
1000
0100
,
0202
0000
0303
0001
0010
1000
0001
0100
,
2200
0000
3300
1000
0010
0100
0000
0002
,
0000
0013
1000
0010
0100
0000
1000
0000
,
1010
0000
0101
0000
0001
1000
0110
1001
,
1000
0010
0100
0001
0010
1000
0010
0100
,
1000
0000
1000
0000
0001
0100
1000
0100
,
0010
1000
0001
0000
0001
0010
1000
0010
,
0100
0000
0110
0000
0001
1000
1000
0001
,
0001
0010
0100
1000
0010
0001
0010
0100
,
0001
0000
0001
0000
1000
0100
0001
0100
,
0010
0001
1000
0000
1000
0010
0001
0010
,
0100
0000
0110
0000
2002
0000
3003
0101
,
0000
1100
0101
0000
1100
0000
0000
0101
,
0000
1100
0101
0000
1100
0000
0000
0000
,
0002
0103
2000
3100
,
2002
0000
0000
3003
,
0002
0103
0002
0103
,
2000
3100
2000
3100
,
0002
0103
2000
3100
,
0220
0000
0000
0330
,
0000
0000
0001
0000
0000
0000
0001
0000
0000
0000
1000
0010
0000
1000
0010
0000
,
0000
0000
1000
0000
0000
0000
1000
0000
0000
0000
0001
0010
0000
0001
0010
0000
,
0000
0000
0100
0000
0000
0000
0100
0000
0000
0000
1000
0001
0000
1000
0001
0000
,
0000
0000
0100
0000
0000
0000
0100
0000
0000
0000
0001
1000
0000
0001
1000
0000
,
0100
0000
1000
0000
0010
0000
1000
0000
0100
0000
0010
0001
0000
0010
0001
0000
,
0100
0000
0001
0000
0010
0000
0001
0000
0100
0000
0010
1000
0000
0010
1000
0000
,
0100
0000
1000
0000
0001
0000
0100
0000
0001
0000
1000
0010
0000
0100
0001
0000
,
0010
0100
0000
0020
0032
0203
0320
2030
,
3100
0010
0000
0000
0010
0001
0000
0000
0001
0100
0000
0000
0010
0000
1000
0000
,
0100
0001
0100
1000
0000
1000
0010
0010
,
0100
0010
0000
0000
0010
1000
0000
0000
1000
0100
0000
0000
0010
0000
0001
0000
,
0100
1000
0100
0001
0000
0001
0010
0000
,
2200
0000
3300
0001
0100
1000
0100
0010
,
0202
0000
0303
1000
0100
0001
0100
0010
,
2200
0000
3300
0001
0100
0010
0000
2000
,
0000
3100
0001
0100
0010
0000
0010
0000
,
0101
0000
1100
0000
1000
0001
1100
0101
,
1000
0010
0001
1000
0100
0001
0100
0010
,
1000
0000
1000
0000
0001
0010
1000
0010
,
0100
1000
0001
0001
1000
0010
0001
0010
,
0100
0000
1001
0000
0001
0100
0010
1001
,
0001
0010
1000
0001
0100
1000
0100
0010
,
0001
0000
0001
0000
1000
0010
0001
0010
,
0100
0001
1000
1000
0001
0010
1000
0010
,
0100
0000
1001
0000
0001
1000
0010
0110
,
2002
0000
0000
0000
,
0000
0000
0000
0000
,
3003
0000
0000
0000
;

//---------------dance-double - ----------------
#NOTEDATA:;
#CHARTNAME:;
#STEPSTYPE:dance-double;
#DESCRIPTION:;
#CHARTSTYLE:;
#DIFFICULTY:Medium;
#METER:8;
#RADARVALUES:0.287030,0.413474,0.162147,0.197396,0.000000,285.000000,262.000000,23.000000,28.000000,0.000000,0.000000,0.000000,0.000000,0.000000,0.287030,0.413474,0.162147,0.197396,0.000000,285.000000,262.000000,23.000000,28.000000,0.000000,0.000000,0.000000,0.000000,0.000000;
#CREDIT:Venomothim;
#NOTES:
00000000
00000000
00000000
00000000
,
00000000
00000000
00000000
00000000
,
00000000
00000000
00000000
00000000
,
00000000
00000000
00000000
00000000
,
00000000
00000000
00000000
00000000
,
10000000
01000000
00100000
00001000
,
00010000
00000000
00010000
00000000
,
00000010
00001000
00000100
00100000
,
00010000
00000000
00010000
00000000
,
10000000
01000000
00010000
00001000
,
00000100
00000010
00001000
00000001
,
00000010
00000100
00000010
00000000
00000001
00000000
00001000
00000000
,
00000100
00000000
00000100
00000000
,
00010000
00001000
00100000
00010000
,
10000000
00100000
01000000
00100000
,
10000000
01000000
00100000
00010000
,
10000000
00000000
10000000
00000000
,
10000000
00100000
01000000
00010000
,
00100000
00001000
00100000
00001000
00000000
00000000
00010000
00000000
,
00000010
00000100
00000001
00000010
,
00000100
00010000
00000100
00010000
00000000
00000000
00001000
00000000
,
00202000
00000000
00303000
00100000
00001000
00000000
00001000
00000000
,
00020200
00000000
00030300
00001000
01000000
00000000
01000000
00000000
,
02002000
00000000
03003000
00010000
10000000
00000000
10000000
00000000
,
01000000
00100000
01000000
00100000
00010000
00000000
00010000
00000000
,
01000000
01000000
01010000
00011000
,
00010000
00001000
00000100
00000000
00000001
00000000
00000010
00000000
,
00000100
00000000
00000100
00000000
00000010
00000001
00000100
00000000
,
00001000
00010000
01000000
00000000
00100000
00000000
00010000
00000000
,
01000000
01000000
00100000
00100000
,
10000000
01000000
00010000
00000000
01000000
00000000
00100000
00000000
,
00010000
00000000
00010000
00000000
01000000
00001000
00000100
00000000
,
00000001
00000010
00000001
00000000
00000100
00000000
00001000
00000000
,
00010000
00000000
01000000
00000000
10000000
00000000
00000000
01010000
,
00000000
11000000
01010000
00000000
11000000
00000000
00000000
01010000
,
00000000
11000000
01010000
00000000
11000000
00000000
00000000
00000000
,
00020000
01030000
20000000
31000000
,
20020000
00000000
00000000
30030000
,
00002000
00023000
00030020
00010000
,
00002030
00003200
00020300
00001000
,
00030020
00000100
00020030
01030000
,
02200000
00000000
00000000
03300000
,
00000000
10000000
00000000
10000000
00000000
00100000
00000000
00100000
,
00000000
01000000
00000000
01000000
00000000
00001000
00000000
00001000
,
00000000
00010000
00000000
00010000
00000000
00000100
00000000
00000100
,
00000000
00000010
00000000
00000010
00000000
00000001
00000000
00000001
,
00000100
00000100
00000010
00000010
,
00001000
00001000
00000001
00000001
,
00000010
00000001
00001000
00000100
,
00010000
00000000
00000000
00001000
00100000
01000000
00100000
01000000
,
10000000
10100000
00010000
00110000
,
10000000
00100000
00010000
00001000
00000000
00001000
00000010
00000000
,
00000001
00000101
00001000
00001100
,
00000001
00000100
00001000
00010000
00000000
00010000
01000000
00000000
,
20020000
00000000
30030000
10000000
00100000
00000000
01000000
00000000
,
02002000
00000000
03003000
00001000
00010000
00000000
00000100
00000000
,
00000220
00000000
00000330
00000010
00000001
00000000
00000100
00000000
,
00000001
00000010
00001000
00010000
01000000
00000000
10000000
00000000
,
00010000
00000000
00010000
00000000
01000000
01000000
00100000
00100000
,
10000000
01000000
10000000
00000000
00100000
00000000
01000000
00000000
,
00010000
00000000
00010000
00000000
00100000
00001000
00010000
00000000
,
00000100
00001000
00000010
00000000
00000100
00000000
00000001
00000000
,
00001000
00001000
00000001
00000001
,
00000010
00000001
00001000
00000000
00000100
00000000
00010000
00000000
,
00001000
00000000
00001000
00000000
00100000
00010000
00100000
00000000
,
01000000
10000000
01000000
00000000
10000000
00000000
10000000
00000000
,
00100000
00000000
00100000
00000000
01000000
00001000
00010000
00000000
,
00022000
00000000
00000000
00000000
,
00000000
00000000
00000000
00000000
,
00033000
00000000
00000000
00000000
;

//---------------dance-double - ----------------
#NOTEDATA:;
#CHARTNAME:;
#STEPSTYPE:dance-double;
#DESCRIPTION:;
#CHARTSTYLE:;
#DIFFICULTY:Hard;
#METER:12;
#RADARVALUES:0.426012,0.462118,0.260844,0.310193,0.091648,423.000000,386.000000,37.000000,44.000000,0.000000,0.000000,0.000000,0.000000,0.000000,0.426012,0.462118,0.260844,0.310193,0.091648,423.000000,386.000000,37.000000,44.000000,0.000000,0.000000,0.000000,0.000000,0.000000;
#CREDIT:Venomothim;
#NOTES:
// measure 0
00000000
00000000
00000000
00000000
,  // measure 1
00000000
00000000
00000000
00000000
,  // measure 2
00000000
00000000
00000000
00000000
,  // measure 3
00000000
00000000
00000000
00000000
,  // measure 4
00000000
00000000
00000000
00000000
,  // measure 5
10000000
01000000
00010000
00000000
01000000
10000000
00100000
00000000
,  // measure 6
10010000
00000000
00011000
00000000
00010000
00001000
00000100
00000000
,  // measure 7
00001000
00000100
00000001
00000000
00000100
00000001
00000010
00000000
,  // measure 8
00001001
00000000
00011000
00000000
00001000
00010000
00001000
00000000
,  // measure 9
00010000
01000000
00010000
01000000
00010000
00001000
00010000
00001000
,  // measure 10
00000100
00001000
00000100
00000001
00000000
00000001
00000010
00000100
,  // measure 11
00001000
00000100
00001000
00000100
00001000
00000100
00010000
00001000
,  // measure 12
00000000
01000000
00000000
01000000
00100000
10000000
00010000
00010000
,  // measure 13
00010000
01000000
10000000
01000000
00010000
00100000
10000000
00100000
,  // measure 14
00001000
00010000
00001000
00010000
00000000
00010000
00001000
00000100
,  // measure 15
00000001
00000010
00001000
00000010
00000001
00000100
00001000
00010000
,  // measure 16
00000000
00010000
00000000
00002000
00203000
00320000
20030000
32000000
,  // measure 17
13000000
00100000
00000000
00000000
10000000
00010000
00000000
00000000
10000000
01000000
00000000
00000000
10000000
00000000
00100000
00000000
,  // measure 18
00010000
00001000
00000100
00000020
00000000
00000130
00000001
00001000
,  // measure 19
00000001
00000010
00000000
00000000
00000001
00001000
00000000
00000000
00000001
00000100
00000000
00000000
00000001
00000000
00000010
00000000
,  // measure 20
00001000
00010000
01000000
00200000
00000000
00010000
00310000
00000000
,  // measure 21
20020000
00000000
30030000
10000000
00100000
00010000
00001000
00000100
,  // measure 22
00000202
00000000
00000303
00000001
00000010
00001000
00010000
01000000
,  // measure 23
22000000
00000000
33000000
10000000
00100000
00010000
00000000
00002000
,  // measure 24
00000000
00013000
00010000
00000010
00000100
00000000
00000100
00000000
,  // measure 25
00001001
00000000
00000110
00000000
00000001
00001000
00001100
00011000
,  // measure 26
00001000
00010000
01000000
10000000
00100000
00010000
00100000
10000000
,  // measure 27
01000000
00000000
01100000
00000000
00100000
00001000
00010000
00001000
,  // measure 28
00000100
00000001
00000010
00000000
00000010
00000001
00000100
00000010
,  // measure 29
00001000
00000000
00001100
00000000
00000001
00000001
00001000
00001000
,  // measure 30
00000001
00000010
00001000
00010000
00001000
00000100
00000001
00000100
,  // measure 31
00000010
00000000
00000010
00000000
00001000
00000100
00000001
00000100
,  // measure 32
00001000
00000010
00010000
00000000
00001000
01000000
00100000
10000000
,  // measure 33
01000000
00000000
01100000
00000000
20020000
00000000
30030000
01010000
,  // measure 34
00000000
11000000
01010000
00000000
11000000
00000000
00000000
01010000
,  // measure 35
00000000
11000000
01010000
00000000
11000000
00000000
00000000
00000000
,  // measure 36
00020000
01030000
20000000
31000000
,  // measure 37
20020000
00000000
00000000
30030000
,  // measure 38
00002000
00023000
00030020
00010000
,  // measure 39
00002030
00003200
00020300
00001000
,  // measure 40
00030020
00000100
00020030
01030000
,  // measure 41
02200000
00000000
00000000
03300000
,  // measure 42
00000000
00000000
10000000
00000000
00000000
00000000
10000000
00000000
00000000
00000000
00100000
01000000
00000000
00100000
01000000
00000000
,  // measure 43
00000000
00000000
00001000
00000000
00000000
00000000
00001000
00000000
00000000
00000000
00010000
00000100
00000000
00010000
00000100
00000000
,  // measure 44
00000000
00000000
00001000
00000000
00000000
00000000
00001000
00000000
00000000
00000000
00000001
00000010
00000000
00000001
00000010
00000000
,  // measure 45
00000000
00000000
00000001
00000000
00000000
00000000
00000001
00000000
00000000
00000000
00001000
00000010
00000000
00001000
00000010
00000000
,  // measure 46
00001000
00000000
00000010
00000000
00000001
00000000
00000010
00000000
00001000
00000000
00000100
00010000
00000000
00000100
00010000
00000000
,  // measure 47
00001000
00000000
00000100
00000000
00000001
00000000
00000100
00000000
00001000
00000000
00010000
01000000
00000000
00010000
01000000
00000000
,  // measure 48
10000000
00000000
00100000
00000000
00010000
00000000
00100000
00000000
10000000
00000000
01000000
00100000
00000000
00001000
00010000
00000000
,  // measure 49
00000010
00000100
00000000
00000002
00000023
00000230
00020300
00032000
,  // measure 50
00103000
00010000
00000000
00000000
00010000
01000000
00000000
00000000
01000000
00100000
00000000
00000000
10000000
00000000
01000000
00000000
,  // measure 51
00010000
00001000
00000100
00000001
00000000
00000010
00000001
00000100
,  // measure 52
00000001
00000010
00000000
00000000
00000010
00000100
00000000
00000000
00000100
00001000
00000000
00000000
00000010
00000000
00010000
00000000
,  // measure 53
00001000
00010000
01000000
10000000
00000000
10000000
00100000
00000000
,  // measure 54
20200000
00000000
30300000
10000000
00100000
00010000
00001000
00000100
,  // measure 55
00000202
00000000
00000303
00000001
00000010
00001000
00010000
01000000
,  // measure 56
22000000
00000000
33000000
10000000
00100000
01000000
00000000
00002000
,  // measure 57
00000000
00013000
00100000
00010000
00001000
00000000
00000100
00000000
,  // measure 58
00000011
00000000
00001100
00000000
00000001
00001000
00001100
00011000
,  // measure 59
00001000
00000010
00000001
00000100
00001000
00000100
00000001
00000010
,  // measure 60
00001000
00000000
00001000
00000000
00100000
00001000
00010000
01000000
,  // measure 61
00100000
00010000
10000000
00010000
10000000
01000000
00010000
01000000
,  // measure 62
00100000
00000000
10010000
00000000
00010000
00100000
00001000
00011000
,  // measure 63
00010000
00100000
10000000
01000000
00010000
01000000
10000000
00100000
,  // measure 64
00010000
00000000
00010000
00000000
00001000
00000010
00000001
00000010
,  // measure 65
00000100
00001000
00000010
00000010
00000100
00010000
00001000
00100000
,  // measure 66
10000000
00000000
10010000
00000000
00010000
10000000
00100000
01100000
,  // measure 67
20020000
00000000
00000000
00000000
,  // measure 68
00000000
00000000
00000000
00000000
,  // measure 69
30030000
00000000
00000000
00000000
;

//---------------dance-double - ----------------
#NOTEDATA:;
#CHARTNAME:;
#STEPSTYPE:dance-double;
#DESCRIPTION:;
#CHARTSTYLE:;
#DIFFICULTY:Easy;
#METER:5;
#RADARVALUES:0.200417,0.243220,0.105748,0.014100,0.000000,199.000000,184.000000,15.000000,2.000000,0.000000,0.000000,0.000000,0.000000,0.000000,0.200417,0.243220,0.105748,0.014100,0.000000,199.000000,184.000000,15.000000,2.000000,0.000000,0.000000,0.000000,0.000000,0.000000;
#CREDIT:Venomothim;
#NOTES:
00000000
00000000
00000000
00000000
,
00000000
00000000
00000000
00000000
,
00000000
00000000
00000000
00000000
,
00000000
00000000
00000000
00000000
,
00000000
00000000
00000000
00000000
,
00001000
00001000
00100000
00000000
,
01000000
00000000
01000000
00000000
,
10000000
10000000
00010000
00000000
,
01000000
00000000
01000000
00000000
,
00001000
00000000
00001000
00000000
,
00010000
00000000
00010000
00000000
,
00000010
00000100
00000010
00000100
,
00000001
00000000
00000001
00000000
,
00000010
00000000
00000010
00000000
,
00000100
00000000
00000100
00000000
,
00010000
00001000
00010000
00001000
,
00100000
00000000
00100000
00000000
,
00010000
01000000
00100000
10000000
,
01000000
00100000
00010000
00000000
,
01000000
00001000
00010000
00000010
,
00000100
00000001
00001000
00000000
,
00000100
00000000
00000010
00000010
,
00000001
00000000
00000100
00000010
,
00010000
00000000
00001000
00100000
,
00010000
00010000
01000000
00000000
,
00100000
10000000
10000000
00010000
,
10000000
01000000
00100000
00010000
,
01000000
00000000
01010000
00000000
,
01000000
00001000
00010000
00000010
,
00000100
00000000
00001001
00000000
,
00000001
00000010
00000100
00001000
,
00000010
00000000
00010010
00000000
,
00010000
00001000
00100000
00010000
,
10000000
00000000
10010000
00000000
,
10000000
10000000
01000000
00000000
,
00010000
00010000
01000000
00000000
,
10000000
01000000
00010000
00001000
,
00000100
00000000
00001001
00000000
,
00000001
00000001
00000100
00000000
,
00001000
00001000
00000100
00000000
,
00000001
00000100
00001000
00010000
,
01000000
00000000
01100000
00000000
,
00000000
10000000
00000000
10000000
,
00000000
00100000
00000000
00100000
,
00000000
01000000
00000000
01000000
,
00000000
00001000
00000000
00001000
,
00010000
00001000
00010000
00001000
,
00100000
00001000
00100000
00001000
,
00010000
00000100
00001000
00000010
,
00000100
00000000
00000001
00000000
,
00001000
00000100
00000010
00000001
,
00000100
00000010
00001000
00000000
,
00000100
00010000
00001000
00100000
,
00010000
01000000
00100000
00000000
,
11000000
00000000
00010000
10000000
,
01010000
00000000
00100000
00001000
,
00011000
00000000
00001010
00000000
,
00001000
00001000
00000001
00000000
,
00000010
00000010
00000100
00000100
,
00000010
00000001
00000100
00000010
,
00001000
00000000
00001100
00000000
,
00000100
00010000
00001000
00100000
,
00010000
00000000
10100000
00000000
,
10000000
00100000
01000000
00010000
,
00100000
00000000
00101000
00000000
,
00001000
00010000
00000010
00000100
,
00000001
00000000
00001001
00000000
,
00000220
00000000
00000000
00000000
,
00000000
00000000
00000000
00000000
,
00000330
00000000
00000000
00000000
;
