#TITLE:E-MAIL ME!;
#SUBTITLE:;
#ARTIST:Paula Terry;
#TITLETRANSLIT:;
#SUBTITLETRANSLIT:;
#ARTISTTRANSLIT:;
#GENRE:;
#CREDIT:Venomothim;
#BANNER:banner.png;
#BACKGROUND:EMAIL ME-bg.png;
#LYRICSPATH:;
#CDTITLE:;
#MUSIC:EMAIL ME.ogg;
#OFFSET:0.954000;
#SAMPLESTART:52.182598;
#SAMPLELENGTH:13.600008;
#SELECTABLE:YES;
#BPMS:0.000000=140.000000
;
#STOPS:
;
#BGCHANGES:;
#KEYSOUNDS:;
#ATTACKS:;

//---------------dance-single - ----------------
#NOTES:
     dance-single:
     :
     Beginner:
     2:
     0.116083,0.141430,0.051429,0.000000,0.000000,79.000000,74.000000,5.000000,0.000000,0.000000,0.000000,0.116083,0.141430,0.051429,0.000000,0.000000,79.000000,74.000000,5.000000,0.000000,0.000000,0.000000:
// measure 0
0000
0000
0000
0000
,  // measure 1
0000
0000
0000
0000
,  // measure 2
0000
0000
0000
0000
,  // measure 3
0000
0000
0000
0000
,  // measure 4
0000
0000
0000
0000
,  // measure 5
1000
0000
1000
0000
,  // measure 6
0001
0000
0001
0000
,  // measure 7
0100
0000
0100
0000
,  // measure 8
0010
0000
0000
0000
,  // measure 9
0100
0000
0100
0000
,  // measure 10
0100
0000
0000
0000
,  // measure 11
0001
0000
0001
0000
,  // measure 12
0001
0000
0000
0000
,  // measure 13
1000
0000
1000
0000
,  // measure 14
0001
0000
0001
0000
,  // measure 15
1000
0000
1000
0000
,  // measure 16
0100
0000
0100
0000
,  // measure 17
0010
0000
0000
0000
,  // measure 18
0010
0000
0000
0000
,  // measure 19
0001
0000
0001
0000
,  // measure 20
0100
0000
0100
0000
,  // measure 21
0010
0000
0000
0000
,  // measure 22
0010
0000
0000
0000
,  // measure 23
1001
0000
0000
0000
,  // measure 24
0010
0000
0000
0000
,  // measure 25
1001
0000
0000
0000
,  // measure 26
0100
0000
0000
0000
,  // measure 27
1001
0000
0000
0000
,  // measure 28
1000
0000
0000
0000
,  // measure 29
1001
0000
0000
0000
,  // measure 30
0001
0000
0000
0000
,  // measure 31
1000
0000
1000
0000
,  // measure 32
0100
0000
0100
0000
,  // measure 33
0010
0000
0010
0000
,  // measure 34
0001
0000
0000
0000
,  // measure 35
0001
0000
0001
0000
,  // measure 36
0100
0000
0100
0000
,  // measure 37
0010
0000
0010
0000
,  // measure 38
1000
0000
0000
0000
,  // measure 39
0001
0000
0010
0000
,  // measure 40
0100
0000
1000
0000
,  // measure 41
0010
0000
0100
0000
,  // measure 42
0001
0000
0000
0000
,  // measure 43
1000
0000
0010
0000
,  // measure 44
0100
0000
0001
0000
,  // measure 45
0010
0000
0100
0000
,  // measure 46
1000
0000
0000
0000
,  // measure 47
0001
0000
0000
0000
,  // measure 48
1000
0000
0000
0000
,  // measure 49
0010
0000
0000
0000
,  // measure 50
0100
0000
0000
0000
,  // measure 51
0001
0000
0000
0000
,  // measure 52
0010
0000
0000
0000
,  // measure 53
0100
0000
0000
0000
,  // measure 54
1000
0000
0000
0000
,  // measure 55
1001
0000
0000
0000
;

//---------------dance-single - ----------------
#NOTES:
     dance-single:
     :
     Easy:
     6:
     0.240983,0.282861,0.082287,0.000000,0.000000,164.000000,156.000000,8.000000,0.000000,0.000000,0.000000,0.240983,0.282861,0.082287,0.000000,0.000000,164.000000,156.000000,8.000000,0.000000,0.000000,0.000000:
0000
0000
0000
0000
,
0000
0000
0000
0000
,
0000
0000
0000
0000
,
0000
0000
0000
0000
,
0000
0000
0000
0000
,
1000
1000
1000
0000
,
0001
0001
0001
0000
,
0100
0000
0100
0000
,
0010
0000
0010
0000
,
1000
0000
0001
0000
,
0100
0000
0000
0100
0000
0000
0100
0000
,
0001
0000
1000
0000
,
0100
0000
0000
0100
0000
0000
0100
0000
,
1000
0010
0001
0100
,
1000
1000
0001
0001
,
1000
0000
1100
0001
,
0100
0010
0100
0001
,
0010
0000
0101
0001
,
1000
0100
0100
0000
,
1000
0000
1010
1000
,
0001
0010
0001
0100
,
0001
0000
0011
0000
,
0001
1000
0100
0000
,
1000
0000
0000
1000
0000
0000
0000
0000
,
0001
0000
0000
0001
0000
0000
0000
0000
,
0100
0000
0000
0100
0000
0000
0000
0000
,
0010
0000
0000
0010
0000
0000
0000
0000
,
1000
0000
0000
1100
0000
0000
0000
0000
,
0001
0000
0000
0101
0000
0000
0000
0000
,
0100
0000
0000
0110
0000
0000
0000
0000
,
0010
0000
0000
0000
,
1000
1000
0001
0001
,
0100
0100
0010
0010
,
1000
0001
0100
0010
,
1000
1000
0001
0000
,
1000
1000
0100
0100
,
0010
0010
0001
0001
,
1000
0010
0100
0001
,
1000
0000
0001
0000
,
1000
1000
0010
0010
,
0100
0100
0001
0001
,
1000
0100
0010
0001
,
0100
0010
1000
0000
,
0001
0001
0010
0010
,
0100
0100
1000
1000
,
0001
0100
1000
0100
,
0001
0000
0000
0000
,
0001
0010
0100
1000
,
0010
1000
0100
0010
,
0001
0100
0010
0100
,
0001
1000
0100
0010
,
0001
1000
0001
0000
,
1000
0010
1000
0000
,
0001
0100
0010
0100
,
0001
0001
1000
1000
,
0110
0000
0000
0000
;

//---------------dance-single - ----------------
#NOTES:
     dance-single:
     :
     Medium:
     9:
     0.370290,0.396005,0.195431,0.000000,0.000000,252.000000,233.000000,19.000000,0.000000,0.000000,0.000000,0.370290,0.396005,0.195431,0.000000,0.000000,252.000000,233.000000,19.000000,0.000000,0.000000,0.000000:
0000
0000
0000
0000
,
0000
0000
0000
0000
,
0000
0000
0000
0000
,
0000
0000
0000
0000
,
0000
0000
0000
0000
,
1000
0000
1000
0000
1000
0000
0000
0001
,
0000
0001
0000
0001
0000
0000
0100
0100
,
0000
0000
0010
0000
0010
0000
0000
0100
,
0000
0001
1000
1000
,
0100
0100
0000
0000
0010
0010
0000
0000
,
0100
0100
0000
0010
0000
0000
0010
0000
,
0001
0001
0000
0000
1000
1000
0000
0000
,
0001
0001
0000
1000
0000
0000
1000
0000
,
0001
0000
0100
0000
0010
0100
0010
0000
,
1000
0010
1000
0000
0001
1000
0001
0000
,
1000
0000
1100
0000
0001
0100
0000
0010
,
0000
0010
0000
0100
0000
0001
0000
1000
,
0000
0100
0010
0000
0100
1000
0100
0010
,
0000
0001
1000
0000
0010
0000
0100
0000
,
0010
0000
0101
0000
1000
0010
0000
0100
,
0000
0001
0000
0010
0000
0100
0000
0010
,
0000
0001
1000
0000
0010
0000
0100
0001
,
0000
0001
0010
0100
0000
0010
0001
1000
,
0010
0010
0000
1001
0000
0100
0100
0000
,
0001
0001
0000
0110
0000
1000
1000
0000
,
0010
1000
0000
1100
0000
0100
0010
0000
,
0010
0001
0000
0101
0000
0100
0010
0000
,
1000
0001
0000
0101
0000
0001
1000
0000
,
0001
1000
0000
1010
0000
1000
0001
0000
,
0010
0100
0000
0110
0000
0100
0010
0000
,
0001
0001
0001
0001
0000
0100
0010
0000
,
1001
0110
0001
1000
,
0010
0000
1000
0000
0100
0000
0010
0001
,
0000
0001
0100
0010
0000
0010
1000
0100
,
0000
0100
1000
0001
0000
0000
0000
0000
,
0110
1001
1000
0001
,
0010
0000
0001
0000
1000
0000
0100
1000
,
0000
1000
0010
0100
0000
0100
0001
1000
,
0000
0001
0010
0100
1000
0001
0000
0000
,
1010
0101
1000
0001
,
0100
0000
0010
0000
1000
0000
0001
0100
,
0000
0010
0100
0001
0000
0010
0100
1000
,
0000
0010
0100
0001
0000
0000
0000
0000
,
1100
0011
1000
0001
,
0100
0000
0010
0000
0100
0000
0001
1000
,
0000
0100
1000
0010
0000
0100
0000
0110
,
0000
0010
0010
0010
0000
0000
0000
0000
,
0100
0000
0001
0000
1000
0000
0100
1000
,
0000
1000
0001
0000
0100
0000
0010
0100
,
0000
0100
0001
0000
0010
0000
0100
0010
,
0000
0010
0001
0000
1000
0000
0010
0000
,
0100
0000
0010
1000
0000
0100
0000
1000
,
0000
0001
0100
0000
0010
0100
0000
0001
,
0000
1000
0000
0100
0000
0100
0000
1000
,
0000
0001
0000
0100
0000
0100
0001
1000
,
1001
0000
0000
0000
;

//---------------dance-single - ----------------
#NOTES:
     dance-single:
     :
     Hard:
     13:
     0.561313,0.594007,0.349719,0.000000,0.190288,382.000000,348.000000,34.000000,0.000000,0.000000,0.000000,0.561313,0.594007,0.349719,0.000000,0.190288,382.000000,348.000000,34.000000,0.000000,0.000000,0.000000:
0000
0000
0000
0000
,
0000
0000
0000
0000
,
0000
0000
0000
0000
,
0000
0000
0000
0000
,
0000
0000
0000
0000
,
1000
1000
0001
0001
0100
0010
0100
0001
,
0000
0001
0010
0100
0000
0100
1000
0001
,
0000
1000
0010
0100
0001
0001
0000
1100
,
0000
1000
0010
0100
0000
0101
0000
0000
,
0001
0000
0001
0000
0100
0010
0100
0000
0001
0000
0001
0000
0010
0100
0010
0000
,
0001
0001
0000
0110
0000
1000
0001
0000
,
1000
0000
1000
0000
0100
0010
0100
0000
1000
0000
1000
0000
0010
0100
0010
0000
,
1000
1000
0000
0110
0000
0100
0010
0000
,
1001
0000
1000
1000
0010
0010
0100
0100
,
0001
0001
1000
0100
0001
0100
1000
0000
,
1100
0000
0000
0000
0011
0000
0000
0001
0100
0000
1000
0000
0100
0000
0010
0000
,
0000
0010
1000
0000
0001
0010
0100
1000
,
0000
0000
1000
0000
0001
0000
0000
0001
0010
0000
1000
0000
0010
0000
0100
0000
,
0000
0000
0100
0000
1000
0000
0000
0000
0001
0000
0100
0000
0010
0100
0010
0000
,
1000
0000
0000
0000
1100
0000
0000
0100
0010
0000
0001
0000
0100
0000
0010
0000
,
0000
0010
0100
0000
0001
1000
0100
0010
,
0000
0000
0010
0000
0100
0000
0000
1000
0010
0000
0100
0000
0010
0000
1000
0000
,
0000
0000
0001
0000
0100
0000
0000
0010
0100
0000
0001
0000
0010
0000
0000
0000
,
1100
0000
0001
0000
1000
0000
0101
0000
0000
0000
1000
0000
0010
0000
0100
0010
,
0100
0000
0000
0100
0010
0000
1001
0000
0000
0000
0001
0000
1000
0000
0100
1000
,
0010
0000
1000
0000
0001
0000
0011
0000
0000
0000
0001
0000
0100
0000
0001
1000
,
0100
0000
0000
0100
1000
0000
1010
0000
0000
0000
0010
0000
0100
0001
0100
0000
,
0110
0000
0010
0000
1000
0000
1100
0000
0000
0000
0100
0000
0010
0000
0001
1000
,
0001
0000
0000
0001
0100
0000
0101
0000
0000
0000
0001
0000
0010
0100
0010
0100
,
1000
0000
1000
0000
0010
0000
0110
0000
0000
0000
0100
0000
0001
0000
0010
0100
,
1000
0000
1000
0000
0001
0000
0001
0000
0000
0000
0100
0010
0100
0000
0100
0000
,
0101
0000
0000
0000
1010
0000
0000
1000
0100
0000
1000
0000
0010
0000
0100
0000
,
0000
0001
1000
0100
0000
1000
0010
1000
,
0000
0010
0001
0010
0000
0001
0100
0001
,
0000
0000
0100
0000
1000
0000
0100
0000
0000
0000
1000
0000
0001
0100
0001
0000
,
0011
0000
0000
0000
1100
0000
0000
0001
0100
0000
0001
0000
1000
0000
0010
0000
,
0000
0010
1000
0100
0010
0001
1000
0010
,
0000
0000
1000
0000
0100
0000
0000
0100
0010
0000
0001
0000
0100
0000
0010
0000
,
0000
0000
0100
0001
1000
0000
0100
1000
0001
0000
0110
0000
0000
0000
0000
0000
,
1010
0000
0000
0000
1100
0000
0000
0100
1000
0000
0010
0000
1000
0000
0100
0000
,
0000
0010
0001
0100
0000
0001
0010
0001
,
0000
0010
1000
0010
0000
1000
0100
1000
,
0000
0000
0100
0000
0001
0000
0100
0000
0000
0000
0001
0000
0010
0100
1000
0000
,
0011
0000
0000
0000
0101
0000
0000
0100
0001
0000
0010
0000
0001
0000
0100
0000
,
0000
0010
0010
0000
1000
0100
0010
0001
,
0000
0000
0100
0000
0010
0000
0000
0010
0001
0000
0010
0000
1000
0000
0001
0000
,
0000
0000
0100
0000
0100
0000
0100
0000
0000
0000
0010
1000
0001
0000
0000
0000
,
1001
1000
0100
0010
0001
0001
0000
1010
,
0000
0000
0001
0100
0010
0000
0100
0000
0001
0000
0001
0000
0000
0000
1100
0000
,
0000
0100
1000
0100
1000
0000
0010
0000
1000
0000
0001
0000
0100
0000
0100
0000
,
0000
0001
1000
0010
1000
0100
0001
0100
,
1000
0001
0100
0010
0000
0110
0000
1001
,
0000
0001
0010
0100
1000
0100
0001
0100
,
0000
1000
0010
0001
0000
1000
0100
0001
,
0000
0000
0011
0000
0000
0000
1100
0000
0000
0000
0010
0000
0100
0010
0100
0000
,
1001
0000
0000
0000
;
