#TITLE:EGOISM -Rebuild-;
#SUBTITLE:;
#ARTIST:HAMA topground;
#TITLETRANSLIT:;
#SUBTITLETRANSLIT:;
#ARTISTTRANSLIT:;
#GENRE:EGOIST CORE;
#CREDIT:;
#BANNER:EGOISM -Rebuild-.png;
#BACKGROUND:EGOISM -Rebuild--bg.png;
#LYRICSPATH:;
#CDTITLE:;
#MUSIC:EGOISM -Rebuild-.ogg;
#OFFSET:-0.008000;
#SAMPLESTART:24.761757;
#SAMPLELENGTH:11.999998;
#SELECTABLE:YES;
#DISPLAYBPM:155.000000;
#BPMS:0.000000=155.000000
,28.000000=77.500000
,30.000000=155.000000
,218.000000=77.500000
,220.000000=155.000000
,250.000000=77.500000
,251.000000=155.000000
;
#STOPS:60.500000=0.387000,
132.000000=0.387000,
139.000000=0.387000,
146.500000=0.194000,
149.000000=0.194000
;
#BGCHANGES:0.000=EGOISM -Rebuild-.mp4=1.000=0=0=1=====,
99999=-nosongbg-=1.000=0=0=0 // don't automatically add -songbackground-
;
#KEYSOUNDS:;
#ATTACKS:;

//---------------dance-single - ----------------
#NOTES:
     dance-single:
     :
     Challenge:
     18:
     1.004921,1.102272,0.277220,0.433155,1.464065,812.000000,780.000000,32.000000,50.000000,0.000000,0.000000,1.004921,1.102272,0.277220,0.433155,1.464065,812.000000,780.000000,32.000000,50.000000,0.000000,0.000000:
// measure 0
0000
0000
0000
0000
,  // measure 1
0000
0000
0000
0000
,  // measure 2
0000
0000
0000
0000
,  // measure 3
0000
0000
0000
0000
,  // measure 4
0001
0100
0001
0100
0003
0000
0010
0000
0110
0000
0000
0000
0000
0000
0001
0000
,  // measure 5
1000
0000
1000
0000
0001
0010
0000
0100
,  // measure 6
1000
0010
1000
0010
3000
0000
0010
0000
0110
0000
0000
0000
0001
0000
0000
0000
,  // measure 7
2001
0000
3200
0000
0310
0010
0010
0000
0001
0010
0000
0001
1000
0000
0001
0100
,  // measure 8
0000
0001
1000
0000
0001
0010
0100
0000
1000
0100
0000
1000
0001
0000
1000
0010
,  // measure 9
0000
1000
0001
1000
0100
0010
0001
0000
1000
0010
0000
0100
0010
0000
0100
0001
,  // measure 10
0000
1000
0100
0000
1000
0010
0100
0000
0001
0100
0000
0010
0100
0000
0010
1000
,  // measure 11
0000
0001
0010
0001
1000
0010
0100
0001
1000
0100
0010
0100
0010
0001
0000
1000
,  // measure 12
0010
0100
0010
0100
0001
0000
1000
0000
0001
0010
0100
0010
0100
1000
0000
0001
,  // measure 13
0100
0010
0100
0010
1000
0000
0001
1000
0001
0100
0010
1000
0001
0100
0010
1000
,  // measure 14
0001
0010
0100
1000
0001
0010
0100
1000
0020
0000
0000
0000
0000
0000
0000
0000
,  // measure 15
0000
0000
0030
0000
2002
0000
3003
0000
0001
0000
1000
0010
0100
0000
0001
0000
,  // measure 16
1300
0000
0000
0100
0000
0000
1000
0000
0000
0000
0000
0000
0010
0000
0000
0000
0000
0000
1000
0000
0100
0000
0010
0000
0001
0000
0000
1000
0000
0000
0010
0000
0000
0000
0000
0000
0100
0000
0000
0001
0000
0000
1000
0000
0000
0000
0000
0000
,  // measure 17
0001
0100
0010
1000
0001
0010
0001
0010
0000
0001
1000
0001
0100
0010
1000
0100
,  // measure 18
0010
0000
0001
0000
0010
0000
0001
0000
0000
0100
0000
0000
0010
0000
0000
0000
0000
0000
1000
0000
0000
0100
0000
0000
1000
0000
0000
0100
0000
0000
0000
0000
0000
1000
0000
0000
0001
0000
0000
1000
0000
0000
0010
0000
0000
0100
0000
0000
,  // measure 19
0001
0000
0010
0000
0001
0000
0010
0000
0000
0100
0000
0000
1000
0000
0000
0000
0000
0000
0001
0000
1000
0000
0001
0000
0100
0000
0000
0000
0000
0000
0001
0000
0010
0000
0100
0000
2000
0000
0000
0000
0000
0000
0000
0000
0000
0000
0000
0000
,  // measure 20
3010
0000
0000
0100
0000
0000
0010
0000
0000
0000
0000
0000
0100
0000
0000
0000
0000
0000
0001
0000
1000
0000
0001
0000
1000
0000
0000
0100
0000
0000
0010
0000
0000
0001
0000
0000
0100
0000
0000
0100
0000
0000
0010
0000
0000
0000
0000
0000
,  // measure 21
1000
0000
0000
0010
0000
0000
0100
0000
0001
0000
1000
0000
0001
0000
0000
0100
0000
0000
0001
0000
0000
0100
0000
0000
0010
0000
0000
0100
0000
0000
0010
0000
0000
1000
0000
0000
0100
0000
0000
0010
0000
0000
0001
0000
0000
2000
0000
0000
,  // measure 22
0000
0000
0000
0000
0000
0000
3010
0000
0000
0000
0000
0000
1000
0000
0000
0010
0000
0000
1000
0000
0100
0000
0010
0000
0001
0000
0000
0100
0000
0000
0010
0000
0000
0100
0000
0000
0001
0000
0000
0010
0000
0000
0100
0000
0000
1000
0000
0000
,  // measure 23
0010
3000
1010
0110
0102
0000
1003
0000
,  // measure 24
0001
0000
0000
0000
0010
0000
0000
0000
0100
0000
0000
0000
2100
0000
0000
0000
0000
0000
0000
0000
0000
0000
0000
0000
3031
0000
0000
0000
0100
0000
0000
0000
1000
0000
0000
0000
0100
0000
0000
0010
0000
0000
0100
0000
0000
0010
0000
0000
,  // measure 25
1000
0000
0100
0000
1000
0000
0100
0000
0000
0010
0000
0000
0001
0000
0000
0100
0000
0000
0001
0000
0000
0100
0000
0000
0010
0000
0000
1000
0000
0000
0100
0000
0000
0010
0000
0000
0002
0000
0000
0000
0000
0000
0000
0000
0000
0203
0000
0000
,  // measure 26
0000
0000
0000
0000
0000
0000
0310
0000
0000
0000
0000
0000
1000
0000
0000
0001
0000
0000
1000
0000
0100
0000
0010
0000
0001
0000
0000
0000
0000
0000
0100
0000
0000
0000
0000
0000
0101
0000
0000
0000
0000
0000
1000
0000
0000
0000
0000
0000
,  // measure 27
0001
0010
0100
0000
2200
0000
3300
0022
0000
0033
1001
0000
2001
0000
0000
0000
,  // measure 28
3010
0000
0000
0100
0000
0000
0010
0000
0000
0100
0000
0000
0001
0000
0000
0000
0000
0000
1000
0000
0100
0000
1000
0000
0100
0000
0000
0000
0000
0000
0010
0000
0001
0000
0010
0000
0001
0000
0000
0000
0000
0000
1000
0000
0010
0000
0100
0000
,  // measure 29
0001
0010
0100
1000
0002
0000
0000
0000
0020
0000
0030
0000
1000
0000
0000
2000
,  // measure 30
0000
0000
3003
0000
2001
0000
0000
0000
0020
0000
0330
0000
0001
0000
0000
0002
,  // measure 31
0000
3003
0101
0100
1000
0100
0020
0000
,  // measure 32
0000
1030
0100
0010
0100
0001
0100
1000
,  // measure 33
0020
0330
0000
0000
1010
0000
0010
0000
1000
0000
0200
0000
0000
0000
0310
0000
,  // measure 34
0100
0000
0001
0000
0100
0000
1000
0000
0010
0000
0100
0000
0002
0003
0000
0000
,  // measure 35
1001
1000
0100
0010
2000
0000
3010
0001
,  // measure 36
1000
0000
0010
0000
0100
0000
1000
0000
0100
0000
0002
0003
0011
0000
0010
0000
,  // measure 37
1000
0000
0010
0000
0002
0003
1010
0000
0010
0000
0001
0000
0010
0000
1000
0000
,  // measure 38
0100
0000
0010
0000
0001
0000
3003
0000
1100
0000
0001
0100
0010
0000
1000
0100
,  // measure 39
0010
0000
0001
1000
0000
0001
0100
0000
0020
0000
0001
0000
0230
0000
1000
0000
,  // measure 40
3301
0000
1000
0100
0000
0010
0001
0000
1000
0000
1200
0000
1300
0000
2010
0000
,  // measure 41
3001
0000
0000
0000
0000
0000
0201
0000
0000
0000
0000
0000
0301
0000
0000
0000
0000
0000
0012
0000
0000
0000
0000
0000
1003
0000
0000
0000
0000
0000
0001
0000
0000
0010
0000
0000
0100
0000
1000
0000
0100
0000
1000
0000
0000
0001
0000
0000
,  // measure 42
0100
0000
0020
0000
1030
0000
1100
0000
1001
0000
0001
0100
0010
0000
1000
0100
,  // measure 43
0010
0000
0001
0100
0000
0010
1000
0000
0002
0000
0013
0000
1001
0000
1001
0000
,  // measure 44
0002
0000
0000
0100
0000
0000
2003
0000
0000
3010
0000
0000
1001
0000
0000
0001
0000
0000
1000
0000
0100
0000
0010
0000
,  // measure 45
0001
0100
1000
0100
0010
1000
0002
0000
0000
0010
0000
0000
,  // measure 46
1000
0000
1000
0000
1003
0000
0000
0000
0001
0100
0010
0100
0001
0100
0010
0100
,  // measure 47
0000
0001
0010
0100
1000
0000
0001
1000
0001
0010
0100
0010
0001
0010
0100
0010
,  // measure 48
0000
0001
0100
0010
1000
0001
0010
0100
1000
0010
0100
0010
1000
0010
0100
0010
,  // measure 49
0000
1000
0100
0010
0001
0000
1000
0001
1000
0100
0010
0100
1000
0100
0010
0100
,  // measure 50
0000
1000
0010
0100
0001
1000
0001
0000
1300
0100
1000
0001
0100
0001
1000
0100
,  // measure 51
1000
0001
0100
0010
1000
0100
0010
0001
1000
0010
1000
0001
0010
0001
1000
0010
,  // measure 52
1000
0001
0010
0100
1000
0001
0100
0010
1000
0100
0010
0001
0100
0010
1000
0001
,  // measure 53
0010
0000
0000
0100
0000
0000
1000
0000
0000
0010
0000
0000
0100
0000
0000
0001
0000
0000
1000
0000
0000
0100
0000
0000
0010
0000
0001
0000
0010
0000
0001
0000
0000
1000
0000
0000
0010
0000
0000
0100
0000
0000
0001
0000
0000
0010
0000
0000
,  // measure 54
0100
0000
0000
0000
0000
0000
0000
0000
1000
0000
0000
0000
0000
0000
0000
0000
0100
0000
0000
0000
0000
0000
0000
0000
1000
0000
0000
0000
0000
0000
0000
0000
0000
0000
0000
0000
0010
0000
0000
0000
0000
0000
0000
0000
0000
0000
0000
0000
0100
0000
0000
0000
0000
0000
0000
0000
0000
0000
0000
0000
0001
0000
0000
0000
0000
0000
0000
0000
0000
0000
0000
0000
1000
0000
0000
0000
0000
0000
0000
0000
0000
0000
0000
0000
0100
0000
0000
0000
0000
0000
0000
0000
0000
0000
0000
0000
0020
0000
0000
0000
0000
0000
0000
0000
0000
0000
0000
0000
0000
0000
0000
0000
0000
0000
0000
0000
0000
0000
0000
0000
0200
0000
0000
0000
0300
0000
0300
0000
0000
0000
0000
0000
0000
0000
0000
0000
0000
0000
0000
0000
0000
0000
0000
0000
0200
0000
0000
0000
0000
0000
0000
0000
0300
0000
0000
0000
0300
0000
0000
0000
0000
0000
0000
0000
0000
0000
0000
0000
0200
0000
0000
0000
0000
0000
0000
0000
0000
0000
0000
0000
0330
0000
0000
0000
0000
0000
0330
0000
0000
0000
0000
0000
,  // measure 55
1001
0000
0000
0001
0000
0000
0100
0000
0000
0010
0000
0000
2010
0000
0000
0000
0000
0000
3001
0000
0000
1000
0100
1000
,  // measure 56
0010
0100
0001
1000
1100
0001
0100
0100
,  // measure 57
0001
0000
0100
0000
0010
0000
1000
0000
0000
0001
0000
0000
1000
0000
0100
0000
0010
0000
0001
0000
0000
1000
0000
0000
0001
0000
0000
0100
0000
0000
0010
0000
0000
0200
0000
0000
0000
0000
0000
0000
0000
0000
0310
0000
0000
0000
0000
0000
,  // measure 58
1000
0000
0100
0000
0010
0000
0001
0000
0000
1000
0000
0000
0001
0000
0100
0000
0010
0000
1000
0000
0000
0001
0000
0000
1000
0000
0000
0100
0000
0000
0010
0000
0000
0001
0000
0000
0100
0000
0000
0010
0000
0000
0130
0000
0000
0010
0000
0000
,  // measure 59
1000
0000
0000
0000
0000
0000
0100
0000
0000
0000
0000
0000
0001
0000
0000
0000
0000
0000
0100
0000
0000
0000
0000
0000
0010
0000
0000
0000
0000
0000
0000
0000
0000
0001
0000
0000
1000
0000
0000
0000
0000
0000
0001
0000
0100
0000
0001
0000
,  // measure 60
1000
0000
0100
0000
0010
0000
0001
0000
1000
0001
1000
0010
0100
0000
0001
1000
,  // measure 61
0001
0000
0010
0000
0100
0000
1000
0000
0000
0010
0000
0000
1000
0000
0100
0000
0010
0000
0001
0000
0000
0100
0000
0000
0010
0000
0000
1000
0000
0000
0001
0000
0000
2000
0000
0000
0000
0000
0000
0000
0000
0000
3010
0000
0000
0000
0000
0000
,  // measure 62
1000
0000
0100
0000
0010
0000
0001
0000
0000
1000
0000
0000
0001
0000
0010
0000
0100
0000
1000
0000
0000
0001
0000
0000
0200
0000
0000
0000
0000
0000
0320
0000
0000
0000
0000
0000
1330
0000
0000
0001
0000
0000
1000
0000
0000
0001
0000
0000
,  // measure 63
0100
0000
0000
0010
0000
0000
1000
0000
0000
0100
0000
0000
1000
0000
0000
0100
0000
0000
0010
0000
0000
0001
0000
0000
1000
0000
0000
0000
0010
0000
0000
0000
0100
0000
0000
0000
0001
0000
0000
0000
0000
0000
1000
0000
0100
0000
1000
0000
,  // measure 64
0100
0000
0000
0010
0000
0000
0001
0000
0100
0000
0001
0000
0100
0000
0000
0010
0000
0000
1000
0000
0000
0001
0000
0000
1000
0000
0100
0000
0010
0000
0001
0000
0000
1000
0000
0000
0001
0000
0000
0000
0100
0000
0000
0000
0010
0000
0000
0000
,  // measure 65
1000
0000
0100
0000
0010
0000
0001
0000
0100
0000
0010
0000
2000
0000
0000
0000
0000
0000
0000
0000
0000
0000
0000
0000
3001
0000
0000
0000
0010
0000
0000
0000
0100
0000
0000
0000
1000
0000
0000
0010
0000
0000
1000
0000
0100
0000
0010
0000
,  // measure 66
0001
0000
0030
0100
0000
0000
0010
0000
1000
0000
0001
0000
0010
0000
0000
0100
0000
0000
0010
0000
0000
0100
0000
0000
1000
0000
0010
0000
1000
0000
0010
0000
0000
0100
0000
0000
0001
0000
0000
0010
0000
0000
0100
0000
0000
0010
0000
0000
,  // measure 67
1000
0000
0000
0010
0000
0000
0100
0000
0000
0010
0000
0000
0001
0000
0000
0000
0000
0000
1000
0000
0000
0001
0000
0000
0100
0000
0000
0000
0100
0000
0000
0000
0100
0000
0000
0000
0010
0000
0000
1000
0000
0000
0001
0000
0010
0000
0100
0000
,  // measure 68
1000
0000
0000
0010
0000
0000
0100
0000
0001
0000
1000
0000
0100
0000
0000
0010
0000
0000
0001
0000
0000
1000
0000
0000
0010
0000
0100
0000
0010
0000
0100
0000
0000
0001
0000
0000
1000
0000
0100
0000
1000
0000
0100
0000
0000
0000
0000
0000
,  // measure 69
0010
0000
0001
0000
0010
0000
0001
0000
0000
0000
0000
0000
1000
0000
0010
0000
0100
0000
0001
0000
0000
0000
0000
0000
1000
0000
0100
0000
0010
0000
0001
0000
0000
0000
0000
0000
1000
0000
0000
0010
0000
0000
0100
0000
0000
0010
0000
0000
,  // measure 70
0100
0000
0000
0001
0000
0000
0000
0000
0000
1000
0000
0000
0100
0000
0000
0010
0000
0000
0100
0000
0000
0010
0000
0000
0001
0000
0100
0000
0010
0000
1000
0000
0000
0001
0000
0000
0000
0000
0000
0000
0000
0000
0000
0000
0000
0000
0000
0000
;

//---------------dance-single - ----------------
#NOTES:
     dance-single:
     :
     Hard:
     16:
     0.882400,1.010416,0.259893,0.415829,1.091552,713.000000,683.000000,30.000000,48.000000,0.000000,0.000000,0.882400,1.010416,0.259893,0.415829,1.091552,713.000000,683.000000,30.000000,48.000000,0.000000,0.000000:
// measure 0
0000
0000
0000
0000
,  // measure 1
0000
0000
0000
0000
,  // measure 2
0000
0000
0000
0000
,  // measure 3
0000
0000
0000
0000
,  // measure 4
1000
0100
1000
0100
0000
0000
0000
0000
0010
0000
0000
0000
0000
0000
0001
0000
,  // measure 5
0002
1003
1001
0000
,  // measure 6
0001
0100
0001
0100
0000
0000
0000
0000
0010
0000
0000
0000
1000
0000
0000
0000
,  // measure 7
2010
0000
3002
0000
3010
0010
0013
0000
0001
0100
0000
0001
0100
0000
0001
1000
,  // measure 8
0000
0001
0010
0000
0100
1000
0001
0000
1000
0010
0000
1000
0010
0000
1000
0001
,  // measure 9
0000
1000
0100
0010
0001
0100
0010
0000
1000
0100
0000
1000
0100
0000
0010
0001
,  // measure 10
0000
1000
0010
0000
0100
0001
1000
0000
0001
0010
0000
0001
0010
0000
0100
1000
,  // measure 11
0000
0001
0100
0010
1000
0100
0010
0000
0001
0010
0001
0010
0100
0000
1000
0010
,  // measure 12
1000
0010
0100
0001
1000
0000
0010
0000
1000
0100
1000
0100
0010
0000
0001
0100
,  // measure 13
0001
0100
0010
1000
0001
0000
0010
0000
0001
1000
0001
1000
0010
0100
0001
1000
,  // measure 14
0100
0010
0100
0010
0001
1000
0010
0100
0002
0000
0000
0000
0000
0000
0000
0000
,  // measure 15
0000
0000
0003
0000
2001
0000
0003
0000
3100
0000
1000
0010
0200
0000
0000
0000
,  // measure 16
0301
1000
0001
0000
0010
0000
0001
0100
0010
0100
0001
0000
1000
0100
0010
0000
,  // measure 17
0001
1000
0001
1000
0010
0100
0001
0200
0000
0000
0310
1000
0001
1000
0100
1000
,  // measure 18
0001
0010
0100
1000
0001
0000
1000
0010
0100
0020
0000
0000
0130
0001
1300
0001
,  // measure 19
0010
0100
1000
0001
0100
0000
0001
0100
0010
0000
1000
0100
0020
0000
0000
0000
,  // measure 20
0031
1000
0001
0000
0100
0000
0001
0100
0010
1000
0001
0000
1000
0100
1000
0000
,  // measure 21
0001
0100
0001
0100
0010
0000
1000
0001
0000
1000
0100
0010
0001
0000
0000
0011
,  // measure 22
0000
0000
1001
0000
1000
0000
0001
0100
0000
0001
0010
0100
1000
0000
0000
1010
,  // measure 23
0000
1001
0101
0110
1002
0000
0013
0000
,  // measure 24
0001
0000
0000
0000
0100
0000
0000
0000
0010
0300
0000
0000
1010
0000
0000
0000
0000
0000
0000
0000
0000
0000
0000
0000
0001
0000
0000
0000
1000
0000
0000
0000
0001
0000
0000
0000
0010
0000
0000
0100
0000
0000
0010
0000
0000
0000
0000
0000
,  // measure 25
0001
0100
0010
1000
0001
0000
1000
0000
0100
1000
0001
0100
0010
0000
0000
0100
,  // measure 26
0000
0000
0001
0000
1000
0100
1000
0100
0010
0000
0001
0000
0011
0000
1000
0000
,  // measure 27
0001
0100
0010
0000
1010
0000
0000
0110
0000
0000
0101
0000
2000
0000
0000
0000
,  // measure 28
3001
0000
0000
0000
1000
0000
0010
0100
0010
0100
0001
0010
0100
1000
0010
0100
,  // measure 29
0001
0000
1000
0001
2000
0000
0000
0000
0100
0000
0000
0000
0001
0000
0000
0002
,  // measure 30
0000
0000
3003
0000
1002
0000
0000
0000
0100
0000
0000
0000
1000
0000
0000
2000
,  // measure 31
0000
0000
3003
3003
0101
0000
0100
0000
0010
0000
1000
0000
0200
0000
0000
0000
,  // measure 32
0000
0310
0001
0010
0100
0010
1000
0010
,  // measure 33
0002
0003
0003
0000
1001
0000
0001
0000
0100
0000
0020
0000
0000
0000
0031
0000
,  // measure 34
0010
0000
0100
0000
0010
0000
1000
0000
0001
0000
0010
0000
0200
0300
0300
0000
,  // measure 35
1100
1000
0001
0100
0020
0300
0130
0100
,  // measure 36
1000
0000
1000
0000
0100
0000
0001
0000
1000
0000
0200
0300
0311
0000
0001
0000
,  // measure 37
1000
0000
0010
0000
0020
0030
1010
0000
1000
0000
0001
0000
0010
0000
0010
0000
,  // measure 38
0100
1000
0001
0000
1001
1000
0010
0100
,  // measure 39
0001
0000
1000
0100
0000
0100
0010
0000
0002
0000
0100
0000
2003
0000
0000
0000
,  // measure 40
3010
0000
1000
0100
0000
0010
0001
0000
0011
0000
2000
0000
3010
0000
0200
0000
,  // measure 41
0310
0000
0002
0000
0013
0000
0200
0000
0310
0000
1000
0100
0010
0001
1000
0010
,  // measure 42
0100
0000
0000
0020
0000
0000
2030
0000
0000
3001
3000
0000
1001
0000
0000
1000
0000
0000
0100
0000
0000
0010
0000
0000
,  // measure 43
0001
0000
1000
0010
0000
0010
0100
0000
0002
0000
1000
0000
0013
0000
0010
0000
,  // measure 44
0200
0000
0000
2300
0000
0000
3002
0000
0000
0103
0000
0000
0110
0000
0000
0000
0000
0000
0001
0000
0100
0000
0001
0000
,  // measure 45
1000
0100
1000
0001
0010
0100
2000
0000
0000
3020
0000
0000
,  // measure 46
0100
0000
0100
0000
0130
0000
0000
0000
0101
0000
1000
0100
1000
0001
0100
0010
,  // measure 47
1000
0000
0100
0000
0010
0000
0001
1000
0010
0000
0100
0001
0100
0010
1000
0100
,  // measure 48
0010
0000
0001
0000
0100
0010
1000
0000
1010
0000
0001
0010
0001
1000
0010
0100
,  // measure 49
0001
0000
0010
0000
0100
0000
1000
0001
0100
0000
0010
1000
0010
0100
0001
0010
,  // measure 50
0100
0000
1000
0000
0010
0100
0010
0000
1000
0100
1000
0001
0100
0010
1000
0000
,  // measure 51
0001
0100
0001
1000
0100
0010
0001
0000
1000
0010
0100
0001
0010
0100
1000
0000
,  // measure 52
0001
0100
0010
1000
0100
0010
0001
0000
1000
0010
1000
0001
0010
0001
1000
0100
,  // measure 53
0010
0001
0100
0010
1000
0001
0010
0100
1000
0010
1000
0010
0100
0001
0100
0001
,  // measure 54
1000
0000
0000
0000
0000
0000
0000
0000
0000
0000
0000
0000
0100
0000
0000
0000
0000
0000
0000
0000
0000
0000
0000
0000
0010
0000
0000
0000
0000
0000
0000
0000
0000
0000
0000
0000
0001
0000
0000
0000
0000
0000
0000
0000
0000
0000
0000
0000
0100
0000
0000
0000
0000
0000
0000
0000
0000
0000
0000
0000
0010
0000
0000
0000
0000
0000
0000
0000
0000
0000
0000
0000
1000
0000
0000
0000
0000
0000
0000
0000
0000
0000
0000
0000
0001
0000
0000
0000
0000
0000
0000
0000
0000
0000
0000
0000
2000
0000
0000
0000
0000
0000
0000
0000
0000
0000
0000
0000
0000
0000
0000
0000
0000
0000
0000
0000
0000
0000
0000
0000
0002
0000
0000
0000
0003
0000
0003
0000
0000
0000
0000
0000
0000
0000
0000
0000
0000
0000
0000
0000
0000
0000
0000
0000
0002
0000
0000
0000
0000
0000
0000
0000
0003
0000
0000
0000
0003
0000
0000
0000
0000
0000
0000
0000
0000
0000
0000
0000
0002
0000
0000
0000
0000
0000
0000
0000
0000
0000
0000
0000
3003
0000
0000
0000
0000
0000
0000
0000
0000
0000
0000
0000
,  // measure 55
1010
0000
0010
0000
0100
0000
0001
0000
2000
0000
0000
0000
3001
0000
0010
0100
,  // measure 56
0010
0001
1000
0010
2010
0000
3001
0001
,  // measure 57
1000
0100
0310
0100
1000
0010
0100
0010
1000
0100
0010
0002
0000
0000
1003
0000
,  // measure 58
0001
0100
0010
0100
0001
0010
0100
0010
0001
0100
0010
2000
0000
0000
3001
0000
,  // measure 59
0101
0000
0100
0000
0010
0000
1000
0000
0001
0000
0000
1000
0100
0000
1000
0001
,  // measure 60
1000
0000
0010
0000
0100
0000
0100
0000
0001
0010
0000
0100
1000
0000
0000
0000
,  // measure 61
0001
0100
0010
1000
0001
0010
0100
1000
0020
0000
0000
0230
0000
0000
0301
0000
,  // measure 62
1000
0100
0010
0001
1000
0010
0100
0001
2000
0000
3002
0000
0103
0010
0100
0010
,  // measure 63
0000
0000
0000
0000
0000
0000
1000
0000
0000
0010
0000
0000
1000
0000
0000
0001
0000
0000
0010
0000
0000
0001
0000
0000
1000
0000
0000
0100
0000
0000
0010
0000
0000
0001
0000
0000
0000
0000
0000
0000
0000
0000
1000
0000
0010
0000
1000
0000
,  // measure 64
0010
0000
0000
0000
0000
0000
0100
0000
0001
0000
0100
0000
0301
0000
0000
0000
0000
0000
1000
0000
0000
0000
0000
0000
0001
0000
0000
0010
0000
0000
0100
0000
0000
1000
0000
0000
0010
0000
0000
0100
0000
0000
0010
0000
0000
0100
0000
0000
,  // measure 65
0000
0000
0000
0000
0000
0000
0001
0000
0000
0100
0000
0000
0001
0000
0000
1000
0000
0000
0100
0000
0000
1000
0000
0000
0001
0000
0000
0010
0000
0000
0100
0000
0000
1000
0000
0000
0000
0000
0000
0000
0000
0000
0001
0000
0100
0000
0001
0000
,  // measure 66
0100
0000
0000
0000
0000
0000
0010
0000
1000
0000
0010
0000
1000
0000
0000
0000
0000
0000
0001
0000
0000
0000
0000
0000
1000
0000
0000
0100
0000
0000
0010
0000
0000
0001
0000
0000
1000
0000
0000
0010
0000
0000
1000
0000
0000
0010
0000
0000
,  // measure 67
0100
0000
0000
0001
0000
0000
0100
0000
0000
0001
0000
0000
1000
0000
0000
0000
0000
0000
0100
0000
0000
0000
0000
0000
1000
0000
0000
0000
0001
0000
0000
0000
1000
0000
0000
0000
0010
0000
0000
0000
0000
0000
1000
0000
0100
0000
1000
0000
,  // measure 68
0100
0000
0000
0000
0000
0000
0010
0000
0001
0000
0010
0000
0001
0000
0000
0000
0000
0000
1000
0000
0000
0010
0000
0000
0100
0000
0000
0001
0000
0000
1000
0000
0000
0000
0000
0000
0001
0000
0010
0000
0001
0000
0010
0000
0000
0000
0000
0000
,  // measure 69
0001
0000
0000
0100
0000
0000
0010
0000
0000
0000
0000
0000
1000
0000
0010
0000
1000
0000
0010
0000
0000
0000
0000
0000
1000
0000
0000
0100
0000
0000
0010
0000
0000
0000
0000
0000
0001
0000
0000
0100
0000
0000
0010
0000
0000
0100
0000
0000
,  // measure 70
0010
0000
0000
1000
0000
0000
0000
0000
0000
0000
0000
0000
0001
0000
0000
0010
0000
0000
0100
0000
0000
1000
0000
0000
0010
0000
0100
0000
0010
0000
0100
0000
0000
0001
0000
0000
0000
0000
0000
0000
0000
0000
0000
0000
0000
0000
0000
0000
;

//---------------dance-single - ----------------
#NOTES:
     dance-single:
     :
     Medium:
     14:
     0.685623,0.734848,0.268556,0.519787,0.511123,554.000000,523.000000,31.000000,60.000000,0.000000,0.000000,0.685623,0.734848,0.268556,0.519787,0.511123,554.000000,523.000000,31.000000,60.000000,0.000000,0.000000:
0000
0000
0000
0000
,
0000
0000
0000
0000
,
0000
0000
0000
0000
,
0000
0000
0000
0000
,
0001
0100
0001
0100
0000
0000
0000
0000
0101
0000
0000
0000
0000
0000
0000
0000
,
1000
0010
1010
0000
,
1000
0100
1000
0100
0000
0000
0000
0000
1100
0000
0000
0000
0000
0000
0000
0000
,
0002
0000
2003
0000
3010
0010
0010
0000
1000
0100
0000
1000
3100
0000
1000
0020
,
0000
0000
0130
0000
0001
0000
1000
0000
0001
0010
0000
0001
0010
0000
0001
0200
,
0000
0000
0310
0000
1000
0000
0001
0000
1000
0100
0000
0010
0100
0000
1000
0020
,
0000
0000
0130
0000
0001
0000
1000
0000
0001
0010
0000
0100
0010
0000
0001
0200
,
0000
0000
0310
0000
1000
0000
0001
0000
0101
0000
0000
0100
0000
0000
0001
1000
,
0001
0000
0000
0010
0000
0000
0100
1000
0100
0000
0000
1000
0000
0000
0001
0100
,
0001
0000
0000
1000
0000
0000
0100
0000
1000
0001
1000
0000
0010
0000
0100
0000
,
0001
1000
0001
0000
0010
0000
0100
0000
2000
0000
0000
0000
0000
0000
0000
0000
,
0000
0000
3000
0000
0102
0000
0000
0000
1003
0000
0010
0100
0010
0000
0000
0000
,
1000
0000
0100
0000
0020
0000
0031
1000
0001
0000
0020
0000
0130
0000
1000
0000
,
0001
0000
0000
0000
1000
0010
1000
0010
0000
0000
0100
0010
0100
0000
0001
0000
,
1000
0000
0001
0000
0000
0000
0001
0010
0001
0010
0000
0000
0100
0010
0100
0000
,
1000
0001
0101
0000
1010
2001
0000
3001
,
0100
0000
0010
0000
0200
0000
0301
1000
0001
0000
0200
0000
0310
0000
1000
0000
,
0001
0000
0000
0000
2000
0000
3100
0000
0002
0000
0103
0000
0010
0000
0001
0100
,
0000
0010
1000
0000
0002
0000
0103
0000
2000
0000
3100
0000
0010
0000
1000
0100
,
0000
0010
0001
0000
0011
0000
0011
0000
2001
0000
0000
0000
3010
0000
0000
0000
,
1000
0000
0001
0000
1000
0000
0001
0000
0000
0000
0000
0000
1000
0000
0100
0000
0010
0000
0001
0000
0000
0100
0000
0000
,
0010
0000
1000
0000
0001
0100
0001
0100
0000
0000
0010
0100
0010
0000
1000
0000
,
0001
0000
1000
0000
0000
0000
1000
0100
1000
0100
0000
0000
0010
0100
0010
0000
,
0002
0000
0000
0000
1003
0000
0000
1010
0000
0000
0101
0000
2000
0000
0000
0000
,
3001
0010
0001
0010
0000
0000
0001
1000
0001
1000
0000
0000
0001
0000
0100
0000
,
0010
0100
0010
0000
2000
0000
0000
0000
0010
0000
0000
0000
0002
0000
0000
0000
,
3003
0002
0010
2000
,
3003
0000
1010
0010
0100
0001
2000
0000
,
0000
3100
0010
0100
0001
0100
1000
0010
,
0200
0300
0000
0000
0101
0000
0001
0000
1000
0000
0200
0000
0000
0000
0310
0000
,
1000
0000
0010
0000
0100
0000
1000
0000
0001
0000
0100
0000
0020
0030
0000
0000
,
1010
1000
0100
0010
0002
0000
0103
0013
,
0100
0000
1000
0000
0100
0000
0001
0000
0010
0000
0020
0030
0011
0000
0001
0000
,
0100
0000
0010
0000
0020
0030
1010
0000
1000
0000
0100
0000
0010
0000
0010
0000
,
0001
1000
0001
0000
0011
0010
0100
1000
,
0020
0000
0000
0230
0000
0000
0301
0000
2000
0000
0100
0000
3002
0000
0000
0000
,
0203
0000
0310
0010
1010
0002
0000
2003
,
0000
3200
0000
0310
0001
1030
0010
0010
,
0100
0001
0010
0100
1200
0000
1300
0001
,
0200
0000
0000
0320
0000
0000
1030
0000
0002
0000
0000
0000
0013
0000
0010
0000
,
3100
1000
0010
0100
0101
0000
1000
0100
,
0001
0100
1000
0010
0200
0000
0302
0000
,
1000
0000
1000
0000
1003
0000
0000
0000
0001
0100
0000
0100
0010
0000
1000
0100
,
0000
0100
0010
0000
0001
0000
1000
0000
0001
0010
0000
0010
0100
0000
1000
0010
,
0000
0010
0100
0000
0001
0000
1000
0000
0001
0100
0000
0100
0010
0000
0010
1000
,
0000
1000
0001
0000
0010
0000
0100
0000
1000
0010
0000
0010
0100
0000
0100
0001
,
0000
0001
1000
0000
0100
0000
0010
0000
0001
0000
1000
0010
0000
0000
1010
0000
,
1000
0000
0001
0010
0000
0000
0011
0000
0001
0000
1000
0100
0000
0000
1100
0000
,
1000
0000
0001
0100
0000
0000
0101
0000
0001
0000
1000
0000
0100
0000
0010
0000
,
0001
1000
0001
0000
0100
0000
0010
0000
1000
0000
0100
0000
0001
0000
0100
0000
,
1000
0000
0010
0000
0100
0010
0100
0000
0002
0000
1000
0000
1000
0000
1003
0000
,
0001
0100
1000
0100
0020
0000
1030
0100
,
0001
0100
1000
0010
0100
0001
1000
0000
,
0001
0100
0001
0000
0100
0001
0100
0000
0010
0000
0000
0010
0000
0000
0010
0000
,
1000
0100
1000
0000
0100
1000
0100
0000
0010
0000
0000
0010
0000
0000
0010
0000
,
0001
0000
0001
0000
0100
0000
0100
0000
0010
0000
0000
1000
0001
0000
1000
0000
,
0100
0000
0100
0000
0010
0000
0001
0000
1000
0010
0000
0010
0100
0000
0001
0000
,
1000
0100
1000
0000
0001
0100
0001
0000
0200
0000
0000
0320
0000
0000
1030
0000
,
0001
0010
0001
0000
1000
0010
1000
0000
0002
0000
2003
0000
3001
0010
0001
0010
,
0000
0000
0001
0000
0100
0000
0010
0000
1000
0001
1000
0000
0000
0000
0001
0100
,
0001
0000
0100
0000
0010
0000
1000
0000
0001
1000
0001
0000
1003
0100
1000
0100
,
0000
0000
1000
0000
0010
0000
0100
0000
0001
1000
0001
0000
0000
0000
1000
0010
,
1000
0000
0010
0000
0100
0000
0001
0000
1000
0001
1000
0000
0001
0010
0001
0010
,
0001
0000
1000
0000
1020
0000
0000
0000
0130
0001
0100
0000
0001
0000
1000
0100
,
1000
0000
0001
0010
0001
0000
1000
0000
0010
0100
0010
0000
2020
0000
3030
0000
,
2002
0000
3333
0000
0022
0000
0033
0000
2002
0000
3003
0000
0001
0000
1000
0010
,
1000
0010
0000
0000
0100
0010
0100
0000
0001
0010
0100
1000
0000
0000
0000
0000
;

//---------------dance-single - ----------------
#NOTES:
     dance-single:
     :
     Easy:
     11:
     0.509886,0.550649,0.233904,0.467808,0.043316,412.000000,385.000000,27.000000,54.000000,0.000000,0.000000,0.509886,0.550649,0.233904,0.467808,0.043316,412.000000,385.000000,27.000000,54.000000,0.000000,0.000000:
0000
0000
0000
0000
,
0000
0000
0000
0000
,
0000
0000
0000
0000
,
0000
0000
0000
0000
,
1000
0001
2000
0000
3100
0000
0000
0000
,
1000
0100
0010
0000
,
0001
1000
0002
0000
0103
0000
0000
0000
,
2002
0000
0000
3003
0101
0000
0101
0000
,
0100
0001
1000
0000
1100
0000
1100
0000
,
0100
1000
0001
0000
0011
0000
0011
0000
,
0010
0001
1000
0000
1010
0000
1010
0000
,
0010
1000
0001
0000
1000
0100
1000
0100
,
0010
0001
1000
0000
0001
0100
0001
0100
,
0010
1000
0001
0000
1000
0100
0010
0000
,
0001
0100
0010
0000
2002
0000
0000
0000
,
0000
3003
0101
0000
1000
0100
1000
0000
,
0001
0100
0020
0000
1030
0002
0000
0013
,
0010
0000
0001
0100
0010
1000
0100
0010
,
0001
1000
0000
0001
0100
0001
1000
0100
,
0010
0000
0012
0000
1003
2000
0000
0000
,
3010
0100
0002
0000
1003
3200
0000
0310
,
0001
0000
1000
0010
1000
0010
0001
0010
,
1000
0000
0001
0010
0001
0010
1000
0010
,
0001
0000
1000
0001
1001
0000
0001
0100
,
0010
1000
0000
0001
0010
0001
1000
0100
,
0010
0000
0001
1000
0010
0100
0001
1000
,
0100
0010
0002
0000
1003
0000
0001
0100
,
0010
0000
0000
0000
1000
0000
0000
0010
0000
0000
1002
0000
0000
0000
0000
0000
,
0013
0000
0001
0100
0010
1000
0100
0010
,
0001
2001
0010
0002
,
3003
1002
0010
2000
,
3003
0000
0001
0001
0100
0010
0200
0000
,
0000
0310
1000
0001
1000
0000
0001
0010
,
0200
0300
0000
0000
1000
0000
0100
0000
1000
0000
0002
0000
0000
0000
0103
0000
,
0010
0000
0100
0000
0002
0000
0000
0000
0013
0000
0100
0000
2000
3000
0000
0000
,
0001
0100
0001
1000
0010
0000
1000
0100
,
1000
0000
0001
0000
0010
0000
0000
0000
0001
0000
0200
0300
0000
0000
0010
0000
,
1000
0000
0001
0000
2000
3000
0100
0000
0010
0000
0100
0000
1000
0000
0001
0000
,
0100
0010
1000
0000
0102
0000
2003
0000
,
3100
0000
0000
0100
0000
0000
0100
0000
0020
0000
0000
0000
0032
0000
0000
0000
,
1003
0010
0100
0000
2010
0000
3002
0000
,
0013
0000
0000
0010
0000
0000
0010
0000
0200
0000
0000
0000
2300
0000
0000
0000
,
3001
0100
0010
0000
2001
0000
3020
0000
,
1030
0100
0010
0001
0200
0000
0310
0010
,
2000
0000
3001
0000
0102
0000
1003
0100
,
1000
0100
1000
0000
2002
0000
0000
0000
,
0000
0000
3003
0000
0001
0100
1000
0100
,
0001
0000
0101
0000
1000
0100
0001
0100
,
1000
0000
1100
0000
0001
0010
1000
0010
,
0001
0000
0011
0000
1000
0010
0001
0010
,
1000
0000
1010
0000
0001
0100
0001
0100
,
1000
0100
0001
0000
1000
0100
1000
0100
,
0001
0100
1000
0000
0001
0100
0010
1000
,
0100
0010
0001
1000
0010
0100
0001
0010
,
0100
1000
0010
0100
0002
1000
1000
1003
,
2001
0000
3100
0010
0002
0000
0103
0000
,
0001
1000
0001
0010
0020
0000
0130
0000
,
1000
0000
0100
0000
1000
0000
0100
0000
0010
0000
0000
0010
0000
0000
0010
0000
,
0001
0000
0100
0000
0001
0000
0100
0000
0010
0000
0000
0010
0000
0000
0010
0000
,
2000
0000
3100
0010
0002
0000
0103
0000
,
0001
1000
0001
0020
0000
0000
0130
0000
,
1000
0000
0100
0000
1000
0000
0100
0000
0010
0000
0000
0010
0000
0000
0010
0000
,
0001
0100
0001
0100
0020
0000
1030
0100
,
1030
0001
0100
0001
0010
0010
0000
0001
,
0100
0010
2000
0000
3001
0000
0001
0010
,
0001
1000
0010
1000
0100
0100
0000
1000
,
0010
0100
0002
0000
1003
0000
0001
0100
,
1000
0100
0010
1000
0100
0010
0000
0001
,
1000
0010
0010
0000
1001
0000
2000
0000
,
3020
0000
0230
0000
0302
0000
1003
0100
,
0010
0000
0001
1000
0001
0100
0000
0000
;

//---------------dance-single - ----------------
#NOTES:
     dance-single:
     :
     Beginner:
     6:
     0.251230,0.305916,0.043316,0.129947,0.012995,203.000000,198.000000,5.000000,15.000000,0.000000,0.000000,0.251230,0.305916,0.043316,0.129947,0.012995,203.000000,198.000000,5.000000,15.000000,0.000000,0.000000:
0000
0000
0000
0000
,
0000
0000
0000
0000
,
0000
0000
0000
0000
,
0000
0000
0000
0000
,
0001
0000
0000
0000
,
0100
0100
0100
0000
,
0010
0000
0000
0000
,
2002
3003
1000
0100
,
1000
0000
0001
0100
,
0001
0000
1000
0010
,
1000
0000
0001
0010
,
0001
0000
1000
0100
,
0010
0010
0001
0100
,
0010
0010
1000
1000
,
0001
0001
0020
0000
,
0030
1001
0000
0001
,
0000
1000
0010
0100
,
0000
0010
0010
0010
,
0000
0100
0100
0100
,
0000
0001
0010
0100
,
0000
1000
1000
0001
,
0000
1000
0100
0010
,
0001
1000
0100
0010
,
0001
1000
0000
0010
,
0000
0100
0000
0001
,
0000
1000
1000
0001
,
0001
0010
0000
0100
,
0000
1000
0100
1000
,
0000
0001
0100
0001
,
0000
2000
0000
0000
,
3000
0002
0000
0000
,
0003
0010
0010
0001
,
0000
1000
1000
0010
,
0020
0030
0000
0000
1000
0000
0000
0000
1000
0000
0000
0000
0100
0000
0000
0000
,
0000
0000
0000
0000
0010
0000
0000
0000
0010
0000
0000
0000
0002
0003
0000
0000
,
1000
1000
0001
0000
,
0001
0000
0001
0000
0100
0000
0000
0010
,
0000
0000
0000
0000
0020
0030
0000
0000
0100
0000
0000
0000
0000
0000
0100
0000
,
0000
0100
1001
0000
,
0001
0000
1000
0100
,
0010
0000
0001
0100
,
0001
0100
0010
0010
,
0010
0000
1000
0100
,
0010
0000
0001
1000
,
0010
0000
1000
0001
,
0100
0010
2000
0000
,
0000
3000
0001
0010
,
0001
0010
0100
1000
,
0100
0000
1000
0010
,
1000
0010
0100
0001
,
0100
0000
0001
0010
,
0100
1000
0001
0100
,
0010
1000
0010
0010
,
0100
0100
2002
0000
,
0000
3003
0000
0000
,
1000
0100
0010
0000
,
0010
0010
0001
0000
,
1000
0001
0100
0100
,
0001
1000
0100
0100
,
1000
0001
0100
0000
,
0100
0100
0010
0000
,
1000
0010
0100
0001
,
1000
0100
0010
0001
,
0001
0010
0000
0100
,
0100
1000
0000
0001
,
0001
0100
0000
0010
,
0010
1000
0000
1000
,
0100
0010
0010
0001
,
0100
0010
0010
2000
,
3000
0002
0003
2002
,
0000
0000
0000
0000
0000
3003
0000
0000
;

//---------------dance-double - ----------------
#NOTES:
     dance-double:
     :
     Challenge:
     18:
     0.977694,1.041035,0.268556,0.389840,1.394761,790.000000,759.000000,31.000000,45.000000,0.000000,0.000000,0.977694,1.041035,0.268556,0.389840,1.394761,790.000000,759.000000,31.000000,45.000000,0.000000,0.000000:
00000000
00000000
00000000
00000000
,
00000000
00000000
00000000
00000000
,
00000000
00000000
00000000
00000000
,
00000000
00000000
00000000
00000000
,
00010000
00000010
00010000
00000010
00000000
00000000
00000000
00000000
00001010
00000000
00000000
00000000
00000000
00000000
00000001
00000000
,
00000010
00000010
00001100
00010000
,
00001000
01000000
00001000
01000000
00000000
00000000
00000000
00000000
01010000
00000000
00000000
00000000
10000000
00000000
00000000
00000000
,
10020000
00000000
00230000
00000000
00001000
00001000
00301000
00000000
00010000
00001000
00000000
00010000
00000010
00000000
00010000
00000100
,
00000000
00001000
00000001
00000000
00000100
00000010
00010000
00000000
00001000
00010000
00000000
00001000
00100000
00000000
00001000
01000000
,
00000000
00010000
01000000
00010000
10000000
01000000
00100000
00001000
00010000
00000100
00000000
00000100
00000010
00000000
00000001
00000100
,
00000000
00000100
00000010
00000000
00001000
00000100
00010000
00000000
00001000
00100000
00000000
00100000
00010000
00000000
10000000
00100000
,
00000000
10000000
00010000
10000000
01000000
00100000
00010000
01000000
00001000
00100000
01000000
00100000
01000000
00010000
00000000
00001000
,
00000010
00000100
00000010
00000100
00001000
00000000
00000100
00010000
00001000
01000000
00100000
01000000
00100000
00010000
00000000
00001000
,
00000100
00000010
00000100
00000010
00001000
00000000
00000001
00001000
00000001
00000100
00000010
00001000
00000010
00001000
00000100
00010000
,
00001000
00100000
00010000
01000000
00010000
00100000
01000000
10000000
00200000
00000000
00000000
00000000
00000000
00000000
00000000
00000000
,
00000000
00000000
00300000
00000000
20010000
00000000
00000000
00000000
30100000
00000000
01000000
00010000
00200000
00030000
00000000
00000000
,
00301000
00000000
00000000
00010000
00000000
00000000
00001000
00000000
00000000
00000000
00000000
00000000
00020000
00000000
00000000
00000000
00000000
00000000
00030010
00000000
00000100
00000000
00000010
00000000
00000100
00000000
00000000
00000001
00000000
00000000
00001000
00000000
00000000
00000000
00000000
00000000
00000001
00000000
00000000
00000010
00000000
00000000
00000100
00000000
00000000
00000000
00000000
00000000
,
00001000
00000001
00001000
00000001
00000100
00000010
00001000
00000010
00010000
00000100
00010000
00000100
00010000
00000000
00001000
01000000
,
00000000
00000000
00000000
01000000
00000000
00000000
00100000
00000000
00000000
00000000
00000000
00000000
10000000
00000000
00000000
00010000
00000000
00000000
10000000
00000000
01000000
00000000
10000000
00000000
01000000
00000000
00000000
00100000
00000000
00000000
00010000
00000000
00000000
01000000
00000000
00000000
00100000
00000000
00000000
10000000
00000000
00000000
00010000
00000000
00000000
10000000
00000000
00000000
,
00100000
00000000
01000000
00000000
00100000
00000000
01000000
00000000
00000000
00010000
00000000
00000000
00100000
00000000
00000000
00000000
00000000
00000000
00001000
00000000
01000000
00000000
00001000
00000000
00010000
00000000
00000000
00300000
00000000
00000000
00010000
00000000
00000100
00000000
00010000
00000000
00001000
00000000
00000000
00000000
00000000
00000000
00000000
00000000
00000000
00000000
00000000
00000000
,
00010000
00001000
00010000
00000000
00000020
00000000
00010030
00001000
00010000
00001000
00100000
00000000
00010000
10000000
00010000
00000000
,
10000000
00100000
10000000
00100000
01000000
00010000
10000000
00010000
00100000
01000000
10000000
00010000
01000000
00000000
00000000
01001000
,
00000000
00000000
00000000
00000000
00000000
00000000
00011000
00000000
00000000
00000000
00000000
00000000
00010000
00000000
00000000
00000100
00000000
00000000
00001000
00000000
00000001
00000000
00001000
00000000
00000001
00000000
00000000
00000100
00000000
00000000
00000010
00000000
00000000
00001000
00000000
00000000
00000001
00000000
00000000
00000000
00000000
00000000
00000010
00000000
00000000
00000000
00000000
00000000
,
00001001
00000000
00000000
00000000
00000101
00000000
00000110
00000000
00001010
00000000
00000000
00000000
00010000
00000100
00010000
00000100
,
00010000
00000000
00000000
00000000
00001000
00000000
00000000
00000000
01000000
00000000
00000000
00000000
00100000
00000000
00000000
00000000
00000000
00000000
10000000
00000000
00000000
00010000
00000000
00000000
10000000
00000000
00000000
00000000
01000000
00000000
00000000
00000000
00100000
00000000
00000000
00000000
00010000
00000000
00000000
01000000
00000000
00000000
00010000
00000000
00000000
10000000
00000000
00000000
,
00100000
00000000
01000000
00000000
00100000
00000000
01000000
00000000
00000000
00010000
00000000
00000000
00100000
00000000
00000000
00000000
00000000
00000000
00001000
00000000
00000000
00000000
00000000
00000000
00010000
00000000
00000000
00000010
00000000
00000000
00000100
00000000
00000000
00000001
00000000
00000000
00001000
00000000
00000000
00000000
00000000
00000000
00000001
00000000
00000000
00000010
00000000
00000000
,
00000000
00000000
00000000
00000100
00000000
00000000
00001000
00000000
00000000
00000000
00000000
00000000
00000001
00000000
00000000
00000100
00000000
00000000
00000001
00000000
00000010
00000000
00000100
00000000
00001000
00000000
00000000
00000000
00000000
00000000
00000010
00000000
00000000
00010000
00000000
00000000
00001000
00000000
00000000
00000000
00000000
00000000
00100000
00000000
00000000
00000000
00000000
00000000
,
00010000
10000000
00010000
00000000
01010000
00000000
00000000
01100000
00000000
00000000
10100000
00000000
20010000
00000000
00000000
00000000
,
31030000
00000000
00000000
00100000
00000000
00000000
01000000
00000000
00000000
00100000
00000000
00000000
00010000
00000000
00000000
00000000
00000000
00000000
10000000
00000000
00100000
00000000
01000000
00000000
00010000
00000000
00000000
00000000
00000000
00000000
00100000
00000000
00001000
00000000
00100000
00000000
00001000
00000000
00000000
00000000
00000000
00000000
00010000
00000000
00000010
00000000
00010000
00000000
,
00000010
00000000
00000000
00000000
00000000
00000000
00001000
00000000
00000100
00000000
00000010
00000000
00000002
00000000
00000000
00000000
00000000
00000000
00000000
00000000
00000000
00000000
00000000
00000000
00000020
00000000
00000000
00000000
00000000
00000000
00000030
00000000
00000000
00000000
00000000
00000000
00001000
00000000
00000000
00000000
00000000
00000000
00000000
00000000
00000000
00002000
00000000
00000000
,
00000000
00000000
00003003
00000000
00002001
00000000
00000000
00000000
00000020
00000000
00000030
00000030
00000001
00000000
00000000
00000002
,
00000000
00003003
00000101
00000100
00001000
00010000
00200000
00000000
,
00000000
01300000
00100000
10000000
00100000
00010000
00100000
10000000
,
02000000
03000000
00000000
00000000
11000000
00000000
01000000
00000000
00010000
00000000
00002000
00000000
00000000
00000000
00013300
00000000
,
00000100
00000000
00010000
00000000
00000010
00000000
00010000
00000000
00001000
00000000
00000100
00000000
00000002
00000003
00000000
00000000
,
00001001
00001000
00000100
00000001
00000200
00000000
00010300
00001000
,
00100000
00000000
00010000
00000000
01000000
00000000
10000000
00000000
01000000
00000000
00200000
00300000
10100000
00000000
10000000
00000000
,
01000000
00000000
00100000
00000000
00200000
00300000
00110000
00000000
00010000
00000000
01000000
00000000
00100000
00000000
00010000
00000000
,
00001000
00000000
00000100
00000000
00000010
00000000
00000000
00000000
00001001
00000000
00000001
00000000
00000010
00000000
00000001
00000100
,
00000010
00000000
00001000
00000100
00000000
00000100
00010000
00000000
00002000
00000300
00100000
00000000
00023000
00000000
00000010
00000000
,
00031000
00000000
00100000
00010000
00000000
00010000
01000000
00000000
00100000
00000000
10200000
00000000
10300000
00000000
21000000
00000000
,
30010000
00000000
00000000
00000000
00000000
00000000
00210000
00000000
00000000
00000000
00000000
00000000
00310000
00000000
00000000
00000000
00000000
00000000
02010000
00000000
00000000
00000000
00000000
00000000
03100000
00000000
00000000
00000000
00000000
00000000
10000000
00000000
00000000
00010000
00000000
00000000
10000000
00000000
01000000
00000000
00100000
00000000
00010000
00000000
00000000
00000000
00000000
00000000
,
01000000
00000000
00001000
00000000
00100000
00000000
00100000
00000000
00102000
00000000
00000000
00000000
00013000
00000000
00000010
00000100
,
00000010
00000000
00001000
00000100
00000000
00000010
00000001
00000000
00002000
00000000
00000010
00000000
00003100
00000000
00000100
00000000
,
00010000
00000000
00000000
00000000
00000000
00000000
00001000
00000000
00000000
01000000
00000000
00000000
00000000
00000000
00000000
01000000
00000000
00000000
00100000
00000000
00000000
00000000
00000000
00000000
10000000
00000000
00000000
00000000
00010000
00000000
00000000
00000000
10000000
00000000
00000000
00000000
01000000
00000000
00000000
00000000
00010000
00000000
00000000
00000000
00001000
00000000
00000000
00000000
,
00000010
00000001
00001000
00000001
00000100
00001000
00020000
00000000
00000000
00000010
00000000
00000000
,
00001000
00000000
00001000
00000000
00031000
00000000
00000000
00000000
00010000
00001000
00100000
00001000
00010000
00001000
00100000
00020000
,
00000000
10030000
00100000
01000000
00010000
00000000
00100000
00000000
00001000
00010000
00000010
00010000
00001000
00010000
00000010
00002000
,
00000000
00003001
00000010
00000100
00001000
00000001
00001000
00000000
00000101
00000000
00001000
00000100
00010000
00001000
00100000
00020000
,
00000000
10030000
00100000
10000000
00010000
00100000
01000000
00000000
11000000
00000000
00010000
01000000
00001000
00010000
00000100
00002000
,
00000000
00003001
00000100
00000001
00001000
00000100
00000010
00000001
00001000
00000010
00001000
00000001
00000010
00000001
00000100
00000010
,
00000100
00000001
00000010
00000100
00010000
00001000
00100000
00010000
10000000
01000000
10000000
00010000
01000000
00010000
00100000
01000000
,
00100000
00010000
10000000
00100000
01000000
00010000
00100000
00001000
00010000
00000010
00000100
00000001
00000010
00000100
00010000
00001000
,
00100000
00010000
01000000
00100000
10000000
00010000
00100000
00001000
00010000
00000010
00010000
00000010
00001000
00000100
00001000
00000100
,
00000010
00000000
00000000
00000001
00000000
00000000
00000010
00000000
00000000
00000001
00000000
00000000
00001000
00000000
00000000
00000010
00000000
00000000
00000100
00000000
00000000
00000001
00000000
00000000
00002000
00000000
00000000
00000000
00000000
00000000
00000200
00000300
00000000
00000000
00000000
00000000
00000200
00000000
00000300
00000000
00000000
00000000
00000200
00000000
00000000
00003300
00000000
00000000
,
00010100
00000000
00000000
00010000
00000000
00000000
00001000
00000000
00000000
01000000
00000000
00000000
00200000
00000000
00000000
00000000
00000000
00000000
10300000
00000000
00000000
00010000
10000000
00010000
,
10000000
01000000
00100000
00010000
20000000
00000000
30100000
00100000
,
10000000
00000000
01000000
00000000
00100000
00000000
00010000
00000000
00000000
01000000
00000000
00000000
00010000
00000000
00100000
00000000
01000000
00000000
10000000
00000000
00000000
00100000
00000000
00000000
01000000
00000000
00000000
00100000
00000000
00000000
01000000
00000000
00000000
00020000
00000000
00000000
00000000
00000000
00000000
00000000
00000000
00000000
00130000
00000000
00000000
00000000
00000000
00000000
,
00001000
00000000
00010000
00000000
00001000
00000000
00010000
00000000
00000000
00000100
00000000
00000000
00010000
00000000
00001000
00000000
00010000
00000000
00001000
00000000
00000000
01000000
00000000
00000000
00001000
00000000
00000000
00010000
00000000
00000000
00000100
00000000
00000000
00001000
00000000
00000000
00000010
00000000
00000000
00000100
00000000
00000000
00000010
00000000
00000000
00000100
00000000
00000000
,
00000001
00000000
00000000
00000000
00000000
00000000
00000010
00000000
00000000
00000000
00000000
00000000
00001000
00000000
00000000
00000000
00000000
00000000
00000010
00000000
00000000
00000000
00000000
00000000
00000100
00000000
00000000
00000000
00000000
00000000
00000000
00000000
00000000
00001000
00000000
00000000
00000001
00000000
00000000
00000000
00000000
00000000
00001000
00000000
00000010
00000000
00001000
00000000
,
00000010
00000000
00010000
00000000
00000100
00000000
00000010
00000000
00000001
00000100
00000000
00000010
00001000
00000000
00000001
00001000
,
00000001
00000000
00000010
00000000
00000100
00000000
00001000
00000000
00000000
00000010
00000000
00000000
00001000
00000000
00000100
00000000
00000010
00000000
00000001
00000000
00000000
00000100
00000000
00000000
00000010
00000000
00000000
00000100
00000000
00000000
00000010
00000000
00000000
00002000
00000000
00000000
00000000
00000000
00000000
00000000
00000000
00000000
00003100
00000000
00000000
00000000
00000000
00000000
,
00010000
00000000
00001000
00000000
00010000
00000000
00001000
00000000
00000000
00100000
00000000
00000000
00001000
00000000
00010000
00000000
00001000
00000000
00010000
00000000
00000000
00000010
00000000
00000000
00020000
00000000
00000000
00000000
00000000
00000000
00032000
00000000
00000000
00000000
00000000
00000000
00103000
00000000
00000000
00010000
00000000
00000000
00100000
00000000
00000000
00010000
00000000
00000000
,
10000000
00000000
00000000
00100000
00000000
00000000
01000000
00000000
00000000
00010000
00000000
00000000
01000000
00000000
00000000
00010000
00000000
00000000
10000000
00000000
00000000
01000000
00000000
00000000
00100000
00000000
00000000
00000000
00001000
00000000
00000000
00000000
00010000
00000000
00000000
00000000
00000100
00000000
00000000
00001000
00000000
00000000
00000001
00000000
00000100
00000000
00000001
00000000
,
00000100
00000000
00000000
00000000
00000000
00000000
00000010
00000000
00001000
00000000
00000010
00000000
00001000
00000000
00000000
00000000
00000000
00000000
00000001
00000000
00000000
00001000
00000000
00000000
00000001
00000000
00000010
00000000
00000100
00000000
00001000
00000000
00000000
00000000
00000000
00000000
00000001
00000000
00000000
00000000
00000100
00000000
00000000
00000000
00000001
00000000
00000000
00000000
,
00001000
00000000
00000100
00000000
00001000
00000000
00000100
00000000
00001000
00000000
00000100
00000000
00020000
00000000
00000000
00000000
00000000
00000000
00000000
00000000
00000000
00000000
00000000
00000000
00031000
00000000
00000000
00000000
01000000
00000000
00000000
00000000
00100000
00000000
00000000
00000000
10000000
00000000
00000000
00010000
00000000
00000000
10000000
00000000
01000000
00000000
10000000
00000000
,
01000000
00000000
00000000
00000000
00000000
00000000
00100000
00000000
00010000
00000000
00100000
00000000
00010000
00000000
00000000
00000000
00000000
00000000
10000000
00000000
00000000
00010000
00000000
00000000
10000000
00000000
00000000
00100000
00000000
00000000
01000000
00000000
00001000
00000000
01000000
00000000
00001000
00000000
00000000
00100000
00000000
00000000
00001000
00000000
00000000
00100000
00000000
00000000
,
00001000
00000000
00000000
00010000
00000000
00000000
00000010
00000000
00000000
00000100
00000000
00000000
00000001
00000000
00000000
00000000
00000000
00000000
00001000
00000000
00000000
00000100
00000000
00000000
00000010
00000000
00000000
00000000
00000010
00000000
00000000
00000000
00000010
00000000
00000000
00000000
00000001
00000000
00000000
00001000
00000000
00000000
00000001
00000000
00000100
00000000
00000010
00000000
,
00001000
00000000
00000000
00000000
00000000
00000000
00000001
00000000
00000010
00000000
00000100
00000000
00001000
00000000
00000000
00000000
00000000
00000000
00000010
00000000
00000000
00000000
00000000
00000000
00010000
00000000
00001000
00000000
00010000
00000000
00001000
00000000
00000000
00100000
00000000
00000000
00010000
00000000
01000000
00000000
00100000
00000000
10000000
00000000
00000000
00000000
00000000
00000000
,
00010000
00000000
00100000
00000000
01000000
00000000
10000000
00000000
00000000
00000000
00000000
00000000
00010000
00000000
01000000
00000000
00001000
00000000
00010000
00000000
00000000
00000000
00000000
00000000
00000100
00000000
00001000
00000000
00000001
00000000
00000100
00000000
00000000
00000000
00000000
00000000
00001001
00000000
00000000
00000000
00000000
00000000
00001000
00000000
00000000
00000100
00000000
00000000
,
00001000
00000000
00000000
00000100
00000000
00000000
00000000
00000000
00000000
00000000
00000000
00000000
00010000
00000000
00000000
00001000
00000000
00000000
00010000
00000000
00000000
00001000
00000000
00000000
01000000
00000000
00100000
00000000
01000000
00000000
00100000
00000000
00000000
10000000
00000000
00000000
00000000
00000000
00000000
00000000
00000000
00000000
00000000
00000000
00000000
00000000
00000000
00000000
;

//---------------dance-double - ----------------
#NOTES:
     dance-double:
     :
     Hard:
     16:
     0.825471,0.949179,0.242567,0.537113,0.926953,667.000000,639.000000,28.000000,62.000000,0.000000,0.000000,0.825471,0.949179,0.242567,0.537113,0.926953,667.000000,639.000000,28.000000,62.000000,0.000000,0.000000:
00000000
00000000
00000000
00000000
,
00000000
00000000
00000000
00000000
,
00000000
00000000
00000000
00000000
,
00000000
00000000
00000000
00000000
,
00010000
00001000
00010000
00001000
00000000
00000000
00000000
00000000
00101000
00000000
00000000
00000000
00000000
00000000
10000000
00000000
,
00200000
01300000
02020000
03030000
,
00001000
00010000
00001000
00010000
00000000
00000000
00000000
00000000
00010100
00000000
00000000
00000000
00000100
00000000
00001000
00000000
,
00000020
00000000
00020030
00000000
00001000
00001000
00031000
00000000
00100000
00010000
00000000
00100000
00010000
00000000
00100000
00001000
,
00000000
00010000
00001000
00000000
00010000
00001000
00010000
00000000
00000010
00001000
00000000
00000010
00001000
00000000
00000010
00010000
,
00000000
00001000
00010000
00000000
00001000
00010000
00001000
00000000
00100000
00010000
00000000
00100000
01000000
00000000
00100000
10000000
,
00000000
00100000
01000000
00000000
00100000
00001000
00010000
00000000
00000010
00001000
00000000
00000010
00000100
00000000
00000010
00000001
,
00000000
00000010
00000100
00000000
00000010
00001000
00000100
00000000
00010000
00000100
00000010
00000100
00010000
00001000
00000000
00100000
,
00010000
00100000
00010000
01000000
00001000
00000000
00010000
00000000
00001000
01000000
00100000
01000000
00001000
00010000
00000000
00000010
,
00001000
00000010
00001000
00000100
00010000
00000000
00001000
00000000
00100000
00010000
00100000
00000000
00001000
00010000
00001000
00000000
,
00010000
00000010
00010000
00000000
00000010
00001000
00000100
00000010
00000002
00000000
00000000
00000000
00000000
00000000
00000000
00000000
,
00000000
00000000
00000003
00000000
00002001
00000000
00000000
00000000
00003010
00000000
00000100
00000001
00000100
00000000
00000000
00000000
,
00000001
00001000
00000001
00000000
00002000
00000000
00003100
00000000
00010000
00000000
00002000
00000000
00103000
01000000
00100000
00000000
,
00010000
00000000
10000000
00000000
00010000
01000000
00010000
01000000
00000000
00000000
00010000
10000000
00010000
00000000
00100000
00000000
,
00001000
00010000
00001000
00010000
00000000
00000000
00000010
00001000
00000010
00001000
00000000
00000000
00000001
00000010
00000100
00001000
,
00000010
00010000
00001000
00000000
00200000
00000000
00301000
00010000
00000010
00000000
00000010
00000000
00000200
00000000
00000000
00000000
,
00000301
00001000
00000001
00000000
00002000
00000000
00003100
00000000
00000010
00000000
00000002
00000000
00000103
00000010
00000100
00000000
,
00000001
00001000
00000001
00001000
00000010
00000000
00001000
00000100
00000000
00000100
00010000
00000000
00012000
00000000
00000000
00203000
,
00000000
00000000
00310000
00000000
10000000
00000000
00010000
01000000
00000000
01000000
00001000
00000000
00021000
00000000
00000000
00030200
,
00000000
00000310
00000011
00000110
00001100
00000000
00001002
00000000
,
00000103
00000000
00000010
00000000
00000100
00000000
00000020
00000000
00000000
00000000
00000000
00000000
00001030
00000000
00000100
00000000
00010000
00000000
00001000
00000000
00000000
00100000
00000000
00000000
,
00010000
01000000
00010000
00000000
10000000
00000000
00100000
00000000
10000000
01000000
00100000
00010000
02000000
00000000
00000000
03020000
,
00000000
00000000
00133000
00000000
01000000
00000000
10000000
00010000
10000000
00010000
10000000
00000000
00100000
00000000
01000000
00000000
,
00001000
00010000
00001000
00000000
00101000
00000000
00000000
00010010
00000000
00000000
00011000
00000000
00000200
00000000
00000000
00000000
,
00000310
00000000
00000001
00000000
00001000
00000010
00000100
00000010
00001000
00000000
00000001
00000010
00000100
00000000
00001000
00000010
,
00010000
00000000
00001000
00010000
00002000
00000000
00000000
00000000
00200000
00000000
00300000
00000000
00010000
00000000
00000000
00020000
,
00000000
00000000
00033000
00000000
00021000
00000000
00000000
00000000
00000020
00000000
00000030
00000000
00001000
00000000
00000000
00002000
,
00000000
00033000
01001000
01000000
00100000
10000000
00020000
00000000
,
00000000
00130000
01000000
00100000
10000000
00100000
00010000
01000000
,
00002000
00003000
00000300
00000000
00010010
00000000
00000010
00000000
00000100
00000000
00000002
00000000
00000000
00000000
00000013
00000000
,
00000100
00000000
00000010
00000000
00001000
00000000
00000010
00000000
00000001
00000000
00000100
00000000
00000020
00000030
00000000
00000000
,
00010010
00010000
00001000
00100000
00020000
00000000
10030000
00100000
,
00010000
00000000
00001000
00000000
00000100
00000000
00000001
00000000
00000010
00000000
00000020
00000030
00001031
00000000
00001000
00000000
,
00000100
00000000
00010000
00000000
00002000
00003000
00011000
00000000
00001000
00000000
01000000
00000000
00100000
00000000
00010000
00000000
,
00100000
10000000
01000000
00000000
10020000
00000000
01030000
00100000
,
01000000
00000000
00010000
00100000
00000000
00100000
00001000
00000000
00020000
00000000
00000010
00000000
00032000
00000000
00000000
00000000
,
00103000
00000000
00001000
00010000
00000000
00001000
00010000
00000000
00010010
00000000
00000020
00000000
00000130
00000000
00002000
00000000
,
00003100
00000000
00000002
00000000
00000103
00000000
00000020
00000000
00001030
00000000
00000100
00010000
00000100
00010000
00000100
00000000
,
00010000
00001000
01000000
00100000
01200000
00000000
10300000
00010000
,
10000000
00000000
01000000
00100000
00000000
00100000
00001000
00000000
00020000
00000000
00000000
00000000
00100000
00000000
00130000
00000000
,
00010000
00000000
00000000
00001000
00000000
00000000
00000100
00000000
00000000
00000001
00000000
00000000
00000012
00000000
00000000
00000000
00000000
00000000
00001003
00000000
00000010
00000000
00001000
00000000
,
00000001
00000010
00000001
00000100
00000010
00010000
00002000
00000000
00000000
00100000
00000000
00000000
,
00010000
00000000
00010000
00000000
00013000
00000000
00000000
00000000
00011000
00000000
00001000
00100000
00001000
00010000
00000010
00010000
,
00001000
00000000
00100000
00000000
01000000
00000000
10000000
00010000
10000000
00000000
00010000
00100000
00010000
10000000
00100000
10000000
,
01000000
00000000
00100000
00000000
00001000
00010000
00001000
00000000
00011000
00000000
00010000
00000100
00010000
00001000
01000000
00001000
,
00010000
00000000
00000100
00000000
00000010
00000000
00000001
00001000
00000001
00000000
00001000
00000100
00001000
00000001
00000100
00000001
,
00000010
00000000
00000100
00000000
00010000
00001000
00010000
00000000
00001000
00100000
00010000
00100000
00001000
01000000
00001000
00000000
,
00010000
00000010
00001000
00000310
00010000
00000100
00010000
00000000
00001000
00100000
00010000
01000000
00010000
00100000
00001000
00000000
,
00010000
00000010
00001000
00000100
00001000
00000010
00010000
00000000
00001000
00010000
00001000
00010000
00001000
00100000
00010000
00000000
,
10000000
00100000
10000000
00100000
10000000
00010000
01000000
00000000
00010000
01000000
00010000
01000000
00100000
10000000
00100000
10000000
,
00010000
00000000
00000000
00100000
00000000
00000000
00010000
00000000
00000000
00100000
00000000
00000000
00001000
00000000
00000000
00010000
00000000
00000000
00001000
00000000
00000000
00010000
00000000
00000000
00000020
00000000
00000000
00000000
00000000
00000000
00000200
00000300
00000000
00000000
00000000
00000000
00000200
00000000
00000300
00000000
00000000
00000000
00000200
00000000
00000000
00000330
00000000
00000000
,
00001001
00000000
00001000
00000000
00000100
00000000
00000001
00000000
00000200
00000000
00000000
00000000
00010300
00000000
00001000
00010000
,
00001000
01000000
00100000
10000000
10020000
00000000
00130000
00000000
,
00010000
01000000
00100000
01000000
00010000
00100000
01000000
00100000
00002000
00000000
00000000
00023000
00000000
00000000
00030010
00000000
,
00001000
00000100
00000010
00000100
00001000
00000010
00000100
00000010
00020000
00000000
00000000
00032000
00000000
00000000
01003000
00000000
,
00100000
00000000
00100000
00000000
10000000
00000000
01000000
00000000
00100000
00000000
00000000
00010000
10300000
00000000
00010000
01000000
,
00010000
00000000
00100000
00000000
00001000
00000000
00010000
00000000
00000010
00001000
00000000
00000001
00000010
00000000
00000000
00000000
,
00000001
00000010
00000100
00000010
00000001
00000100
00000010
00000100
00002000
00000000
00000000
00023000
00000000
00000000
00130000
00000000
,
10000000
00100000
01000000
00100000
10000000
01000000
00100000
01000000
20000000
00000000
30020000
00000000
00130000
00001000
00100000
00001000
,
00000000
00000000
00010000
00001000
00010000
00000010
00001000
00000010
00000100
00000001
00001000
00000001
00000000
00000000
00001000
00000100
,
00001000
00000100
00000000
00000000
00010000
00001000
00010000
00001000
01000000
00100000
10000000
00000000
00010000
01000000
00010000
01000000
,
00000000
00000000
00001000
00010000
00001000
00100000
00010000
01000000
00001000
00010000
00000010
00000100
00000000
00000000
00000001
00001000
,
00000001
00001000
00000000
00000000
00000001
00000010
00000100
00001000
00000010
00010000
00001000
00000000
00011000
00000000
00100000
00010000
,
00100000
00000000
00000000
00010000
00000000
00000000
00100000
00000000
00000000
00010000
00000000
00000000
10000000
00000000
00000000
00000000
00000000
00000000
00100000
00000000
00000000
00000000
00000000
00000000
10000000
00000000
00000000
00000000
01000000
00000000
00000000
00000000
00100000
00000000
00000000
00000000
00010000
00000000
00000000
00000000
00000000
00000000
10000000
00000000
00000000
00100000
00000000
00000000
,
10000000
00000000
00000000
00000000
00000000
00000000
00010000
00000000
00000000
01000000
00000000
00000000
00010000
00000000
00000000
00000000
00000000
00000000
00100000
00000000
00000000
00000000
00000000
00000000
00001000
00000000
00000000
00010000
00000000
00000000
00001000
00000000
00000000
00000000
00000000
00000000
00010000
00000000
00000100
00000000
00010000
00000000
00000100
00000000
00000000
00000000
00000000
00000000
,
00020000
00000000
00000000
00000000
00000000
00000000
00000000
00000000
00000000
00000000
00000000
00000000
00031000
00000000
01000000
00000000
00001000
00000000
01000000
00000000
00000000
00000000
00000000
00000000
00002000
00000000
00000000
00000000
00000000
00000000
00000000
00000000
00000000
00000000
00000000
00000000
00013000
00000000
00000000
00000000
00000000
00000000
00000010
00000000
00000000
00000100
00000000
00000000
,
00000010
00000100
00000000
00000000
00000001
00000010
00000100
00001000
00000010
00010000
00001000
00100000
00000000
00000000
00000000
00000000
;

//---------------dance-double - ----------------
#NOTES:
     dance-double:
     :
     Medium:
     14:
     0.658396,0.673611,0.242567,0.632407,0.493797,532.000000,504.000000,28.000000,73.000000,0.000000,0.000000,0.658396,0.673611,0.242567,0.632407,0.493797,532.000000,504.000000,28.000000,73.000000,0.000000,0.000000:
00000000
00000000
00000000
00000000
,
00000000
00000000
00000000
00000000
,
00000000
00000000
00000000
00000000
,
00000000
00000000
00000000
00000000
,
00001000
00010000
00001000
00010000
00000000
00000000
00000000
00000000
00101000
00000000
00000000
00000000
00000000
00000000
00000000
00000000
,
00200000
00301000
00011000
00000000
,
00010000
00001000
00010000
00001000
00000000
00000000
00000000
00000000
00010020
00000000
00000000
00000000
00001030
00000000
00000100
00000000
,
00010000
00000000
00002300
00000000
00010000
00010000
00013000
00000000
00001000
01000000
00000000
00001000
01000000
00000000
00001000
02000000
,
00000000
00000000
03100000
00000000
10000000
00000000
00010000
00000000
00100000
00001000
00000000
00100000
00001000
00000000
00100000
00002000
,
00000000
00000000
00013000
00000000
00000010
00000000
00000100
00000000
00000001
00000010
00000000
00000010
00000100
00000000
00001000
00000020
,
00000000
00000000
00000130
00000000
00001000
00000000
00010000
00000000
00001000
00130000
00000000
00100000
01000000
00000000
10000000
00200000
,
00000000
00000000
00310000
00000000
00001000
00000000
00000100
00000000
00000110
00000000
00000000
00000001
00000000
00000000
00001000
00000100
,
00001000
00000000
00000000
00000100
00000000
00000000
00010000
00000000
00011000
00000000
00000000
00001000
00000000
00000000
01000000
00100000
,
01000000
00000000
00000000
00010000
00000000
00000000
10000000
00000000
00010000
01000000
00010000
00000000
10000000
00000000
01000000
00000000
,
00100000
00010000
00100000
00000000
00001000
00000000
00010000
00000000
00000020
00000000
00000000
00000000
00000000
00000000
00000000
00000000
,
00000000
00000030
00002001
00000000
00003100
00010000
00002000
00000000
,
00103000
00000000
00010000
00000000
02000000
00000000
13000000
00000000
01000000
00000000
00020000
00000000
00130000
01000000
00100000
00000000
,
00010000
00000000
00000000
00000000
10000000
00100000
10000000
00100000
00000000
00000000
10000000
00000000
01000000
00000000
00100000
00000000
,
00001000
00010000
00001000
00010000
00000000
00000000
00010000
00000010
00010000
00000010
00000000
00000000
00001000
00000000
00000001
00000000
,
00000010
00000000
00000000
00000000
00000011
00000000
00000001
00001000
00000001
00000000
00000100
00000010
00000200
00000000
00000000
00000000
,
00000310
00000000
00001000
00000000
00000200
00000000
00000301
00000000
00000100
00000000
00002000
00000000
00003010
00000100
00000010
00000000
,
00001000
00000000
00000000
00000000
00000001
00000000
00000010
00000000
00001000
00000000
00010000
00000000
02000000
00000000
00000000
03200000
,
00000000
00000000
00310000
00000000
10000000
00000000
00100000
00000000
00010000
00000000
00001000
00000000
00000200
00000000
00000000
00000320
,
00000000
00001030
00001001
00001010
00001002
00000000
00000013
00000000
,
00000001
00001000
00000001
00001000
00000000
00000000
00000001
00000100
00000010
00002000
00000000
00000000
,
00003100
00000000
00000000
00000000
00010000
00000000
00001000
00000000
01000000
00000000
00010000
00000000
01010000
00000000
00000000
10000000
,
00000000
00000000
00100000
00000000
10000000
00000000
00010000
00100000
00010000
00100000
00000000
00000000
00010000
00000000
10000000
00000000
,
00100000
01000000
00100000
00000000
20000000
00000000
00000000
00100000
00000000
00000000
30010000
00000000
00210000
00000000
00000000
00000000
,
00331000
00000000
00000000
00000000
00010000
00000000
00000010
00001000
00000010
00001000
00000000
00000000
00000001
00001000
00000001
00000000
,
00000010
00000000
00000100
00000000
00020000
00000000
00000000
00000000
00000020
00000000
00000030
00000000
00001000
00000000
00000000
00002000
,
00000000
00000000
00033000
00000000
00012000
00000000
00000000
00000000
00200000
00000000
00300000
00000000
00010000
00000000
00000000
00020000
,
00000000
00033000
00001000
00001000
00100000
00010000
02000000
00000000
,
00000000
03100000
00010000
00100000
01000000
00100000
10000000
00010000
,
00200000
00300000
00000000
00000000
00011000
00000000
00010000
00000000
00000010
00000000
00000200
00000000
00000000
00000000
00001330
00000000
,
00000100
00000000
00000010
00000000
00000100
00000000
00000001
00000000
00000010
00000000
00000100
00000000
00002000
00003000
00000000
00000000
,
00001001
00000001
00000010
00001000
00020000
00000000
00031000
01000000
,
00100000
00000000
01000000
00000000
10000000
00000000
01000000
00000000
00010000
00000000
20000000
30000000
11000000
00000000
01000000
00000000
,
00100000
00000000
00001000
00000000
00002000
00003000
00011000
00000000
00010000
00000000
00000010
00000000
00000100
00000000
00000100
00000000
,
00000001
00001000
00000001
00000000
00002001
00000000
00003010
00003100
,
00000010
00000000
00001000
00000100
00000000
00001000
00000100
00000000
00020000
00000000
00000000
00000000
00032000
00000000
00000000
00000000
,
01003000
00010000
00100000
01000000
11000000
00020000
00000000
02030000
,
00000000
00000000
03002000
00000000
00000000
00000000
00013000
00000000
00000010
00000000
00000100
00000000
00000001
00001000
00000001
00000000
,
00000010
00000100
00010000
00001000
00021000
00000000
00031000
01000000
,
00100000
00000000
10000000
00010000
00000000
10000000
00010000
00000000
00200000
00000000
00000000
00000000
00301000
00000000
00001000
00000000
,
00020000
00000000
00000000
00000000
00000000
00000000
00030010
00000000
00000000
00000100
00000000
00000000
00000102
00000000
00000000
00000000
00000000
00000000
00001003
00000000
00000100
00000000
00001000
00000000
,
00000100
00001000
00000100
00010000
00000000
00000000
00022000
00000000
00000000
00000000
00000000
00000000
,
00000000
00000000
00000000
00000000
00033000
00000000
00000000
00000000
00001000
01000000
00000000
01000000
00100000
00000000
00100000
10000000
,
00000000
00010000
00100000
30000000
10000000
00000000
00100000
00000000
00010000
01000000
00000000
01000000
00100000
00000000
10000000
01000000
,
00000000
00100000
00001000
00000000
01000000
00000000
00001000
00000000
00010000
00000100
00000000
00000100
00000010
00000000
00000010
00000001
,
00000000
00001000
00000010
00000003
00000001
00000000
00000010
00000000
00001000
00000100
00000000
00000100
00000010
00000000
00000001
00000100
,
00000000
00000010
00010000
00000000
00000100
00000000
00010000
00000000
00001000
00000000
00100000
00010000
00000000
00100000
00001000
00000000
,
00010000
00000000
00000010
00001000
00000000
00000010
00010000
00000000
00001000
00000000
01000000
00010000
00000000
01000000
00001000
00000000
,
00010000
00000000
00000100
00001000
00000000
00000100
00010000
00000000
00001000
00000000
00100000
00010000
00100000
00000000
00010000
00000000
,
10000000
00000000
00100000
01000000
00100000
00000000
01000000
00000000
00001000
00000000
00010000
00000000
00000100
00000000
00000010
00000000
,
00000001
00000000
00000000
00000000
00000000
00000000
00000100
00000000
00000000
00000000
00000000
00000000
00000010
00000000
00000000
00000000
00000000
00000000
00001000
00000000
00000000
00000000
00000000
00000000
00000200
00000000
00000000
00000000
00000000
00000000
00020000
00330000
00000000
00000000
00000000
00000000
00020000
00000000
00030000
00000000
00000000
00000000
00020000
00000000
00000000
00030300
00000000
00000000
,
00011000
00001000
01000000
00100000
00200000
00000000
10300000
00010000
,
10000000
01000000
00100000
00001000
00020000
00000000
00030100
00000000
,
00010000
00000000
00001000
00000000
01000000
00000000
00001000
00000000
00200000
00000000
00000000
00302000
00000000
00000000
00013000
00000000
,
00001000
00000000
00010000
00000000
00000010
00000000
00010000
00000000
00000200
00000000
00000000
00020300
00000000
00000000
00031000
00000000
,
00100000
00000000
00010000
00000000
01000000
00000000
00001000
00000000
00100000
00000000
00000000
00001000
00010000
00000000
00001000
00000000
,
00010000
00000010
00000100
00000001
00002000
00000000
00003001
00000000
,
00000001
00000000
00000100
00000000
00001000
00000000
00010000
00000000
00200000
00000000
00000000
02300000
00000000
00000000
03010000
00000000
,
10000000
01000000
00010000
00001000
00020000
00032000
00103000
00010000
,
10000000
00000000
00100000
00000000
01000000
00000000
00001000
00000000
00010000
00000100
00010000
00000100
00000000
00000000
00001000
00000100
,
00001000
00000000
00000001
00000000
00000100
00000000
00000010
00000000
00001000
00000001
00001000
00000000
00000001
00000000
00000100
00000000
,
00000010
00000000
00010000
00000000
00001000
00000000
00100000
00000000
00001000
01000000
00001000
01000000
00000000
00000000
01000000
00010000
,
01000000
00000000
00010000
00000000
10000000
00000000
01000000
00000000
10000000
00010000
10000000
00000000
00010000
00000000
01000000
00000000
,
00100000
10000000
00100000
10000000
00100000
00000000
01000000
00000000
00020000
00000000
00000000
00000000
00130000
00000000
00001000
00000000
,
00010000
00000000
00000000
00000000
00010020
00000000
00000000
00000000
00001030
00000001
00001000
00000000
00002002
00000000
00003003
00000000
,
00022000
00033000
20020000
30030000
00022000
00033000
00100000
00010000
,
01000000
00001000
00000000
00000000
00010000
00001000
00010000
00000000
00000100
00001000
00000100
00001000
00000000
00000000
00000000
00000000
;

//---------------dance-double - ----------------
#NOTES:
     dance-double:
     :
     Easy:
     11:
     0.434393,0.489466,0.173262,0.563102,0.056310,351.000000,331.000000,20.000000,65.000000,0.000000,0.000000,0.434393,0.489466,0.173262,0.563102,0.056310,351.000000,331.000000,20.000000,65.000000,0.000000,0.000000:
00000000
00000000
00000000
00000000
,
00000000
00000000
00000000
00000000
,
00000000
00000000
00000000
00000000
,
00000000
00000000
00000000
00000000
,
00020000
00000000
00031000
00000000
,
00100000
00001000
00010000
00000000
,
00002000
00000000
00013000
00000000
,
00022000
00000000
00000000
00033000
00001000
00000000
00001000
00000000
,
00100000
00010000
00100000
00000000
00001000
00000000
00001000
00000000
,
00010000
00001000
00010000
00000000
00011000
00000000
00010000
00000000
,
00000010
00001000
00000010
00000000
00010000
00000000
00010000
00000000
,
00001000
00010000
00001000
00000000
00100000
00010000
00100000
00000000
,
00010000
10000000
00010000
00000000
00100000
00010000
00100000
00000000
,
00001000
00010000
00001000
00000000
00010000
00000010
00010000
00000010
,
00001000
00000001
00001000
00000001
00000020
00000000
00000000
00000000
,
00000000
00000030
00001002
00000000
00000103
00000010
00002000
00000000
,
00003100
00010000
00000100
00010000
00002000
00000000
00203000
00000000
,
00310000
00000000
10000000
00100000
10000000
00100000
01000000
00010000
,
01000000
00010000
00000000
10000000
01000000
00100000
00002000
00000000
,
00013000
00101000
00020010
00031000
,
00010000
00000000
00000100
00000010
00000001
00000000
00000100
00000010
,
00001000
00000000
00000000
00000000
00000001
00000000
00000100
00000000
00000001
00000000
00000100
00000000
00000010
00000000
00000000
00000020
,
00000000
00000000
00000000
00000000
00010030
00000000
00001000
00000000
00010000
00000000
00001000
00000000
00100000
00000000
00000000
00200000
,
00000000
00000000
00310000
10000000
00010000
00000000
20020000
00000000
,
30030000
00000000
10000000
00100000
01000000
00000000
00010000
00100000
,
00001000
00000000
00010000
00001000
00010000
00001000
01000000
00000000
,
01000000
00000000
00001000
01000000
00010000
00000000
10000000
01000000
,
00100000
00000000
00000000
00000000
00010000
00000000
00000000
10000000
00000000
00000000
00010000
00000000
02000000
00000000
00000000
00000000
,
00000000
00000000
03001000
00010000
00001000
00000000
00010000
00000100
,
00000010
00002002
00000000
00000000
,
00003003
00022000
00000000
00000000
,
00033000
00100000
00010000
10000000
,
00000000
00010000
01000000
00000000
01000000
00000000
00001000
00000000
,
00020000
00030000
00030000
00000000
00010100
00000000
00000000
00000000
00000100
00000000
00001000
00000000
00000000
00000000
00000001
00000000
,
00000100
00000000
00000000
00000000
00000010
00000000
00000000
00000000
00000010
00000000
00010000
00000000
00002000
00003000
00000000
00000000
,
00100000
00010000
00100000
00010000
00010000
00000000
10000000
00000000
,
00100000
00000000
00000000
00000000
01000000
00000000
00000000
00000000
00001000
00000000
00020000
00030000
00000000
00000000
00001000
00000000
,
00100000
00000000
00001000
00000000
00200000
00300000
00000000
00000000
00000010
00000000
00010000
00000000
00000010
00000000
00000000
00000000
,
00020000
00031000
00012000
00103000
,
00010000
00000000
00000000
00010000
00000000
00000000
00010000
00000000
02000000
00000000
00000000
00000000
03200000
00000000
00000000
00000000
,
20300000
00000000
30010000
00000000
10000000
02000000
00000000
03200000
,
00000000
00302000
00000000
00013000
00000010
00000000
00001000
00000000
,
00000001
00000100
00000010
00000000
00001002
00000000
00000023
00000000
,
00000130
00000000
00000000
00000100
00000000
00000000
00000100
00000000
00020000
00000000
00000000
00000000
00032000
00000000
00000000
00000000
,
00103000
00010000
01000000
00000000
01020000
00000000
10030000
00000000
,
00100000
00000000
00000000
00100000
00000000
00000000
00100000
00000000
20000000
00000000
00000000
00000000
00000000
00000000
00000000
00000000
,
00000000
00000000
00000000
00000000
30010000
01000000
00010000
00000000
,
02000000
00000000
03002000
00000000
00013000
00000100
00010000
00000000
,
00000200
00000000
00002300
00000000
00003001
00000100
00000001
00000000
,
00000200
00000000
00000320
00000000
00001030
00000001
00001000
00000000
,
00000002
00000000
00000023
00000000
00000130
00001000
00000100
00001000
,
00000100
00010000
00000100
00000000
00010000
00001000
00010000
00001000
,
00100000
00010000
00100000
00000000
00010000
01000000
00010000
01000000
,
00100000
10000000
00100000
10000000
02000000
00000000
03200000
00000000
,
00302000
00000000
00013000
00000000
00022000
00000000
00000000
00033000
,
00010000
00000100
00010000
00000100
00000020
00000000
00000000
00000000
,
00000031
00001000
00000001
00001000
00000020
00000000
00000000
00000000
,
00000130
00000000
00000000
00000000
00000110
00000000
00000000
00000000
00000010
00000000
00000000
00001000
00000000
00000000
00000100
00000000
,
00010000
00000000
00000000
00000000
00011000
00000000
00000000
00000000
00001000
00000000
00000000
01000000
00000000
00000000
00100000
00000000
,
10000000
00010000
10000000
00010000
00200000
00000000
00000000
00301000
,
00010000
00001000
00010000
00000020
00000000
00000000
00000000
00000000
,
00000130
00000000
00000001
00000000
00000100
00000000
00000001
00000000
00001000
00000000
00000000
00001000
00000000
00000000
00001000
00000000
,
00000100
00010000
00001000
00000000
00022000
00033000
00001000
00200000
,
00000000
00310000
01000000
00000000
00010000
10000000
00000000
00010000
,
00100000
01000000
20000000
00000000
30010000
00000000
10000000
00100000
,
00000000
10000000
00020000
00000000
00130000
00002000
00000000
00013000
,
00000010
00000100
00000002
00000000
00001003
00000000
00000001
00000010
,
00000100
00000010
00000002
00000000
00000103
00000000
00000010
00001000
,
00000010
00001000
00000200
00000000
00010300
00000000
00010100
00000000
,
00011000
00101000
00110000
20000000
,
00000000
00000000
30010000
01000000
00001000
00010000
00000000
00000000
;
