#TITLE:Dragon Blade;
#ARTIST:Kozo Nakamura;
#GENRE:Hard rock;
#CREDIT:tikal.;
#MUSIC:Dragon Blade.ogg;
#BANNER:Dragon Blade.png;
#BACKGROUND:Dragon Blade-bg.png;
#CDTITLE:cdtitle.png;
#SAMPLESTART:37.242;
#SAMPLELENGTH:15;
#BPMS:0=240;
#BGCHANGES:0=Dragon Blade.mp4=1=0=0=0=====,99999=-nosongbg-=1=0=0=0=====;
#NOTES:
     dance-single:
     tikal.:
     Medium:
     12:
     0,0,0,0,0:
0000
0000
0000
0000
,
0000
0000
0000
0000
,
0000
0000
0000
0000
,
0000
0000
0000
0000
,
0000
0000
0000
0000
,
0000
0000
0000
0000
,
1000
0000
1000
0010
0000
0000
0010
0100
,
0000
0000
0100
0000
0100
0001
0000
0000
,
0001
0000
0001
0010
0000
0000
0010
0100
,
0000
0100
1000
0001
,
0100
0001
0100
0001
,
1000
0001
1000
0001
,
1000
0100
0010
0100
,
1000
0001
0010
0100
,
0100
1000
0100
1000
,
0001
1000
0001
1000
,
0001
0100
0010
0100
,
0001
1000
0010
0100
,
0001
0000
0001
0000
0000
0011
0000
0000
,
1000
0000
1000
0000
0000
1010
0000
0000
,
0001
0010
0100
0010
,
0000
0001
0000
0000
0100
0000
0000
0010
,
1000
0000
0100
0000
0010
0000
0100
1000
,
0000
0001
0000
1000
0100
0000
0000
0000
,
0020
0031
0002
0103
,
0200
0310
0020
1030
,
1000
0100
0000
0010
0000
0001
0000
0010
,
0000
0100
0000
1000
0000
0002
0000
0000
,
1003
0010
0100
0010
,
0000
1000
0000
0000
0100
0000
0000
0010
,
0001
0000
0100
0000
0010
0000
0100
0001
,
0000
0001
1000
0000
0100
0000
0000
0000
,
0010
0000
0001
0000
0100
0000
0000
0110
,
0000
0010
1000
0000
,
0002
0013
0020
0130
,
0200
1300
2000
3001
,
2002
0000
0000
3003
1000
0001
0000
1000
,
0000
0010
0010
0010
,
0100
0000
0000
0010
0000
0000
2002
0000
,
0000
3003
1000
0000
0001
0000
0100
0000
,
0101
0001
0100
0010
,
1010
1000
0100
0010
,
0011
0001
0010
0100
,
1100
1000
0010
0100
,
0220
0000
0000
0330
0010
0100
0000
0010
,
0000
0100
0000
0001
0000
1000
0000
0200
,
0020
0000
0330
0002
,
2000
0000
0000
0000
0000
3003
0000
0000
,
0002
0103
0200
0310
,
0020
1030
2000
3001
,
0001
0000
0000
0010
0000
0000
0100
0000
,
0000
1000
0000
0000
0010
0000
0100
0000
,
0001
1000
0000
0001
1000
0000
0001
1000
,
0000
0100
0100
0100
,
0100
0010
0000
0000
0000
0000
0000
0000
,
0000
0000
0000
0000
0001
1000
0000
0000
,
0010
0100
0000
0000
0000
0000
0000
0000
,
0100
0000
0010
0000
2002
0000
0000
3003
,
1000
0001
0000
0000
0001
1000
0000
0000
,
1000
0001
0000
0000
0100
0010
0000
0000
,
1000
1000
0001
0001
,
1000
0001
1000
0000
0220
0000
0330
0000
,
0001
0000
0100
0000
0010
1000
0010
0000
,
0100
0000
0001
0000
1000
0010
1000
0000
,
0001
0000
0010
0000
0100
1000
0100
0000
,
0000
0010
0000
0100
1000
0000
0001
0000
,
1000
0000
0010
0000
0100
0001
0100
0000
,
0010
0000
1000
0000
0001
0100
0001
0000
,
1000
0000
0100
0000
0010
0001
0010
0000
,
0000
0100
0000
0010
0001
0000
1000
0000
,
0020
0100
0000
0100
,
2030
0000
0000
3200
0000
0310
0002
0000
,
0203
0010
0000
0010
,
0302
0000
0000
2003
0000
0000
3200
0000
,
0320
0100
0000
0130
,
2000
0000
0000
3002
0000
0000
0203
0000
,
0320
0100
0000
0130
,
2002
0000
0000
3003
,
1000
0000
1000
0000
0000
1100
0000
0000
,
0001
0000
0001
0000
0000
0101
0000
0000
,
0110
0000
0000
0110
0000
0000
0110
0000
,
0000
0000
0001
1000
0001
0000
0000
0000
,
1000
0010
0100
0010
,
0000
1000
0000
0000
0100
0000
0000
0010
,
0001
0000
0100
0000
0010
0000
0100
0001
,
0000
1000
0000
0001
0100
0000
0000
0000
,
0020
1030
2000
3100
,
0200
0310
0020
0031
,
0001
0100
0000
0010
0000
1000
0000
0010
,
0000
0100
0000
0001
0000
2000
0000
0000
,
3001
0010
0100
0010
,
0000
0001
0000
0000
0100
0000
0000
0010
,
1000
0100
0010
0100
,
0000
1000
0001
0000
0100
0000
0000
0000
,
0010
0000
1000
0000
0100
0000
0000
0110
,
0000
0010
0001
0000
,
2000
3100
0002
0103
,
1000
0000
0100
0000
1000
0000
0001
0000
0100
0000
0001
0000
,
1000
0000
0100
0000
0010
0000
0001
0000
0100
0000
0020
0000
,
0000
0000
0000
0030
,
2002
0000
3003
0000
1000
0100
0000
0100
,
1000
0010
0100
0001
,
0010
0000
0100
1000
0001
0000
0100
0000
,
0010
0010
0100
0001
,
2002
0000
3003
0000
1000
0200
0000
0000
,
0320
0000
0000
0032
0000
0000
2003
0000
,
3001
0100
0001
0000
1000
0100
1000
0000
,
1100
0000
0000
0101
0000
0000
0010
0000
,
2002
0000
3003
0000
0001
0100
0000
0100
,
0001
0010
0100
1000
,
0010
0000
0100
0001
1000
0000
0100
0000
,
0010
0010
0100
1000
,
2002
0000
3003
0000
0001
0200
0000
0000
,
0320
0000
0000
2030
0000
0000
3002
0000
,
1003
0100
1000
0000
0010
0000
0100
0000
,
0001
0100
0001
0000
0010
0000
0100
0000
,
1000
0010
1000
0000
0001
0010
0001
1000
,
0200
0000
0300
0000
;
#NOTES:
     dance-single:
     tikal.:
     Hard:
     14:
     0,0,0,0,0:
0000
0000
0000
0000
,
0000
0000
0000
0000
,
0000
0000
0000
0000
,
0000
0000
0000
0000
,
0000
0000
0000
0000
,
0000
0000
0000
0000
,
0001
0010
0100
0010
0000
0000
0001
1000
,
0000
0000
1000
0010
0100
0010
0000
0000
,
1000
0100
0010
0100
0000
0000
1000
0001
,
0000
0000
0001
0100
0001
1000
0100
1000
,
0001
0100
0010
1000
,
0001
0010
0100
1000
,
0010
0100
0010
1000
,
0001
0010
0100
0110
,
1000
0100
0010
0001
,
1000
0010
0100
0001
,
0010
0100
0010
0001
,
1000
0000
0010
0000
0100
0001
1000
0000
,
0100
0000
0100
0000
0010
0001
0000
0001
,
0100
0010
0100
0000
0010
1000
0000
1000
,
0100
0000
1000
0000
0010
0000
0100
0001
,
0000
0010
0000
0100
1000
0100
0000
0010
,
0001
0000
1000
0000
0010
0000
0100
0001
,
0000
0010
0000
0200
2000
0000
3300
0000
,
0001
0100
0010
0000
0100
0010
1000
0000
,
0001
0010
0100
0000
0010
0100
1000
0000
,
0001
0100
0000
0110
0000
1010
0000
1001
,
0000
0001
0000
0010
0000
0001
0000
0000
,
0100
0000
0001
0000
0010
0000
0100
1000
,
0000
0010
0000
0100
0001
0100
0000
0010
,
1000
0000
0001
0000
0010
0000
0100
1000
,
0000
0010
0200
0000
0002
0000
0303
0000
,
0001
0000
1000
0100
1000
0010
0000
1010
,
0000
0010
1000
0000
0100
0010
0001
0000
,
1000
0010
1000
0000
0010
0100
0010
0000
,
0100
0001
0100
0000
0001
1000
0100
0000
,
0220
0000
0330
0000
0001
1000
0001
1000
,
0000
0000
0010
0000
0010
0100
0010
0000
,
0110
0000
0000
1010
0000
0000
2002
0000
,
0000
3003
0001
0010
0100
1000
0010
0000
,
1010
0000
1000
0010
0100
0001
0010
0000
,
0011
0000
0001
0100
0010
1000
0100
0000
,
1100
0000
1000
0100
0010
0001
0100
0000
,
0101
0000
0001
1000
0100
0010
0100
0000
,
0220
0000
0330
0000
1000
0001
1000
0001
,
0000
0010
0000
0100
0000
1000
0000
0010
,
0100
0000
0000
0110
0000
0000
1001
0000
,
0000
0001
1000
0001
0010
0100
1000
0000
,
0020
0000
1030
0001
0020
0000
0031
1000
,
0020
0000
0130
0001
0020
0000
0130
1000
,
0010
0100
0000
0010
0001
0000
0010
0100
,
0000
0010
1000
0000
0001
0010
0100
1000
,
0001
0100
0000
0010
1000
0000
0100
0010
,
0000
0000
0001
1000
0001
1000
0001
0000
,
1000
1000
0000
0000
0000
0000
0000
0000
,
0000
0000
0000
0000
0100
0020
0000
0000
,
0031
0001
0000
0000
0000
0000
0000
0000
,
0100
0000
0010
0000
2002
0000
0000
3003
,
1000
1000
0000
0000
0001
0001
0000
0000
,
0100
0100
0000
0000
0010
0200
0000
0000
,
0301
1000
0001
1000
,
0001
1000
0001
1000
0001
0010
0100
1000
,
0001
0100
0010
0000
1000
0000
1100
0000
,
1000
0100
0010
0000
0001
0000
0101
0000
,
0001
1000
0100
0000
0010
0000
0110
0000
,
0001
2000
0000
3001
0100
0010
1000
0001
,
1000
0100
0010
0000
0001
0000
0101
0000
,
0001
0100
0010
0000
1000
0000
1100
0000
,
1000
0001
0100
0000
0010
0000
0110
0000
,
1000
0002
0000
1003
0100
0010
0001
1000
,
0020
0100
1000
0100
,
1030
0000
1000
0200
0000
0310
0002
0000
,
0203
0010
0001
0010
,
0302
0000
1003
0020
0000
0130
0001
1000
,
0200
0010
1000
0010
,
2300
0000
3001
0020
0000
0000
0230
0000
,
0320
0100
0001
0100
,
0031
1000
0001
1000
0001
1000
0001
0000
,
0100
0000
0100
0000
0010
1000
0000
1000
,
0100
0010
0100
0000
0010
0001
0000
0001
,
0100
0000
0000
0110
0000
0000
0110
0000
,
0000
0000
0001
1000
0001
0000
0000
0000
,
1000
0000
0010
0000
1000
0000
0100
0010
,
0000
1000
0000
0010
0100
0010
0000
0001
,
1000
0000
0010
0000
0100
0000
0001
0010
,
0000
0100
1000
0000
2002
0000
3003
0000
,
1000
0100
0010
0000
0100
0010
0001
0000
,
1000
0010
0100
0000
0010
0100
0001
0000
,
1000
0100
0000
0110
0000
0011
0000
1001
,
0000
1000
0000
0010
0000
1000
0000
0000
,
0001
0000
0010
0000
0001
0000
0100
0010
,
0000
0001
0000
0010
0100
0010
0000
1000
,
0001
0000
0010
0000
0100
0000
1000
0010
,
0000
0100
0002
0000
2000
0000
3003
0000
,
1000
0000
0001
0100
0001
0010
0000
0011
,
0000
0010
0001
0000
0100
0010
1000
0000
,
0001
0010
0100
0000
1000
0010
0100
0000
,
0010
0000
1000
0000
0001
0000
0010
0000
0001
0000
1000
0000
,
0001
0000
0100
0000
0010
0000
1000
0000
0100
0000
0020
0000
,
0000
0000
0000
0030
,
2002
0000
3003
0000
0001
0100
0000
0001
,
1000
0100
1000
0000
0010
0000
0100
0000
,
0001
0010
0001
0000
0100
0010
1000
0000
,
0100
0010
0001
0010
0100
1000
0001
0000
,
2002
0000
3003
0000
1000
0010
0000
1000
,
0100
0000
0010
0001
0000
0100
0001
0000
,
1000
0100
0010
0001
1000
0010
0100
0000
,
0101
0000
0000
1100
0000
0000
0110
0000
,
2002
0000
3003
0000
1000
0100
0000
1000
,
0001
0100
0001
0000
0010
0000
0100
0000
,
1000
0010
1000
0000
0100
0010
0001
0000
,
0100
0010
1000
0010
0100
0001
1000
0000
,
2002
0000
3003
0000
0001
0010
0000
0001
,
0100
0000
0010
1000
0000
0100
1000
0000
,
0001
0010
0100
0010
0001
1000
0001
0000
,
1000
0010
0100
0010
1000
0001
1000
0000
,
0001
0010
0100
1000
0010
0100
0001
1000
,
0200
0000
0300
0000
;
#NOTES:
     dance-single:
     tikal.:
     Challenge:
     16:
     0,0,0,0,0:
0000
0000
0000
0000
,
0000
0000
0000
0000
,
0000
0000
0000
0000
,
0000
0000
0000
0000
,
0000
0000
0000
0000
,
0000
0000
0000
0000
,
1000
1000
0010
1000
0000
0000
0001
0001
,
0000
0000
1000
1000
0100
1000
0000
0000
,
0001
0001
0010
0001
0000
0000
1000
1000
,
0000
0000
0001
0100
0001
1000
0010
1000
,
0100
0010
0100
1000
,
0010
0100
0001
0010
,
0100
0001
0100
0010
,
0001
1000
0010
0110
,
0100
0010
0100
0001
,
0010
0100
1000
0010
,
0100
1000
0100
0010
,
1000
0000
0001
0000
0010
0100
1000
0001
,
0101
0000
0101
0000
0100
0110
0000
1000
,
0100
0010
0100
0000
1000
1001
0000
0001
,
0100
0001
1000
0001
0010
0100
0010
0001
,
0000
1000
0000
0001
0100
0010
0000
0100
,
0001
1000
0010
1000
0100
0010
0100
1000
,
0000
0010
0000
0200
0002
0000
0303
0000
,
1000
0100
0010
0000
0100
0010
0001
1000
,
0001
0100
0010
0100
0010
1000
0100
0000
,
0010
0011
0000
0110
0000
1100
0000
1000
,
0010
0000
0000
0100
0000
0000
0001
0000
0000
1000
0000
0000
0001
0000
0010
0000
0100
0000
1000
0000
0000
0000
0000
0000
,
0100
1000
0001
1000
0010
0100
0010
1000
,
0000
0001
0000
1000
0100
0010
0000
0100
,
1000
0001
0010
0001
0100
0010
0100
0001
,
0000
0010
0100
2000
0200
0000
3300
0000
,
0001
0100
0001
0010
0100
0010
0000
1001
,
0000
1000
0010
0100
0001
0010
0000
0100
,
1000
0100
1000
0001
0000
0000
1000
0001
0100
0001
0000
0000
,
0100
0000
0001
0000
0100
0000
0010
0000
0000
0000
0000
0000
0100
0000
0010
0000
1000
0000
0001
0000
0000
0020
0000
0000
,
0200
0000
0000
0330
1000
0001
0100
1000
,
0000
0000
0100
0010
0100
0001
1000
0100
,
1100
0000
0001
0101
0000
1000
2002
0000
,
0000
3003
0001
0010
0100
1000
0010
0000
,
1010
0000
1000
0010
0100
0010
0001
0010
,
0200
0000
0301
0010
0100
0010
1000
0010
,
0200
0000
0310
1000
0010
0100
0010
0001
,
0200
0000
0310
0001
0010
0100
0010
2000
,
0002
0000
0000
3003
0001
1000
0100
0001
,
0000
0100
0000
1000
0000
0010
0000
0100
,
0101
0000
1000
1100
0000
0001
2002
0000
,
3003
1000
0010
1000
0100
0010
0001
0100
,
0020
0000
1030
0100
0020
0000
0130
1000
,
0020
0130
0001
0100
0020
1030
0100
0010
,
0001
0010
0000
1000
0010
0000
0001
0100
,
0000
1000
0100
0000
0010
1000
0100
0010
,
0001
0001
0000
1000
1000
0000
0010
0010
,
0000
0000
0000
0000
0000
0000
0100
0000
0001
0000
0100
0000
0001
0000
0000
1000
0000
0000
0100
0000
0000
0000
0000
0000
,
0010
0110
0000
0000
0000
0000
0000
0000
,
0000
0000
0000
0000
0100
2002
0000
3003
,
0100
0110
0000
0000
0000
0000
0000
0000
,
0010
0000
0100
0000
2002
0000
0000
3003
,
1000
1100
0000
0000
0001
0101
0000
0000
,
0010
0110
0000
0000
0100
2002
0000
3003
,
0001
0100
1000
0100
,
0001
0000
0000
0100
0000
0000
1000
0000
0000
0100
0000
0000
0001
0000
0100
0000
0001
0000
1000
0000
0100
0000
1000
0000
,
0001
0100
0010
0000
0001
0100
0010
0000
,
0001
0100
1000
0000
0001
0100
1000
0000
,
0010
0100
1000
0000
0010
0100
1000
0000
,
0010
2000
0000
3100
1000
0010
0100
0001
,
1000
0100
0010
0000
1000
0100
0010
0000
,
1000
0100
0001
0000
1000
0100
0001
0000
,
0010
0100
0001
0000
0010
0100
0001
0000
,
0010
0002
0000
0013
0001
0100
0010
1000
,
0200
0001
0010
1300
,
0001
0100
0001
0020
0000
0130
2000
0000
,
3020
0001
0100
1030
,
1001
0000
0001
0010
0100
1000
0001
0001
,
0200
1000
0010
0301
,
2000
0000
3010
0200
0000
0000
0302
0000
,
0023
1000
0100
0031
,
1000
0010
0100
0001
0010
0100
1000
0000
,
1100
0000
1100
0000
0100
0110
0000
0001
,
0100
0010
0100
0000
0001
1001
0000
1000
,
0100
0000
0000
0110
0000
0000
0110
0000
,
0000
0000
0001
1000
1001
0000
0000
0000
,
0001
1000
0010
1000
0100
1000
0010
0100
,
0000
1000
0000
0100
0001
0010
0000
0100
,
0010
0001
1000
0010
0100
1000
0100
0010
,
0000
0100
0001
0000
2002
0000
3003
0000
,
1000
0010
0100
0000
0010
0100
0001
1000
,
0001
0010
0100
0010
0100
1000
0010
0000
,
0100
0101
0000
0110
0000
1010
0000
0010
,
1000
0000
0000
0100
0000
0000
0010
0000
0000
0001
0000
0000
1000
0000
0010
0000
0100
0000
0001
0000
0000
0000
0000
0000
,
1000
0001
0010
0001
0100
0001
0010
0100
,
0000
0001
0000
0100
1000
0010
0000
0100
,
0010
1000
0001
0010
0100
0001
0100
0010
,
0000
0100
1000
0002
2000
0000
3003
0000
,
0001
0010
0001
0100
0010
0100
0000
1001
,
0000
1000
0100
0010
0001
0100
0000
0010
,
1000
0010
1000
0100
0000
0000
0010
0001
0100
0001
0000
0000
,
0101
0000
1000
0000
0100
0000
1100
0000
0001
0000
0100
0000
,
0110
0000
1000
0000
0001
0000
1001
0000
0010
0000
0220
0000
,
0000
0000
0000
0330
,
2002
0000
3003
0000
1000
0200
0000
1300
,
0010
0100
0001
0010
0100
0010
0001
1000
,
0010
0000
0000
0100
0000
0000
0001
0000
0100
0000
0010
0000
1000
0000
0000
0001
0000
0000
0010
0000
0000
0100
0000
0000
,
0010
0001
1000
0010
1000
0100
0010
0002
,
2000
0000
3003
0000
0001
0200
0000
0301
,
0020
0000
0130
2000
0000
3010
0100
0001
,
1000
0000
0100
0000
1000
0000
0001
0000
0000
0100
0000
0000
0010
0000
1000
0000
0001
0000
1000
0000
0000
0100
0000
0000
,
0010
0001
0100
0220
0000
0330
1010
0000
,
2002
0000
3003
0000
0001
0200
0000
0301
,
0010
0100
1000
0010
0100
0010
1000
0001
,
0010
0000
0000
0100
0000
0000
1000
0000
0100
0000
0010
0000
0001
0000
0000
1000
0000
0000
0010
0000
0000
0100
0000
0000
,
0010
1000
0001
0010
0001
0100
0010
2000
,
0002
0000
3003
0000
1000
0200
0000
1300
,
0020
0000
0130
0002
0000
0013
0100
1000
,
0001
0010
0100
0010
1000
0010
0100
0010
,
0001
0100
0010
0100
1000
0100
0010
0100
,
0001
0010
1000
0010
0001
0100
1000
0100
,
0020
0000
0030
0000
;
