#VERSION:0.83;
#TITLE:Double Homicide;
#SUBTITLE:;
#ARTIST:CupcakKe;
#TITLETRANSLIT:;
#SUBTITLETRANSLIT:;
#ARTISTTRANSLIT:;
#GENRE:;
#CREDIT:;
#MUSIC:Double Homicide.ogg;
#BANNER:Double Homicide-bn.png;
#BACKGROUND:Double Homicide-bg.png;
#JACKET:;
#DISCIMAGE:;
#CDIMAGE:;
#SELECTABLE:YES;
#LYRICSPATH:;
#CDTITLE:;
#SAMPLESTART:61.742;
#SAMPLELENGTH:13.714;
#OFFSET:1.972;
#BPMS:0.000=120.000,
100.000=140.000
;
#STOPS:;
#WARPS:;
#DELAYS:;
#SPEEDS:;
#SCROLLS:;
#TICKCOUNTS:;
#TIMESIGNATURES:;
#LABELS:;
#COMBOS:;
#FAKES:;
#BGCHANGES:;
#FGCHANGES:;
#ATTACKS:;

//---------------dance-single - XMOD---------------
#NOTEDATA:;
#CHARTNAME:;
#CHARTSTYLE:;
#CREDIT:kay;
#STEPSTYPE:dance-single;
#DESCRIPTION:XMOD;
#DIFFICULTY:Beginner;
#METER:3;
#METERF:3;
#RADARVALUES:0,0,0,0,0;
#NOTES:
// measure 0
0000
0000
0000
0000
,  // measure 1
0000
0000
0000
0000
,  // measure 2
0000
0000
0000
0000
,  // measure 3
0000
0000
0000
0000
,  // measure 4
0000
0000
0000
0000
,  // measure 5
0001
0000
0001
0000
,  // measure 6
0001
0000
0000
0000
,  // measure 7
1000
0000
1000
0000
,  // measure 8
1000
0000
0000
0000
,  // measure 9
0100
0000
1000
0000
,  // measure 10
0001
0000
0100
0100
,  // measure 11
0100
0000
0001
0000
,  // measure 12
1000
0000
0100
0100
,  // measure 13
0100
0000
0010
0000
,  // measure 14
0001
0000
1000
0000
,  // measure 15
0010
0010
0010
0000
,  // measure 16
0100
0100
0100
0000
,  // measure 17
0001
0000
1000
0000
,  // measure 18
0100
0000
0010
0000
,  // measure 19
0001
0000
0100
0000
,  // measure 20
0010
0000
1000
0000
,  // measure 21
0100
0100
0100
0000
,  // measure 22
0010
0010
0010
0000
,  // measure 23
0001
0000
0100
0000
,  // measure 24
0010
0000
0000
0000
,  // measure 25
1000
0000
1000
0000
,  // measure 26
1000
0000
0000
0000
,  // measure 27
0001
0000
0001
0000
,  // measure 28
0001
0000
0000
0000
,  // measure 29
0010
0000
0001
0000
,  // measure 30
0100
0100
0100
0000
,  // measure 31
0010
0000
1000
0000
,  // measure 32
0100
0100
0100
0000
,  // measure 33
1000
0000
0010
0000
,  // measure 34
0100
0000
0001
0000
,  // measure 35
1000
0000
0100
0000
,  // measure 36
0010
0000
0001
0000
,  // measure 37
0100
0100
0100
0000
,  // measure 38
0020
0000
0030
0000
,  // measure 39
1000
0000
0100
0000
,  // measure 40
0010
0000
0001
0000
,  // measure 41
1000
1000
1000
0000
,  // measure 42
0010
0000
0100
0000
,  // measure 43
0001
0001
0001
0000
,  // measure 44
0010
0000
0100
0000
,  // measure 45
1000
1000
1000
0000
,  // measure 46
0000
0000
0001
0001
,  // measure 47
0001
0000
0100
0000
,  // measure 48
0010
0000
1000
0000
,  // measure 49
0100
0100
0100
0000
,  // measure 50
1000
0000
0001
0000
,  // measure 51
0100
0100
0100
0000
,  // measure 52
0010
0000
1000
0000
,  // measure 53
0001
0001
0001
0000
,  // measure 54
1000
1000
1000
0000
,  // measure 55
0001
0000
0010
0000
,  // measure 56
0100
0100
0100
0000
;

//---------------dance-single - XMOD---------------
#NOTEDATA:;
#CHARTNAME:;
#CHARTSTYLE:;
#CREDIT:kay;
#STEPSTYPE:dance-single;
#DESCRIPTION:XMOD;
#DIFFICULTY:Easy;
#METER:7;
#METERF:7;
#RADARVALUES:0,0,0,0,0;
#NOTES:
// measure 0
0000
0000
0000
0000
,  // measure 1
0000
0000
0000
0000
,  // measure 2
0000
0000
0000
0000
,  // measure 3
0000
0000
0000
0000
,  // measure 4
0000
0000
0000
0000
,  // measure 5
0001
0100
0001
0000
,  // measure 6
1000
0010
1000
0000
,  // measure 7
0100
1000
0100
0000
,  // measure 8
0010
0001
0010
0000
,  // measure 9
0001
1000
0010
0000
,  // measure 10
0100
0001
1000
0000
,  // measure 11
0100
1000
0001
0000
,  // measure 12
0010
0001
1000
0000
,  // measure 13
0010
0010
0010
0000
,  // measure 14
1000
0100
0010
0001
,  // measure 15
0100
0100
0001
1000
,  // measure 16
0100
0100
0010
0000
,  // measure 17
0001
0100
0010
0010
,  // measure 18
1000
0001
0010
0010
,  // measure 19
0100
1000
0010
0010
,  // measure 20
0100
0001
0020
0000
,  // measure 21
0130
1000
0010
0110
,  // measure 22
0100
0001
0010
0110
,  // measure 23
0100
1000
0010
0110
,  // measure 24
0100
0001
2000
0000
,  // measure 25
3100
0000
1000
0000
,  // measure 26
0001
0000
0000
0000
,  // measure 27
0100
0000
0001
0000
,  // measure 28
1000
0000
0000
0000
,  // measure 29
0100
0010
0001
0000
,  // measure 30
0100
0010
1000
0000
,  // measure 31
0100
0100
0100
0000
,  // measure 32
2002
0000
3003
0000
,  // measure 33
1000
0010
0100
0100
,  // measure 34
0001
1000
0100
0100
,  // measure 35
0010
0001
0100
0100
,  // measure 36
0010
1000
0100
0100
,  // measure 37
1000
0001
0100
0010
,  // measure 38
2000
0000
0001
3001
,  // measure 39
1000
0100
0010
0001
,  // measure 40
1000
0010
0100
0000
,  // measure 41
0001
0001
1000
1000
,  // measure 42
0100
1000
0010
0110
,  // measure 43
0100
0001
0010
0110
,  // measure 44
0100
1000
0010
0110
,  // measure 45
0100
0001
2000
0000
,  // measure 46
3001
0001
1000
1000
,  // measure 47
0010
1000
0100
0110
,  // measure 48
0010
0001
0100
0000
,  // measure 49
0010
1000
1010
0000
,  // measure 50
0010
0100
0001
0000
,  // measure 51
0010
0001
0011
0000
,  // measure 52
0010
0100
1000
0000
,  // measure 53
0001
0100
0101
0000
,  // measure 54
1000
0100
1100
0000
,  // measure 55
0001
0001
1000
1000
,  // measure 56
0010
0100
0002
0000
,  // measure 57
0003
0000
0000
0000
;

//---------------dance-single - XMOD XO+---------------
#NOTEDATA:;
#CHARTNAME:;
#CHARTSTYLE:;
#CREDIT:Talkayon;
#STEPSTYPE:dance-single;
#DESCRIPTION:XMOD XO+;
#DIFFICULTY:Medium;
#METER:12;
#METERF:12;
#RADARVALUES:0,0,0,0,0;
#NOTES:
// measure 0
0000
0000
0000
0000
,  // measure 1
0000
0000
0000
0000
,  // measure 2
0000
0000
0000
0000
,  // measure 3
0000
0000
0000
0000
,  // measure 4
0000
0000
0000
0000
,  // measure 5
0001
0010
0001
0000
1000
0000
0100
0000
,  // measure 6
1000
0010
1000
0000
0001
0000
0100
0000
,  // measure 7
0001
1000
0001
1000
0100
0010
0001
0000
,  // measure 8
1000
0010
0100
0001
0010
0000
1001
0000
,  // measure 9
0001
0010
0100
0000
0001
0100
1000
0000
,  // measure 10
0001
0100
1000
0000
0100
0010
1010
0000
,  // measure 11
1000
0100
0010
0000
1000
0010
0001
0000
,  // measure 12
1000
0010
0001
0000
0010
0100
0101
0000
,  // measure 13
0001
0000
1000
1100
0000
0001
0101
0000
,  // measure 14
1000
0100
0001
0100
1000
0010
0100
0001
,  // measure 15
0010
1000
0010
0001
0100
0010
0001
0010
,  // measure 16
0100
1000
0100
0010
1000
0100
0010
0001
,  // measure 17
0100
0100
0010
0000
1000
0100
0001
0000
,  // measure 18
0100
0100
0010
0000
0001
0100
1000
0000
,  // measure 19
0100
0100
0010
0000
0001
0010
1000
0000
,  // measure 20
0001
0010
0100
1000
0020
0000
0000
0000
,  // measure 21
0130
0001
0010
0100
0001
0100
1100
0000
,  // measure 22
0100
1000
0010
0100
1000
0100
0101
0000
,  // measure 23
1000
0100
0110
0000
0001
0100
0110
0000
,  // measure 24
1000
0100
0010
0001
0200
0000
0000
0000
,  // measure 25
0310
0000
0000
0000
1000
0000
0000
0000
0001
0000
0000
0001
0000
0000
0001
0000
,  // measure 26
0010
0000
0000
0000
0001
0000
0000
0000
1000
0000
0000
1000
0000
0000
1000
0000
,  // measure 27
0010
0101
0010
1100
,  // measure 28
0001
0100
0010
1000
0200
0000
0000
0000
,  // measure 29
0310
0001
0100
0000
0010
1000
0100
0000
,  // measure 30
0010
0001
0100
1000
0100
0001
0010
0000
,  // measure 31
0100
0001
0100
1000
0010
0010
0100
0100
,  // measure 32
0002
0000
0003
0000
,  // measure 33
1000
1000
0100
0100
0010
1000
0010
0001
,  // measure 34
0100
0100
0010
0010
1000
0100
0010
0000
,  // measure 35
0001
0001
0100
0100
0010
0001
0010
1000
,  // measure 36
0100
0100
0010
0010
0001
0100
0010
0000
,  // measure 37
1000
1000
0001
0001
0010
0100
0001
0100
,  // measure 38
2000
0000
0000
0000
3010
0100
1000
0100
,  // measure 39
0001
0001
1000
1000
0100
0010
1000
0010
,  // measure 40
0001
0100
0010
0001
0010
1000
0001
0000
,  // measure 41
0021
0000
1000
0000
0031
0100
2000
0000
,  // measure 42
3100
0010
1000
0100
0010
1000
0002
0000
,  // measure 43
0103
0010
0001
0100
0010
0001
2000
0000
,  // measure 44
3100
0010
1000
1000
0100
0010
0001
0000
,  // measure 45
0201
0000
1000
0000
0301
0010
1000
0000
,  // measure 46
0110
0000
0001
0100
0010
0001
2000
0000
,  // measure 47
3100
0010
1000
0100
0010
1000
0001
0100
,  // measure 48
0010
0001
0100
0010
0100
0001
1000
0000
,  // measure 49
1100
0000
0011
0000
0001
0100
2000
0000
,  // measure 50
3001
0010
1000
0100
0020
0001
0031
0000
,  // measure 51
0101
0000
1010
0000
1000
0100
0002
0000
,  // measure 52
1003
0010
0001
0100
0020
0100
0130
1000
,  // measure 53
0001
0010
1000
0100
0020
0100
0130
0001
,  // measure 54
1000
0010
0001
0100
0020
0100
0130
0000
,  // measure 55
1010
0000
0000
0000
1010
0000
0000
0000
0101
0000
0000
0201
0000
0000
0000
0000
,  // measure 56
1300
0100
0001
0010
0200
0300
0000
0000
;

//---------------dance-single - XMOD FS XO FL----------------
#NOTEDATA:;
#CHARTNAME:;
#CHARTSTYLE:;
#CREDIT:Talkayon;
#STEPSTYPE:dance-single;
#DESCRIPTION:XMOD FS XO FL-;
#DIFFICULTY:Hard;
#METER:15;
#METERF:15;
#RADARVALUES:0,0,0,0,0;
#NOTES:
// measure 0
0000
0000
0000
0000
,  // measure 1
0000
0000
0000
0000
,  // measure 2
0000
0000
0000
0000
,  // measure 3
0000
0000
0000
0000
,  // measure 4
0000
0000
0000
0000
,  // measure 5
1000
0000
0001
0000
0010
0000
0001
0000
0100
00M0
0200
1000
0000
0000
0310
0000
,  // measure 6
0001
0000
1000
0000
0010
0000
1000
0000
0100
00M0
0200
0001
0000
0000
0310
0000
,  // measure 7
1000
0000
0010
0100
0010
0000
0001
0000
0010
0100
0010
0000
1000
0000
0001
0000
,  // measure 8
0010
0100
0010
0000
1000
0000
0010
0100
1000
0000
0020
0200
0000
0000
0330
0000
,  // measure 9
0001
0000
1000
0100
1000
0000
0001
0000
0102
0000
0013
0000
0100
0010
0001
0000
,  // measure 10
0102
0000
0013
0000
0100
0010
0001
0000
0001
0000
0110
0000
1001
0000
0000
0000
,  // measure 11
0001
0000
0100
0010
1000
0000
0010
1000
0200
0000
1300
0000
0001
0100
0010
1000
,  // measure 12
0200
0000
1300
0001
0100
0001
1000
0000
1100
0000
0110
0000
0011
0000
0001
1000
,  // measure 13
0010
0100
0000
0001
0010
0M00
0010
1000
0000
0001
0100
00M0
0100
1000
0000
0100
,  // measure 14
0010
0001
1000
0000
0001
0100
0100
1000
0000
0001
0010
0M00
0010
0000
1000
0000
,  // measure 15
0010
0100
0001
0000
1000
0100
0100
0001
0000
1000
0010
0M00
0010
0000
0001
0000
,  // measure 16
1002
0000
0103
0000
0001
0100
0100
1000
0000
0001
0010
0M00
0010
0000
1000
0010
,  // measure 17
0100
0010
1000
0000
0001
0000
1000
0100
0010
000M
0020
1000
0000
0130
0010
0100
,  // measure 18
0001
1000
0100
1000
0001
0000
0100
0000
0010
000M
0020
0001
0000
0130
1000
0000
,  // measure 19
0001
0100
0010
0000
1000
0100
0010
0000
0100
M000
0200
0001
0000
0310
0100
0001
,  // measure 20
1000
0100
0010
0000
0001
0100
0010
0000
0100
000M
0200
1000
0000
0310
0001
0000
,  // measure 21
1001
0000
1000
0100
1000
0100
0010
0000
2000
0000
3010
0100
0000
0000
1000
0100
,  // measure 22
0010
0000
0001
1000
0001
0000
0100
0010
0002
0000
0013
0100
0000
0000
0001
0100
,  // measure 23
0020
0000
1030
0000
1001
0000
0001
0010
0100
0001
0000
0110
0000
0100
1000
0000
,  // measure 24
0001
0100
0010
1000
0200
0000
1300
0001
0100
0010
0000
MMMM
0000
0000
0000
0000
,  // measure 25
0001
0000
1000
0000
0100
0000
1000
0000
0010
0M00
0020
0001
0000
0000
0130
0000
,  // measure 26
1000
0000
0001
0000
0100
0000
0001
0000
0010
0M00
0020
1000
0000
0000
0130
0000
,  // measure 27
0001
0100
00M0
0100
1000
0000
0000
0000
1000
0100
00M0
0100
0001
0000
0000
0000
,  // measure 28
0001
0100
0010
1000
0010
0000
1000
0100
0010
0002
0010
0000
0203
0300
0010
0000
,  // measure 29
1020
0000
0000
0130
0001
0000
0010
0000
0021
0000
0000
0130
1000
0000
0001
0000
,  // measure 30
0101
0000
0100
0010
1000
0000
0100
0000
1200
0000
0000
0310
0001
0000
1000
0010
,  // measure 31
0100
0000
0001
0000
0010
0100
0010
0001
1000
0000
0010
0100
0001
0000
1000
0100
,  // measure 32
0010
0000
0001
0000
0100
0010
1000
0000
2200
0000
0000
0000
3300
0000
0000
0000
,  // measure 33
0100
0010
0100
0010
0001
0000
1000
0000
0001
0100
0100
1000
0000
0001
0010
0M00
,  // measure 34
0010
0000
1000
0010
0100
0000
0001
0000
1000
0100
0100
0001
0000
1000
0010
0M00
,  // measure 35
0010
0000
0001
0000
0010
0100
1000
0000
0001
0100
0100
1000
0000
0001
0010
0M00
,  // measure 36
0010
0000
1000
0000
0010
0100
0001
0000
1000
0100
0100
0001
0000
1000
0010
0M00
,  // measure 37
0020
0000
0001
0000
0130
0000
1000
0100
1000
0001
0000
0010
M000
0010
0100
0000
,  // measure 38
0201
0000
0000
0000
1000
0000
0000
0000
0310
0100
000M
0100
0000
0000
1000
0100
,  // measure 39
0010
0000
0001
0010
0100
0000
1000
0010
0100
0010
1000
0000
0001
0000
1000
0100
,  // measure 40
0010
0100
1000
0000
0001
0000
0100
0000
0010
0100
0000
MMMM
0000
0000
0000
0000
,  // measure 41
4000
0000
0000
0000
3004
0000
0000
0000
4003
0000
0000
3100
0010
0000
0001
0010
,  // measure 42
0200
0000
0301
0000
1000
0010
0100
0010
0002
0000
0103
0000
1001
0000
0000
0000
,  // measure 43
0001
0100
0010
0100
1000
0000
0001
0000
0010
0100
0001
0000
1001
0000
0000
0000
,  // measure 44
1000
0010
0100
0001
1000
0100
0010
0100
0001
0000
1000
0010
0100
0000
0010
0000
,  // measure 45
0004
0000
0000
0000
4003
0000
0000
0000
3004
0000
0000
0103
0010
0000
0100
0000
,  // measure 46
MMMM
0000
0000
0000
1000
0000
0010
0100
0010
0000
0001
0000
1000
0000
0100
0000
,  // measure 47
0001
1000
0001
0000
0010
0100
0010
0001
0100
0000
0010
0100
0010
1000
0100
0000
,  // measure 48
0040
0400
0000
0000
0000
0000
0000
0000
0000
0000
0000
0030
0300
0000
0000
0000
,  // measure 49
1000
0001
0000
0000
0000
0000
0000
0000
1000
0001
0000
0000
0000
0000
0000
0000
0101
0000
00M0
0000
0200
0000
1000
0000
0000
0000
0000
0000
0310
0000
0100
0000
,  // measure 50
0010
0001
0100
0000
0101
00M0
0200
1000
0000
0000
0310
0000
0010
0000
0000
0000
,  // measure 51
0001
1000
0000
0000
0000
0000
0000
0000
0001
1000
0000
0000
0000
0000
0000
0000
1100
0000
00M0
0000
0200
0000
0001
0000
0000
0000
0000
0000
0310
0000
0100
0000
,  // measure 52
0010
1000
0100
0000
1100
00M0
0200
0001
0000
0000
0310
0000
0010
0000
1000
0001
,  // measure 53
1000
0100
0010
0000
0011
0M00
0020
1000
0000
0000
0130
0000
0100
0000
0001
1000
,  // measure 54
0001
0100
0010
0000
1010
0M00
0020
0001
0000
0000
0130
0000
0100
0000
1000
0000
,  // measure 55
1001
0000
0000
0000
1001
0000
0000
0000
0110
0000
0000
0110
0000
0000
1000
0001
,  // measure 56
1000
0100
0010
0000
0011
0M00
0020
2000
0000
0000
3030
0000
0000
0000
0000
0000
;

//---------------dance-single - XMOD FS KS- JU- XO----------------
#NOTEDATA:;
#CHARTNAME:;
#CHARTSTYLE:;
#CREDIT:Talkayon;
#STEPSTYPE:dance-single;
#DESCRIPTION:XMOD FS KS- JU- XO-;
#DIFFICULTY:Challenge;
#METER:17;
#METERF:17;
#RADARVALUES:0,0,0,0,0;
#NOTES:
// measure 0
0000
0000
0000
0000
,  // measure 1
0000
0000
0000
0000
,  // measure 2
0000
0000
0000
0000
,  // measure 3
0000
0000
0000
0000
,  // measure 4
0000
0000
0000
0000
0000
0000
0000
0000
0000
0000
0000
0000
0000
0000
0000
0001
,  // measure 5
1000
0100
0010
0100
1000
0000
0001
1000
0010
0M00
0010
0002
0000
0000
0103
0000
,  // measure 6
0001
0000
0100
0010
0100
0001
1000
0001
0010
0M00
0010
2000
0000
0000
3100
0000
,  // measure 7
1000
0001
0010
0001
0100
M000
0100
0000
0010
0001
0100
M000
0200
0000
0010
0000
,  // measure 8
1300
0001
0100
0010
1000
0100
0010
0200
0001
0000
0320
1000
0000
0000
0130
1000
,  // measure 9
0001
0100
0010
0100
0001
0000
1000
0010
2000
0000
0100
0000
3001
0100
0002
0000
,  // measure 10
0010
0000
1003
0000
0010
0200
1000
0000
0301
0000
0101
0000
1100
0000
0000
0000
,  // measure 11
1000
0001
0010
0100
0010
0000
0001
0001
2000
0000
3010
0100
1000
0100
0010
1000
,  // measure 12
0002
0000
0013
0100
0001
0100
0010
0001
1000
0000
1100
0000
0101
0000
0100
0010
,  // measure 13
1000
1000
0000
0002
0010
0000
2003
0100
0000
3001
0200
0000
0010
0310
0000
0001
,  // measure 14
0010
0100
0010
1000
0100
1000
0001
0010
0001
0100
0010
1000
0001
1000
0100
0010
,  // measure 15
1000
0010
0100
1000
0010
1000
0001
0100
0001
0010
0100
1000
0001
1000
0010
0100
,  // measure 16
1000
0000
0100
0010
1000
0100
1000
0001
0010
0001
0100
0010
1000
0001
0010
0100
,  // measure 17
0001
0100
1000
0000
1001
0000
0001
0100
0010
M000
0010
0200
0000
1300
0100
1000
,  // measure 18
0010
0100
0001
1000
0001
0000
0010
0000
0110
M000
0100
0020
0000
0000
1030
0000
,  // measure 19
0100
0010
0001
0000
1000
0001
0100
0000
0110
M000
0010
0200
0000
1300
0100
1000
,  // measure 20
0010
0100
0001
0000
1000
0001
1000
0100
0010
000M
0010
0200
0000
0300
0000
0000
,  // measure 21
1001
0000
1000
0100
0010
0001
1000
0010
0100
000M
0100
0010
0001
0000
0010
0001
,  // measure 22
0100
0000
0010
1000
0100
0000
1000
0100
0010
000M
0010
0100
0001
0000
0100
0001
,  // measure 23
0020
0000
0001
0000
0130
0000
1000
0100
1000
0010
000M
0110
0000
0010
0001
0000
,  // measure 24
0010
0100
1000
0010
0100
0000
0001
0100
0001
0010
M000
0110
0000
0000
0000
0000
,  // measure 25
0100
0000
0001
0000
0010
0000
0001
0000
0100
00M0
0100
2000
0000
0000
3100
0010
,  // measure 26
0100
0000
1000
0000
0010
0000
1000
0000
0100
00M0
0100
0002
0000
0000
0103
0010
,  // measure 27
1000
0100
00M0
0100
0001
0000
0000
0000
0001
0100
00M0
0100
1000
0000
0000
0000
,  // measure 28
1000
0000
0010
000M
0010
0000
0100
0000
1000
0000
0000
0000
0001
0000
0010
0000
0100
M000
0100
0000
0001
0000
0000
0000
0110
0000
0000
0000
0001
0000
0000
0000
,  // measure 29
0021
0000
0000
1000
0000
0000
0130
0000
0021
0000
0000
1000
0000
0000
0130
0000
,  // measure 30
0011
0000
1000
0010
0100
0000
0001
0000
0012
0000
0010
0000
1003
0001
0010
0001
,  // measure 31
0100
0000
0001
1000
0010
1000
0100
0010
0001
0000
1000
0010
0100
0000
0001
0100
,  // measure 32
0020
0000
0001
0000
0130
0010
1000
0000
2100
0000
0000
3001
0000
0000
1000
0000
,  // measure 33
0010
000M
0010
0000
0100
M000
0100
0000
0001
0000
1000
0000
0010
0000
1000
0000
0100
00M0
0100
0000
0001
0000
0010
M000
0010
0000
0100
0000
0001
0000
1000
0000
,  // measure 34
0100
000M
0100
0000
0010
M000
0010
0000
0001
0000
1000
0000
0100
0000
1000
0000
0010
0M00
0010
0000
0001
0000
0100
M000
0100
0000
0010
0000
0001
0000
0000
0000
,  // measure 35
1000
0000
0000
0000
0010
0000
0000
0000
0100
000M
0100
0000
1000
0000
0001
0000
0010
0M00
0010
0000
1000
0000
0100
000M
0100
0000
0010
0000
1000
0000
0000
0000
,  // measure 36
0010
0M00
0010
0000
0001
0000
0000
0000
0010
0000
0100
0000
0010
0000
0001
0000
0100
00M0
0100
0000
1000
0000
0010
000M
0010
0000
0100
0000
2000
0000
0000
0000
,  // measure 37
0100
0000
0001
0000
3020
0000
0130
0010
0100
0002
0000
1000
0000
0013
0200
0000
,  // measure 38
0020
0000
0030
0000
0302
0000
0000
0000
0203
0010
0000
1300
0000
0000
0001
0100
,  // measure 39
0010
1000
0010
0100
0001
0000
1000
0100
0010
0002
0100
0000
1003
0000
0001
0010
,  // measure 40
0100
0010
0001
0000
1000
0000
0010
0000
0200
0010
0000
0301
0000
0000
0000
0000
,  // measure 41
4000
0000
0000
0000
3004
0000
0000
0000
4003
0000
0000
3100
0010
0000
0001
0200
,  // measure 42
0010
0300
11M0
0000
1000
0001
1000
0200
0010
0300
01M1
0000
1010
0000
0000
0000
,  // measure 43
0010
0100
0001
0010
0100
0000
1000
0001
1000
0020
0100
0030
0M11
0000
0000
0000
,  // measure 44
0010
0100
0010
0001
1000
0001
0100
0020
1000
0030
M010
0001
0200
0000
0010
0000
,  // measure 45
0304
0000
0000
0000
4003
0000
0000
0000
3004
0000
0000
0013
0100
0000
2000
0000
,  // measure 46
0MMM
0000
0000
0000
3001
0000
1000
0020
0100
0030
0M11
0000
1100
0000
0000
0000
,  // measure 47
0100
0020
0001
0030
001M
1000
0010
0200
0001
0300
010M
1000
0100
0020
0001
0030
,  // measure 48
001M
1000
0010
0200
0001
0300
010M
1000
0100
0010
0001
0100
0020
0000
0100
0000
,  // measure 49
1030
0000
0000
0000
1100
0000
0000
0000
0101
00M0
0100
2000
0000
0000
3100
0010
,  // measure 50
0100
1000
0010
0100
0101
00M0
0100
2000
0000
0000
3100
0000
0010
0000
0100
0000
,  // measure 51
1100
0000
0000
0000
0101
0000
0000
0000
1100
00M0
0100
0002
0000
0000
0103
0010
,  // measure 52
0100
0001
0010
0100
1100
00M0
0100
0002
0000
0000
0103
0000
0010
0000
1000
0001
,  // measure 53
0010
0001
0100
0010
1010
0M00
0010
0002
0010
0000
1000
0000
0103
0000
0001
1000
,  // measure 54
0010
1000
0100
0010
0011
0M00
0010
2000
0010
0000
0001
0000
3100
0000
1000
0000
,  // measure 55
1001
0000
M00M
0000
1001
0000
M00M
0000
0110
0000
0000
0110
0000
0000
0001
1000
,  // measure 56
0010
1000
0100
0010
0011
0M00
0010
2000
0000
0000
3000
0000
0000
0000
0000
0000
;
