#TITLE:Disconnected Hardkore;
#SUBTITLE:;
#ARTIST:Canblaster;
#TITLETRANSLIT:;
#SUBTITLETRANSLIT:;
#ARTISTTRANSLIT:;
#GENRE:Destruction;
#CREDIT:Braeden;
#MUSIC:Disconnected Hardkore.ogg;
#BANNER:ban.png;
#BACKGROUND:bg.png;
#CDTITLE:;
#SAMPLESTART:31.280;
#SAMPLELENGTH:11.840;
#SELECTABLE:YES;
#OFFSET:-0.033;
#BPMS:0.000=139.000
,36.000=140.000
,40.000=150.000
,44.000=160.000
,48.000=170.000
,52.000=180.000
,56.000=190.000
,60.000=200.000
,64.000=210.000
,280.000=215.000
,284.000=220.000
,288.000=225.000
,292.000=230.000
,296.000=235.000
,300.000=240.000
,304.000=245.000
;
#STOPS:;
#JACKET:jacket.png;
#BGCHANGES:;
#FGCHANGES:;

//--------------- dance-single - XMOD ----------------
#NOTES:
     dance-single:
     XMOD:
     Beginner:
     8:
     0.245,0.241,0.112,0,0,186,13,0,0,0,0,0.245,0.241,0.112,0,0,186,13,0,0,0,0:
0000
0000
0000
0000
,
1001
0001
0000
0100
,
0010
0000
0010
0000
0000
1000
0000
0000
,
1001
0001
0000
1000
,
0001
0000
0000
0100
0000
0000
0010
0000
,
0110
0100
0000
0001
,
1000
1001
0000
0001
,
1001
0000
1000
0000
,
0001
0000
1000
0000
,
0001
0000
0100
0000
,
0010
0000
1000
0000
,
0100
0000
0010
0000
,
0001
1000
0001
1000
,
0010
0000
0100
0000
,
0001
0000
1000
0000
,
0001
0000
1000
0000
,
0001
0100
0001
0100
,
0001
1000
0010
1000
,
0001
0010
0001
0100
,
0010
1000
0010
1000
,
0001
0001
1000
1000
,
0001
0000
0100
0000
,
0010
1000
0001
0100
,
0001
0000
0100
0010
,
1000
0100
0010
0001
,
1000
0000
0001
0100
,
0001
0010
0001
1000
,
0010
0000
1000
0000
,
0001
1000
0001
0000
,
1001
0000
1000
0010
,
0100
0001
0010
0001
,
1001
0000
1000
0100
,
0010
0001
0010
0001
,
1001
0000
1000
0010
,
0100
0001
0100
0001
,
1001
0000
1001
0000
,
1000
0001
1000
0000
,
0001
0000
0000
1000
0000
0000
0001
0000
,
0000
1000
0000
0000
0010
0000
0000
0000
,
1000
0000
0000
0100
0000
0000
0010
0000
,
0000
0001
0000
0000
1000
0000
0000
0000
,
0010
0000
0000
1000
0000
0000
0010
0000
,
0000
1000
0000
0000
0001
0000
0000
0000
,
0100
0000
0000
0010
0000
0000
1000
0000
,
0000
0000
0001
0000
,
1000
0100
1000
0001
,
0010
0100
1000
0010
,
0100
0000
0001
0000
0010
0000
0000
0001
,
0000
0100
0000
0000
0001
0000
0010
0000
,
0001
0010
0100
1000
,
0001
0010
0001
0100
,
0010
0000
1000
0000
0100
0000
0000
1000
,
0000
0001
0000
0000
1000
0000
0001
0000
,
1001
0000
1000
0000
,
0001
0100
0001
1000
,
1001
0000
0001
0000
,
0010
0100
1000
0100
,
0110
0000
0010
0000
,
1001
0000
0010
0001
,
1001
0000
1000
0001
,
0100
0100
0010
0010
,
1001
0001
1000
0010
,
0000
1000
0000
0001
,
1000
0010
1000
0000
,
0001
0000
1000
0002
,
0103
0010
1000
0020
,
0130
0001
0100
0020
,
1030
0200
1300
0020
,
1030
0000
0001
1000
,
0001
0000
1000
0000
,
0010
0000
0100
0000
,
0001
0000
1000
0000
,
0010
0000
1000
0000
,
0001
1000
0001
0000
,
0100
0010
0100
0000
,
0001
1000
0001
1000
,
0010
1000
0010
1000
,
0001
0100
0001
0100
,
0010
1000
0010
1000
,
0001
0010
0001
0010
,
0100
1000
0100
1000
,
0001
1000
0001
0000
,
0100
0000
0010
1000
,
0001
0100
0001
0100
,
0001
0100
0010
1000
,
0001
0000
0000
0100
0000
0000
0010
0000
,
0000
1000
0000
0000
0001
0000
0010
0000
,
0001
0000
0000
1000
0000
0000
0010
0000
,
0000
0100
0000
0000
0001
0000
1000
0000
,
0001
0000
0000
0001
0000
0000
1000
0000
,
0000
0010
0000
0000
0100
0000
0001
0000
,
0100
0000
0000
0010
0000
0000
1000
0000
,
0000
0000
0001
1000
,
1001
1001
0000
0000
;

//--------------- dance-single - XMOD ----------------
#NOTES:
     dance-single:
     XMOD:
     Easy:
     12:
     0.573,0.58,0.552,0.302,0.035,366,64,35,7,0,0,0.573,0.58,0.552,0.302,0.035,366,64,35,7,0,0:
0000
0000
0000
0000
,
1001
0000
0000
0000
0001
0000
0000
0100
0000
0000
0000
0000
0010
0000
0000
0000
,
1000
0000
1001
0000
0000
0101
0000
0000
,
0110
0000
0000
0000
0010
0000
0000
1000
0000
0000
0000
0000
0001
0000
0000
0000
,
1001
0000
0000
0110
0000
0000
1000
0001
,
1000
0000
0000
0000
0001
0000
0000
0010
0000
0000
0000
0000
0001
0000
0000
0000
,
1000
0000
0000
0000
1001
0000
0000
0001
0000
0000
0100
0000
0010
0000
0000
0000
,
1010
0000
0000
0000
1000
0000
0000
0000
0001
0000
0000
1000
0000
0000
0010
0000
,
1000
1000
0000
0001
0001
0000
0000
0000
,
2000
0000
3001
1000
0001
0000
0101
0000
,
0100
0000
0010
1000
0010
0000
1000
0000
,
0001
0000
0010
0100
0010
0000
0001
0000
,
1000
0010
1000
0001
0100
0010
0100
0000
,
0001
0000
1000
0001
1000
0000
0001
0000
,
0100
0000
0010
1000
0010
0000
1000
0000
,
0001
0000
0100
0001
0100
0000
0010
0000
,
1000
0100
0010
0001
1000
0010
0100
0001
,
1000
0100
0010
0001
,
1000
0000
0010
0000
0100
0000
0001
1000
,
0001
0100
0010
1000
,
0001
0010
0001
0010
0100
1000
0100
1000
,
0001
0100
0000
0010
0000
1000
0000
0001
,
0100
0001
0000
1000
0000
0010
2000
0000
,
3001
1000
0000
0010
0000
1000
0001
1000
,
0000
0010
0000
1000
0001
0000
0100
0000
,
0010
1000
0000
0010
0000
1000
0000
0001
,
0100
0010
0000
1000
0100
0000
0010
0001
,
0010
0001
0000
1000
0000
0010
0000
0100
,
0001
0000
0010
0000
0100
1000
0100
0000
,
1001
0000
0001
0000
0100
0000
0010
1000
,
0010
1000
0100
0010
,
0011
0000
0001
0000
0100
0000
0010
1000
,
0001
0010
0100
1000
,
1001
0000
0001
0000
0100
0000
0010
1000
,
0100
0010
0001
1000
,
1001
0010
1001
0100
,
0011
0000
0011
0000
1000
0100
1000
0100
,
1000
0000
0000
1001
0000
0000
0101
0000
,
0000
1001
0000
0000
1000
0001
0000
0000
,
1001
0000
0000
1010
0000
0000
0101
0000
,
0000
1001
0000
0001
0100
0001
0100
0000
,
0110
0000
0000
1010
0000
0000
1001
0000
,
0000
0101
0000
0000
0001
1000
0000
0000
,
1010
0000
0000
1001
0000
0000
0001
0100
,
0000
0001
0000
1000
0010
0000
1000
0000
,
0001
0000
0100
0001
0100
0001
0100
0010
,
0000
1000
0000
0001
0100
0000
0001
0000
,
1000
0100
1000
0001
0100
0000
0010
1000
,
0000
0001
0000
0100
0010
0000
1000
0000
,
0001
0000
0010
0100
1000
0100
0010
0001
,
0000
0100
0000
0001
1000
0000
0010
0000
,
1000
0001
1000
0010
1000
0001
0100
0010
,
0000
1000
0000
0001
1000
0000
0010
0000
,
2010
0000
0001
0000
0010
0000
3001
0100
,
0020
0000
1000
0000
0130
0000
0001
0010
,
0002
0000
1000
0000
0010
0000
0103
0010
,
2000
0001
3010
0010
,
2001
0001
0010
3100
,
1100
0000
1000
0000
0010
0000
0100
0001
,
2000
0010
0100
3001
,
0100
0100
0010
0010
,
1010
0000
0000
1000
0000
0001
1000
0000
0000
0010
0000
1000
,
0000
0000
0001
0000
0000
0100
0001
0000
0000
0100
0000
0000
,
0010
0000
0000
1000
0000
0001
1000
0000
0000
0001
0000
0000
,
1000
0000
0100
0000
0010
0000
0001
0000
0000
2000
0000
0000
,
3001
0010
0100
2000
,
3010
0100
0001
0200
,
0310
2000
3100
0200
,
0310
0001
0000
0010
0001
0000
1000
0000
,
0010
1000
1001
0001
,
0100
0010
1000
0001
,
0100
0001
0010
0100
,
1000
0000
0010
0000
1000
0000
0001
1000
,
0001
0100
0010
1000
,
0001
0010
0100
0000
,
1000
0001
1000
0010
,
1000
0100
0010
0001
,
1000
0100
1000
0010
,
0100
0001
0010
0001
,
0100
0010
1000
0001
,
0010
0100
1000
0010
,
0100
0000
0001
0000
1000
0001
0000
0000
,
1000
0010
0000
0000
1000
0001
0000
0000
,
1000
0100
0010
0001
,
0100
0010
1000
0001
,
1001
0000
0000
1010
0000
0000
0110
0000
,
0000
0101
0000
0001
0100
0010
1000
0000
,
1001
0000
0000
0101
0000
0000
0001
1000
,
0000
0010
0000
1000
0001
1000
0010
0000
,
1010
0000
0000
1100
0000
0000
1001
0000
,
0000
0101
0000
0100
0010
0100
0010
0000
,
1010
0000
0000
1001
0000
0000
0001
1000
,
0000
0010
0000
1000
0100
0010
0001
1000
,
0010
2020
0000
0000
,
0000
0000
3030
0000
;

//--------------- dance-single - XMOD XO ----------------
#NOTES:
     dance-single:
     XMOD XO:
     Medium:
     14:
     0.725,0.746,0.363,0.328,0.125,508,42,38,13,0,0,0.725,0.746,0.363,0.328,0.125,508,42,38,13,0,0:
0000
0000
0000
0000
,
1002
0000
0000
0000
0103
0000
0000
0010
0000
0000
1000
0000
0001
0000
0100
0000
,
0010
0010
1000
0100
0100
0010
0001
0001
,
1002
0000
0000
0000
1003
0000
0000
0100
0000
0000
0010
0000
0001
1000
0000
0000
,
1001
0001
0001
0100
0010
0010
1000
1000
,
1002
0000
0000
0000
0013
0000
0000
0001
0000
0000
0100
0000
0010
0000
1000
0000
,
0001
0000
0000
0000
2001
0000
0000
3010
0000
0000
0100
0000
0001
0000
0001
0000
,
2001
0000
0000
0000
3001
0000
0100
0000
0010
0000
0000
1000
0000
0000
0001
0000
,
1000
1000
0000
0010
0010
0000
0000
0000
,
1000
0100
0010
0001
1000
0010
2000
0000
,
3001
0100
0010
1000
0100
1000
0002
0000
,
1003
0100
0010
0001
0010
0100
0020
0000
,
0031
0001
0100
0100
0010
1000
0001
0100
,
0001
0010
0100
1000
0010
0100
0002
0000
,
0013
0100
1000
0010
0100
0001
2000
0000
,
3001
0010
0100
1000
0001
0100
0020
0000
,
1030
0100
1000
0100
0010
0001
0010
0001
,
1000
0100
1000
0000
0001
0010
0001
0000
,
1000
0001
1000
0000
0010
0100
0010
0100
,
0001
1000
0001
0000
1000
0010
1000
0000
,
0001
0010
0001
0010
0100
1000
0100
1000
,
0001
0100
1000
0100
0001
0100
0010
1000
,
0001
1000
0100
0000
0010
0000
0001
1000
,
0001
1000
0100
0001
0100
0010
0001
1000
,
0001
0100
0010
0000
1000
0000
1001
0000
,
0001
0100
0001
0100
1000
0100
0010
1000
,
0001
0100
0001
0000
0101
0000
0001
1000
,
0001
0010
0001
0010
1000
0010
0001
1000
,
0001
0010
0100
1000
0001
0100
0010
1000
,
1001
0000
0001
0000
0100
0010
0100
0001
,
1000
0100
1000
0000
1001
0000
0001
1000
,
0001
0000
0100
0000
0001
0010
0001
1000
,
0001
0100
0010
0000
1000
0000
0001
1000
,
0001
0000
1000
0000
0100
0010
0001
0100
,
0010
1000
0001
0000
1000
0000
0010
1000
,
1001
0001
1001
1000
,
1010
0000
0110
0000
0001
1000
0001
1000
,
0001
0010
0000
0100
1000
0000
1001
0000
,
0000
0001
1000
0000
1000
1000
0010
0000
,
0100
0001
0000
0001
1000
0000
1001
0000
,
0000
0101
0000
0100
0010
1000
0001
0010
,
0100
1000
0000
0010
1000
0000
0001
0010
,
0000
0100
1000
0000
0001
0001
0100
0000
,
0001
0010
0000
0100
1000
0000
0001
0001
,
0000
1000
0000
0010
0100
0001
1000
0001
,
1000
0000
0010
0100
0010
1000
0100
0001
,
0000
0100
0000
0010
0100
1000
0001
1000
,
0001
0010
0001
0010
0100
1000
0001
0101
,
0000
1001
0000
1000
0010
0100
0001
1000
,
0001
0000
0100
0010
0100
0001
0010
1000
,
0000
0010
0000
0100
1000
0001
0100
0010
,
1000
0100
0010
0001
1000
0010
0100
0101
,
0000
1001
0000
1000
0100
0010
0001
1000
,
0001
0010
0001
0000
1000
0100
1000
0001
,
1000
0100
1000
0000
0001
0100
0010
1000
,
1001
0000
0001
0000
1000
0100
0010
0000
,
0001
0100
0001
0010
0001
0000
1000
0010
,
1010
0000
0100
0000
0001
1000
0001
0010
,
0110
0000
0100
0000
1000
0100
1000
0001
,
1001
0000
1000
0000
0010
0100
0001
0000
,
1000
0100
1000
0001
0010
0001
1000
0010
1000
0001
0010
0001
,
1000
0000
1000
0010
0000
0010
0100
0000
0000
0001
0000
0100
,
0000
0000
0010
0000
0000
0100
0001
0000
0000
1000
0000
0010
,
0100
0000
0100
0001
0000
0001
1000
0000
0000
0010
0000
1000
,
0100
0000
0010
0000
0000
0001
1000
0000
0000
0002
0000
0000
,
1003
0000
1000
0100
0000
0100
0010
0000
0000
0002
0000
0000
,
1003
0000
1000
0010
0000
0010
0100
0000
0000
0002
0000
0000
,
1003
0020
0130
0002
,
1003
0001
0000
0100
0010
1000
0001
0010
,
0100
1000
1001
0001
,
0100
0001
0100
0000
0010
1000
0010
1000
,
0001
0100
0110
0010
,
1000
0000
0001
0000
1000
0000
0001
0010
,
0100
0010
0011
0001
,
1000
0100
1000
0000
0100
0000
0000
0000
,
1000
0001
1000
0001
,
1000
0100
0010
0001
1000
0010
0100
0001
,
1000
0100
1000
0000
0001
0010
0001
0000
,
1000
0001
1000
0000
0010
0100
0010
1000
,
0001
0010
0001
0000
1000
0100
1000
0000
,
0001
0100
0001
0010
0100
1000
0100
0010
,
0001
1000
0001
1000
0001
0100
0000
0000
,
0010
1000
0000
0000
0001
1000
0001
0000
,
1000
0010
1000
0001
,
1000
0100
0010
0001
1000
0010
0100
0001
,
1000
0000
0000
1001
0000
0000
0101
0000
,
0000
0110
0000
0010
1000
0100
1000
0001
,
1000
0000
0000
1001
0000
0000
0001
0100
,
0000
0110
0000
0010
1000
0100
1000
0000
,
1000
0000
0000
1010
0000
0000
0101
0000
,
0000
1001
0000
0001
0010
0100
1000
0010
,
1000
0000
0000
1001
0000
0000
0100
0001
,
0000
0100
0000
0010
1000
0100
0010
0001
,
1000
2020
0000
0000
,
3030
0000
0000
0000
;

//--------------- dance-single - XMOD JA XO FS ----------------
#NOTES:
     dance-single:
     XMOD JA XO FS:
     Hard:
     17:
     0.887,0.87,0.406,0.345,0.246,632,47,40,31,0,0,0.887,0.87,0.406,0.345,0.246,632,47,40,31,0,0:
0000
0000
0000
0000
,
1001
0000
0001
0000
0100
0000
0000
0010
0000
0000
1000
0000
0001
0000
1000
0000
,
0001
0100
0001
0100
0010
0000
1000
0100
1000
0100
0010
0000
0001
1000
0100
1000
,
0001
0000
0000
0000
1001
0000
0000
1000
0000
0000
0010
0000
0100
0001
0000
0000
,
0101
0000
0001
0010
0100
0000
1100
0000
1000
0001
1000
0001
0100
0010
0100
0010
,
1000
0000
0001
0000
0100
0000
0010
1000
0000
0000
0010
0000
0100
0000
0001
0000
,
1001
0000
1000
0010
1000
0000
0000
0001
0000
0000
0100
0000
0010
1000
0010
1000
,
0001
0000
1000
0100
1000
0000
0001
0100
0010
1000
0000
0001
0000
0000
1000
0000
,
1001
1001
0000
0110
0220
0000
0330
0000
,
0001
0000
0100
0000
0010
0000
1000
0100
1000
0001
0000
1000
0001
0000
0001
0000
,
0100
0000
0010
0000
1000
0000
0001
1000
0001
1000
0000
0001
0010
0000
0010
0000
,
0100
0000
1000
0000
0001
0000
1000
0010
1000
0010
0000
0100
0001
0000
0001
0000
,
1000
0000
0100
0000
1000
0000
0010
0000
0100
0000
0001
0000
1000
0000
0001
1000
,
0001
0000
0100
0000
0010
0000
1000
0001
1000
0010
0000
0000
1000
0000
0100
0000
,
0010
0000
0001
0000
1000
0000
0001
0100
0010
1000
0000
0000
0001
0000
0010
0000
,
0001
0000
1000
0000
0100
0000
0010
0001
0010
0001
0000
0000
1000
0000
0010
0000
,
1000
0100
1000
0010
0100
0001
0010
0001
,
1000
0100
1000
0010
0100
0001
0010
0001
,
1000
0000
0100
0000
0010
0000
0001
0000
0100
0000
0010
0000
1000
0001
1000
0001
,
1000
0010
0100
0001
0010
0100
1000
0001
,
1000
0000
0100
00M0
0100
0000
0001
0000
1000
0000
0100
00M0
0100
0000
0001
0000
,
1000
0000
0100
0000
0001
0000
0100
0000
0010
0000
0100
0000
1000
0000
0001
0100
,
0001
0000
0100
0000
0010
0000
0100
0000
0001
0000
1000
0000
0001
0010
0001
0010
,
0100
1000
0100
0001
0100
1000
0010
0100
,
0001
0000
0010
0000
0001
0000
0010
0100
0010
0000
0100
0000
1000
0000
0001
1000
,
0010
0000
0100
0000
1000
0000
0100
0000
0010
0000
1000
0000
0001
0000
1000
0010
,
1000
0000
0100
0000
0010
0000
0001
0000
0200
0000
0000
0000
0301
1000
0001
1000
,
0001
0100
1000
0100
0001
0010
1000
0010
,
0001
0000
1000
0000
0001
0000
1000
0000
0001
0010
0100
0000
1000
0001
1000
0000
,
1001
0000
0001
0000
0100
0000
0010
0000
0001
0000
0010
0000
0100
0000
0001
1000
,
0001
0000
0100
0000
0010
0000
1000
0000
0002
0000
0000
0000
1003
0100
0010
0001
,
1000
0100
0001
0100
0010
0100
1000
0001
,
1000
0000
0010
0000
1000
0000
0001
1000
0001
0000
0100
0000
0010
0000
1000
0001
,
1000
0000
0010
0000
0001
0000
0010
0000
0100
0000
0001
0000
0100
0000
0010
1000
,
0010
0000
0100
0000
0001
0000
0010
0000
0100
0000
1000
0000
0001
1000
0001
1000
,
0001
0000
0100
00M0
0100
0000
1000
0000
0001
0000
0010
0M00
0010
0000
1000
0000
,
0001
0100
0001
0000
1000
0010
1000
0000
0001
0100
0001
0000
1000
0010
1000
0000
,
0001
0000
0001
0000
0000
0000
0100
00M0
0100
0000
0000
0000
1000
0000
1000
0000
,
0000
0000
0010
0M00
0010
0000
0000
0000
0001
0000
1000
0000
0001
0000
0000
0000
,
1000
0000
1000
0000
0000
0000
0010
0M00
0010
0000
0000
0000
0011
0000
0000
0000
,
0001
0000
0001
0000
1000
0000
0100
0000
0010
0000
0001
0000
1000
0010
0100
0001
,
1000
0000
1000
0000
0000
0000
0010
0M00
0010
0000
0000
0000
0001
0000
0001
0000
,
0000
0000
0100
00M0
0100
0000
1000
0000
0010
0000
0010
0000
0100
0000
0000
0000
,
0001
0000
0100
00M0
0100
0000
1000
0000
0010
0M00
0010
0000
0001
0000
0001
0000
,
0000
0000
1001
0000
0000
0000
1000
0000
0010
0000
0100
0000
0001
1000
0001
1000
,
0001
0000
0000
0000
0100
0000
0010
1000
0010
0000
1000
0000
0010
0000
0001
0000
,
0000
0000
0010
0000
0000
0000
1000
0000
0001
0100
0001
0000
0100
0000
0010
0000
,
1000
0000
0001
0100
0001
0000
1000
0010
1000
0000
0100
0000
1000
0000
1001
0000
,
0000
0000
0101
0000
0000
0000
1001
0000
1000
0001
1000
0000
0001
0000
0001
0000
,
1000
0000
0000
0000
0100
0000
0010
0001
1000
0000
0001
0000
0010
0000
0100
0000
,
0000
0000
1000
0000
0000
0000
0010
0000
0100
0001
0100
0000
0010
0000
1000
0000
,
0001
0000
1000
0100
0010
0000
0001
0010
0100
0000
1000
0000
0010
0000
1010
0000
,
0000
0000
0110
0000
0000
0000
0101
0000
0001
1000
0001
0000
1000
0000
0001
0000
,
1000
0100
0010
0100
0001
0100
1000
0001
,
1000
0000
0010
0000
0001
0000
0010
0000
1000
0000
0001
0000
1000
0100
0010
0001
,
1000
0001
0100
1000
0100
0010
0100
0001
,
1000
0000
0010
0000
0100
0000
0001
1000
0001
0000
0000
0000
1000
0000
0010
1000
,
0010
0100
0010
1000
0100
0001
0100
1000
,
0001
0000
0100
0000
0010
0000
1000
0000
0001
0000
0010
0000
0100
1000
0100
1000
,
0001
1000
0010
0001
0010
0100
0001
1000
,
0001
0010
0001
1000
0010
1000
0001
0100
0010
1000
0001
1000
,
0010
0000
1000
0100
0000
0010
0001
0000
0000
1000
0000
0001
,
0000
0000
0100
0010
0000
1000
0001
0000
0000
1000
0001
1000
,
0001
0000
0100
0010
0000
1000
0010
0000
0000
0100
0000
0001
,
1000
0000
0010
0000
0100
0000
0010
0000
0000
2000
0000
0000
,
3001
0000
1000
0010
0000
0100
0001
0000
0000
2000
0000
0000
,
3001
0000
0100
0010
0000
1000
0001
0000
0000
2000
0000
0000
,
3001
0100
0001
0200
0000
0000
0310
1000
0010
2000
0000
0000
,
3001
0000
0001
0000
0000
0000
0100
0000
0001
0010
0100
1000
0001
0100
0010
1000
,
0001
0000
1000
0010
1000
0000
0001
0100
,
0001
0010
0001
0010
0100
1000
0100
1000
,
0001
0000
1000
0000
0001
0000
0010
0M00
0010
0000
1000
0000
0001
0000
1000
0000
,
0001
0010
0100
1000
0001
0100
1000
0100
,
0001
0010
0001
0010
1000
0010
0100
1000
,
0001
0100
0010
1000
0001
0010
0M00
0010
,
1000
0100
0010
0001
1000
0010
0100
0001
,
1000
0010
1000
0010
0100
0001
0100
0001
,
1000
0100
1000
0100
0001
0100
0001
0100
,
1000
0000
0010
0000
1000
0000
0010
0000
0100
0000
0010
0000
1000
0001
1000
0001
,
1000
0100
0010
0001
0100
1000
0100
0010
,
1000
0000
0001
0000
0010
0000
0100
0000
1000
0000
0010
0000
1000
0001
1000
0001
,
1000
0100
0010
0001
1000
0010
0100
0000
,
0001
0001
0000
0000
1000
0010
1000
0001
,
1000
0100
0010
0001
1000
0010
0100
0001
,
1000
0000
0100
0000
0010
0000
0001
0000
1000
0010
0100
0001
1000
0100
0010
0001
,
1000
0000
0001
0000
0000
0000
0100
00M0
0100
0000
0000
0000
1100
0000
0000
0000
,
0000
0000
1001
0000
0000
0000
0001
0000
1000
0000
0100
0000
0010
0001
0010
0001
,
0010
0000
0001
0000
0000
0000
0100
00M0
0100
0000
0000
0000
1000
0000
1000
0000
,
0000
0000
1010
0000
0000
0000
0010
0000
1000
0000
0100
0000
0010
0001
0010
0001
,
1000
0000
0100
00M0
0100
0000
0001
0000
0010
0M00
0010
0000
1000
0000
0001
0000
,
0000
0000
1001
0000
0000
0000
1000
0000
0001
0000
0010
0000
0100
1000
0100
1000
,
0001
0000
0100
00M0
0100
0000
1000
0000
0010
0M00
0010
0000
0001
0000
0100
0000
,
0000
0000
0110
0000
0000
0000
0010
0000
1000
0000
0001
0000
0010
0100
0010
0100
,
0010
0220
0000
0000
,
0330
0000
0000
0000
;

//--------------- dance-single - XMOD JA SJ DS XO FS ----------------
#NOTES:
     dance-single:
     XMOD JA SJ DS XO FS:
     Challenge:
     19:
     1,1,0.691,0.345,0.971,831,80,40,97,0,0,1,1,0.691,0.345,0.971,831,80,40,97,0,0:
0000
0000
0000
0000
,
1001
0000
1000
0010
1000
0000
0001
0010
0000
0100
1000
0001
1000
0000
0001
0000
,
1000
0010
1000
0010
0200
0000
0301
0010
0001
0010
0200
0000
1300
0001
1000
0001
,
2000
0000
3001
0010
0100
0000
1000
0010
0000
0010
0100
0000
0001
1000
0000
0000
,
1001
0000
0001
0100
0001
0000
0101
0000
0100
0010
0100
0010
1000
0001
1000
0001
,
0200
0000
0310
1000
0001
0000
0010
0100
0000
0100
1000
0001
1000
0000
0010
0000
,
0110
0000
0100
0001
0200
0000
0301
0010
0000
0100
1000
0000
0001
1000
0001
1000
,
0200
0000
1300
0010
0100
0000
0001
0010
0100
1000
0000
0001
0100
0000
0010
0000
,
1010
0000
1001
0000
0001
0100
0010
0000
0220
0000
0000
0000
0330
0000
0000
0000
,
0001
0000
0010
0000
1000
0000
0010
0100
1000
0001
0000
1000
0020
0000
0100
0000
,
1030
0000
0100
0000
0001
0000
0100
0010
0001
0010
0000
0100
1000
0000
0001
0000
,
1000
0000
0100
0000
0001
0000
0100
0010
0001
0010
0000
0100
2000
0000
0010
0000
,
3001
0010
0001
0010
0100
1000
0001
0100
0001
0000
1000
0010
0200
0000
0301
1000
,
0001
0000
0100
0000
0101
0000
0001
0010
0100
1000
0000
0001
2000
0000
0001
0000
,
3100
0000
0010
0000
0011
0000
0001
0100
0010
1000
0000
0001
0020
0000
0100
0000
,
0031
0000
1000
0000
1100
0000
0100
1000
0001
1000
0000
0100
2000
0000
0010
0000
,
3001
0000
0010
0001
0010
0001
1000
0100
1000
0000
0010
0100
0002
0000
1003
0001
,
1000
0010
0001
0010
1000
0100
0001
0100
,
1000
0000
0010
0000
0001
0000
0010
0000
1000
0000
0001
0000
1000
0100
1000
0100
,
0010
0001
0100
1000
0100
0001
0010
0100
,
1100
1000
0010
0100
0101
0001
1000
0100
,
1000
0000
0010
0000
0001
0000
0010
0000
1000
0000
0010
0000
0100
0000
0001
1000
,
0001
0000
0100
0000
0010
0000
1000
0000
0002
0000
0010
0000
1003
0100
0010
0001
,
1000
0000
0010
0000
0001
0000
0010
0000
1000
0000
0010
0100
0001
0000
0100
0000
,
0010
0000
1000
0000
0010
0000
0100
0001
2000
0000
0010
0000
3001
0000
0100
0001
,
1000
0000
0010
0000
0001
0000
0010
0000
0100
0000
0010
0000
1000
0000
0001
1000
,
0001
0000
0010
0000
0100
0000
1000
0000
0002
0000
0100
0000
1003
0001
1000
0001
,
2000
0010
3001
1000
0200
0010
1300
0001
,
1000
0010
0100
0001
1000
0100
0010
0001
1000
0001
1000
0100
0010
0001
0100
0001
,
1000
0010
1000
0000
0010
0000
0100
0000
0001
1000
0001
0000
0010
0000
0100
1000
,
0100
0010
0001
0000
0100
0001
0100
0000
0001
1000
0001
0000
1000
0010
0100
0001
,
1000
0100
1000
0000
0001
0000
0010
0000
0100
1000
0100
0010
0001
0000
0100
0000
,
0010
1000
0010
0000
0100
0000
0001
0100
0001
1000
0100
0000
0010
0000
0001
1000
,
0001
0100
0010
0000
1000
0000
0001
0000
0010
0100
1000
0000
0001
0000
1000
0010
,
1000
0100
0010
0000
0001
0100
0010
0000
1000
0001
1000
0000
0100
1000
0100
1000
,
0100
0010
0001
0000
0100
0010
0100
0000
0001
1000
0001
0000
1000
0100
0010
0000
,
0001
0100
0010
1000
0001
0010
0100
1000
0001
1000
0010
0100
0001
1000
0010
1000
,
0001
0010
0000
0110
0100
0000
1100
1000
,
0000
0000
1001
0000
0001
0000
0000
0000
0010
0M00
0010
0000
1000
0000
0000
0000
,
1001
0001
0000
0011
0010
0000
0110
0100
,
0000
0000
1001
0000
0000
0000
0001
0000
0001
0000
0001
0000
1000
0100
0010
0001
,
0010
0001
0010
0110
0100
1000
1001
0001
,
0010
0000
0110
0000
0100
0000
0010
0000
0100
00M0
0100
0000
0002
0000
0003
0000
,
1001
0000
1000
0000
0100
0000
0110
0000
0010
0000
0001
0000
0010
0M00
0010
0000
,
1000
0000
1001
0000
0001
0000
0010
0000
0010
0000
0010
0000
0001
1000
0001
1000
,
0001
0000
0010
0000
0100
0000
1000
0001
0010
0000
0100
0000
0010
0000
1000
0000
,
0010
0000
0100
0000
0010
0000
0001
0000
1000
0010
0100
0000
0010
0000
0010
0000
,
1000
0000
0001
0010
0100
0000
1000
0100
0010
0000
0001
0000
0010
0000
0110
0000
,
0000
0000
1100
0000
0000
0000
1001
0000
0001
0010
0100
0000
0010
0000
0010
0000
,
0001
0000
0100
0000
0001
0000
1000
0100
1000
0000
0001
0000
0100
0000
1000
0000
,
0100
0000
0010
0000
1000
0000
0001
0000
1000
0010
0100
0000
0001
0000
0001
0000
,
1000
0000
0001
0010
0100
0000
1000
0100
0010
0000
0001
1000
0001
0000
1001
0000
,
0000
0000
1100
0000
0000
0000
0110
0000
0010
0001
1000
0010
1000
0001
1000
0100
,
0010
0000
0001
0000
1000
0000
0000
0000
0010
0000
0100
0000
0001
0000
0000
0000
1000
0000
0100
0000
1000
0000
0000
0000
0001
0000
0000
0000
0010
0M00
0010
0000
,
1000
0010
0100
0000
0001
1000
0001
0000
1000
0100
0010
0000
0001
1000
0001
1000
,
0100
0000
0010
0000
0100
0000
0000
0000
1000
0000
0010
0000
0100
0000
0000
0000
0001
0000
1000
0000
0001
0000
0010
0M00
0010
0000
0000
0000
1000
0000
0000
0000
,
0001
0010
0001
0000
1000
0100
1000
0001
1000
0010
0100
0001
0100
0000
0010
1000
,
0001
0000
0100
0000
0001
0000
0000
0000
1000
0000
0100
0000
1000
0000
0000
0000
0001
0000
0010
0000
0100
0000
0000
0000
1000
0000
0000
0000
0100
00M0
0100
0000
,
0001
1000
0001
0000
0100
0010
1000
0000
0001
0010
0001
1000
0010
0100
0010
1000
,
0001
0010
0001
0000
1000
0100
0010
0000
0001
1000
0001
0000
1000
0000
0001
0000
,
1000
0100
1000
0001
0100
0001
1000
0010
0100
0001
1000
0001
,
1001
0000
1000
0100
0000
0100
0010
0000
0010
0100
0000
0100
,
1000
0000
0000
0000
0001
0000
1000
0000
0000
0000
0100
00M0
0100
0000
0001
0000
1000
0000
0001
0000
0100
0000
0010
0000
,
1000
0000
1000
0001
0000
0001
0010
0000
0010
0001
1000
0100
,
1000
0000
1001
0000
0011
0000
1100
0000
0000
0400
0000
0000
,
1300
0001
1000
0001
0010
0100
1000
0000
0001
0020
0000
0000
,
0130
0000
1000
0100
1000
0100
0010
0001
0010
0002
0000
0000
,
1003
0010
0100
0002
0000
0000
0013
0100
1000
0200
0000
0000
,
0310
0000
0010
0000
0000
0000
0001
0000
1000
0010
0100
0001
1000
0100
0010
0001
,
1000
0010
0100
0010
0001
0010
0100
0001
,
1000
0000
0100
0000
0010
0000
0100
0000
1000
0000
0001
0000
1000
0001
1000
0000
,
0001
0100
0001
0100
1000
0100
0001
0100
,
0010
0000
1000
0000
0100
0000
1000
0001
1000
0000
0100
0000
1000
0000
1000
0000
,
0001
1000
0100
0010
1000
0010
0100
1000
,
0001
0000
0100
0010
0100
0001
1000
0010
1000
0000
0100
0000
0000
0000
0100
0000
,
1000
0000
0010
0000
0100
0000
0001
1000
0001
0000
0010
0000
0100
0000
1000
0001
,
1000
0010
0100
0001
1000
0100
0010
0001
1000
0010
0100
0001
1000
0100
0010
0100
,
1000
0100
0001
0100
0010
0001
1000
0100
,
1000
0000
0010
0000
0001
0000
0010
0000
0100
0000
0001
0000
1000
0100
1000
0001
,
0010
0001
1000
0001
0010
1000
0010
0100
,
1000
0000
0100
0010
0100
1000
0001
1000
0100
0000
1000
0000
0001
0100
0010
1000
,
0001
0000
0100
0000
1000
0000
0100
0000
0001
0000
1000
0000
0020
0030
0000
0000
,
1000
0001
1000
0001
0010
0000
0100
0000
1000
0010
0100
0001
1000
0000
0001
0010
,
0100
1000
0001
0010
0001
0000
1000
0000
0001
0010
0100
1000
0001
0000
1000
0001
,
1000
0010
0100
0001
1000
0100
0010
0100
1000
0001
0100
0010
1000
0001
0010
0100
,
1000
0100
0000
0110
0010
0000
0011
0000
,
0000
0000
1001
0000
0000
0000
1000
0000
1000
0000
1000
0000
0001
0100
0010
1000
,
0001
1000
0000
1001
1000
0000
0001
0001
,
0000
0000
0011
0000
0000
0000
0100
0000
0100
0000
0100
0000
1000
0010
0100
0001
,
1000
0000
0100
00M0
0100
0000
0001
0000
0010
0M00
0010
0000
1000
0000
0100
00M0
,
0100
0000
0001
0000
0010
0000
0100
0000
1000
0000
0100
0000
1000
0001
1000
0001
,
1000
0000
0010
0M00
0010
0000
0001
0000
0100
00M0
0100
0000
1000
0000
1001
0000
,
0000
0000
0011
0000
0000
0000
0100
0000
1000
0000
0001
0000
1000
0010
0100
0001
,
1000
2020
0000
0000
,
0000
0000
3030
0000
;

//--------------- dance-single - XMOD STR JA FS SJ DS ----------------
#NOTES:
     dance-single:
     XMOD STR JA FS SJ DS:
     Edit:
     20:
     0,0,0,0,0:
0000
0000
0000
0000
0000
0000
0101
1010
,
1001
0000
0000
0000
0001
0000
0100
0000
0010
0000
0000
0000
1000
0000
0100
00M0
0100
0000
0001
0000
1000
0000
0000
0000
1001
0000
0000
0000
0001
0000
0000
0000
,
0100
00M0
0100
00M0
0100
00M0
0100
00M0
1100
0000
0000
0000
0010
0M00
0010
0M00
0010
0M00
0010
0M00
0011
0000
0000
0000
1000
0000
0001
0000
1000
0000
0010
0000
,
0110
0000
0100
0001
1000
0000
0100
0010
0001
0010
0100
0000
1000
0001
0000
0000
,
1001
0000
0000
0000
1000
0000
0010
0000
1010
0000
0000
0000
0110
0000
0000
0000
0100
0000
0100
0000
0001
0000
0001
0000
0100
M000
0100
M000
0100
M000
0100
M000
,
0101
0000
0010
1000
0001
0000
1000
0100
0100
0010
1000
0001
0100
0000
0010
0000
,
1010
0000
0000
0000
1000
0000
0001
0000
0101
0000
0000
0000
0100
0000
0010
0M00
0010
0000
0001
0000
1000
0000
0000
0000
0100
M000
0100
M000
0100
M000
0100
M000
,
0101
0000
0000
0000
0001
0000
0010
0000
0100
0000
0000
0000
1000
0000
0010
0000
0100
0000
0001
0000
0100
0000
0010
0000
1000
0000
0000
0000
0100
M000
0100
M000
,
0101
0000
0011
0000
0100
1000
1001
0000
0101
0000
0000
0000
0000
0000
0000
0000
,
0002
0000
0100
0000
1003
0000
0001
0100
0010
1000
0010
0100
0002
0000
0100
0000
,
2003
0000
0010
0000
3001
0000
0100
0010
0100
0001
0100
0010
0200
0000
0001
0000
,
0320
0000
1000
0000
0130
0000
0001
0010
0100
1000
0010
0100
0002
0000
0010
0000
,
1003
0001
0100
0010
1000
0001
0010
0100
2000
0000
3001
0100
0100
1000
0010
0100
,
0002
0000
0010
0000
1003
0000
0001
0010
0100
1000
0100
0010
0002
0000
1000
0000
,
0203
0000
1000
0000
1300
0000
0001
0010
0100
1000
0100
0010
0002
0000
0100
0000
,
2003
0000
0010
0000
3001
0000
0100
0010
0100
0001
0100
0010
0200
0000
0001
0000
,
0301
0010
0100
1000
0001
0100
0010
1000
0001
0010
0100
1000
0001
0100
0010
1000
,
0001
0000
0100
0000
0010
1000
0010
0000
0100
0000
0001
1000
0001
0000
0100
0000
,
0001
0010
0001
0000
0100
0000
0100
0000
0010
1000
0010
0000
0100
0001
0100
0001
,
0010
0000
0100
1000
0001
0000
0100
0000
0010
0000
1000
0000
0001
1000
0001
0000
,
0101
0000
0100
0000
0010
1000
0010
1000
0001
0000
0100
0000
0010
1000
0001
1000
,
0001
0010
0100
1000
0001
0100
0010
1000
0001
0010
0100
1000
0001
1000
0001
0100
,
0100
1000
0001
0100
0010
1000
0001
0010
0100
1000
0001
0100
0010
1000
0010
1000
,
0001
0010
0100
1000
0001
0010
0001
0100
0001
1000
0100
0100
0001
1000
0010
0100
,
0001
0010
0100
1000
0001
1000
0100
0100
0010
1000
0001
0010
0100
1000
0001
0010
,
0001
1000
0010
0100
0001
0010
0100
1000
0001
0100
0010
1000
0001
1000
0100
0100
,
0001
0010
0100
1000
0001
0010
0001
1000
0010
0100
0001
1000
0001
0010
0001
0010
,
0100
1000
0001
0100
0010
1000
0001
0010
0100
1000
0001
0100
0010
1000
0001
0010
,
0100
1000
0010
0100
0001
1000
0100
0010
0001
1000
0010
0100
0001
1000
0010
1000
,
0001
0010
0001
0100
0010
1000
0001
0010
0100
1000
0001
0100
0010
1000
0100
0100
,
0001
1000
0100
0010
0001
1000
0010
0100
0001
0010
0100
1000
0001
0100
0001
0100
,
0010
1000
0001
0010
0100
1000
0001
0100
0010
1000
0010
0010
0001
0100
0010
1000
,
0001
0010
0100
1000
0001
0100
0010
1000
0010
0100
0001
1000
0100
0010
0001
0010
,
0100
0010
0001
1000
0010
0100
0001
0100
0010
1000
0001
0010
0100
1000
0100
0100
,
0001
1000
0010
0100
0001
0010
0100
1000
0010
0100
0010
1000
0001
0010
0001
0010
,
0100
1000
0001
0100
0010
1000
0001
0010
0100
1000
0001
0010
0001
1000
0010
1000
,
0001
0100
0010
1000
0001
0010
0001
1000
0100
0010
0001
0010
0100
1000
0010
0100
,
0001
0000
1000
0001
0010
0000
0011
0000
0001
1000
0010
0000
1010
0000
1000
0001
,
0100
0000
0110
0000
0010
1000
0001
0000
1001
0000
1010
0000
0100
0000
0000
0000
,
1001
0000
0001
0100
0001
0000
1001
0000
1000
0010
0100
0000
0101
0000
0001
1000
,
0010
0000
0110
0000
0000
0000
0101
0000
1001
0000
1010
0000
0010
0100
0001
1000
,
0100
0000
0010
0001
1000
0000
1010
0000
0010
0100
0001
0000
0011
0000
0010
0100
,
1000
0000
1001
0000
0001
0100
0010
0000
1010
0000
1001
0000
0100
0000
0000
0000
,
1010
0000
0010
1000
0001
0000
0101
0000
0100
0010
1000
0000
1010
0000
1001
0000
,
0001
0000
0101
0000
0100
0000
0110
0000
1010
0000
1001
0000
0001
0010
0100
1000
,
0001
0000
0100
0000
0010
0000
1000
0001
1000
0000
0100
0000
0010
0000
0001
0000
,
0100
0000
0001
0000
1000
0000
0010
0000
0100
0001
1000
0001
0010
0000
0001
0000
,
1000
0000
0100
0010
0001
0000
0100
0010
1000
0000
0100
0000
0010
0000
1001
0000
,
0000
0000
0101
0000
0000
0000
0110
0000
0010
1000
0001
1000
0010
0100
0001
0100
,
0010
0000
1000
0000
0100
0000
1000
0001
1000
0000
0010
0000
0100
0000
0001
0000
,
0010
0000
0100
0000
1000
0000
0001
0000
0100
0010
0100
0010
1000
0000
0100
0000
,
1000
0000
0001
0010
0100
0000
1000
0100
0010
0000
0001
0000
0100
0000
0110
0000
,
0000
0000
1001
0000
0000
0000
1010
0000
1000
0100
0010
0001
1000
0010
0100
0001
,
1000
0100
0010
0001
1000
0010
0100
0001
0010
0100
1000
0001
1000
0001
0010
0010
,
1000
0001
0010
0100
1000
0001
0010
0001
1000
0010
1000
0001
0010
0100
0010
0100
,
1000
0001
0010
0001
1000
0010
0100
0001
1000
0001
0010
0010
1000
0001
0010
0100
,
1000
0100
0010
0001
1000
0010
1000
0001
0100
0010
1000
0001
1000
0100
0010
0001
,
1000
0010
1000
0001
1000
0100
0010
0001
1000
0010
0100
0001
0010
0001
0100
0100
,
1000
0100
0010
0001
1000
0010
0100
0001
1000
0100
0010
0001
1000
0010
1000
0001
,
0100
0010
1000
0001
0010
0100
1000
0100
0010
0001
1000
0010
0100
0001
1000
0100
,
0010
0001
0100
0010
1000
0001
0010
0100
1000
0010
0100
0001
,
0100
0000
0010
1000
0000
0100
0010
0000
0001
0100
0010
0100
,
0001
0000
0010
0100
0000
1000
0001
0000
0100
0010
1000
0001
,
1000
0000
0100
0010
0000
0001
0100
0000
0100
0010
0000
1000
,
0001
1000
0010
0000
1000
0000
0000
0000
1001
0000
0000
0000
0101
0000
0000
0000
0000
0000
0010
0100
0010
1000
0001
0010
,
0001
0000
1000
0010
0100
0001
1000
0000
0100
0020
0000
0030
,
0011
0000
0001
1000
0010
0100
0001
0000
1000
0020
0000
0000
,
0130
0000
0001
0000
0100
0000
0020
0000
0000
0000
0000
0000
1030
0000
0100
0000
0010
0000
0002
0000
0000
0003
0000
0000
,
1001
0000
1010
0000
1000
0010
0100
0001
1000
0100
0010
0001
1000
0010
0100
0001
,
1000
0100
1000
0000
0001
0100
0001
0000
1001
0000
1000
0010
0100
0001
0100
0000
,
0001
0010
0100
0000
1000
0010
0100
0000
0101
0000
0001
0000
1000
0001
1000
0001
,
0010
0100
1000
0000
0001
0100
0010
0000
1010
0000
1000
0000
0001
0010
0100
0000
,
1000
0001
1000
0000
0001
0100
0001
0000
0101
0000
0100
0000
0010
0000
0010
0000
,
1000
0100
0010
0000
0001
1000
0001
0000
0101
0000
0100
0010
0100
0000
0001
1000
,
0001
0100
0010
1000
0010
0010
0000
1000
,
1000
0001
1000
0000
0001
0000
0100
0010
1000
0000
0001
0000
1000
0000
0100
0010
,
0001
0100
0010
1000
0001
0010
0100
1000
0001
0010
0001
1000
0010
0100
0001
1000
,
0001
0010
0100
1000
0001
0010
0001
1000
0010
0100
0001
0010
0100
1000
0001
0100
,
0001
1000
0100
0010
0001
1000
0010
0100
0001
0010
0100
1000
0001
0100
0010
1000
,
0001
0010
0100
1000
0001
0100
0001
1000
0100
0010
0001
1000
0010
0100
0001
0010
,
0100
1000
0001
0100
0001
1000
0100
0010
0001
1000
0010
0100
0001
0010
0100
1000
,
0010
0100
0001
1000
0100
0010
0001
1000
0010
1000
0001
0010
0001
0000
1000
0000
,
1001
0000
1001
0000
0001
0000
0000
0000
0100
0000
0010
1000
0001
0100
0010
0000
,
1000
0100
0010
0001
1000
0000
0001
0000
1000
0100
0010
0001
1000
0000
0010
1000
,
0001
0010
0100
1000
0001
0100
0010
1000
0001
0010
0100
1000
0001
0100
0001
1000
,
0001
0000
0100
0010
0100
0010
1000
0000
0100
0010
0001
1000
0001
0000
0100
0000
,
0001
0000
1001
0000
0000
0000
1000
0000
1000
0000
1000
0000
0001
0010
0100
1000
,
0100
0000
0010
0001
1000
0010
0100
0000
0001
0010
0100
1000
0010
0000
1010
0000
,
0000
0000
0110
0000
0000
0000
0101
0000
0001
0000
0001
0000
1000
0010
0100
0001
,
1000
0000
0100
0010
0001
1000
0001
0000
0100
0000
0010
0000
1010
0000
1000
0001
,
1000
0010
0100
0000
0001
0000
1000
0000
1000
0000
1000
0000
0010
0100
0001
0100
,
0001
0000
0010
0100
1000
0001
1000
0000
0010
0000
0100
0000
0101
0000
1001
0000
,
0000
0000
1010
0000
0000
0000
0100
0000
0100
0000
0100
0000
0001
1000
0010
1000
,
0100
0022
0033
0000
;

//--------------- dance-double - ----------------
#NOTES:
     dance-double:
     :
     Easy:
     11:
     0,0,0,0,0:
00000000
00000000
00000000
00000000
,
00011000
00000000
00000000
00000000
00001000
00000000
00000000
00100000
00000000
00000000
00010000
00000000
01000000
00000000
00000000
00000000
,
00100000
00000000
10100000
00000000
00000000
10010000
00000000
00000000
,
00011000
00000000
00000000
00000000
00010000
00000000
00000000
00000100
00000000
00000000
00001000
00000000
00000001
00000000
00000000
00000000
,
00001001
00000000
00000000
00001010
00000000
00000000
00000100
00000001
,
00001000
00000000
00000000
00000000
00000001
00000000
00000000
00000010
00000000
00000000
00000100
00000000
00001000
00000000
00000000
00000000
,
00000100
00000000
00000000
00000000
00011000
00000000
00000000
00001000
00000000
00000000
00100000
00000000
00010000
00000000
00000000
00000000
,
10010000
00000000
00010000
01000000
00010000
00000000
00000000
00000000
,
00100000
00100000
00000000
00001000
00001000
00000000
00000000
00000000
,
00010000
00000000
00001000
00010000
00001000
00000000
00010000
00000000
,
00000010
00000100
00000010
00000000
00001000
00000000
00000001
00000000
,
00000010
00000100
00001000
00000000
00000100
00000000
00010000
00000000
,
00001000
00100000
00001000
00000000
00100000
00010000
10000000
00000000
,
00010000
10010000
10000000
00100000
,
01000000
01010000
00010000
00100000
,
00001000
00101000
00100000
00010000
,
00100000
00001000
00100000
00001000
,
00010000
00001000
00000100
00001000
,
00010000
00000000
00000010
00000000
00000100
00000000
00000001
00001000
,
00000001
00001000
00000100
00001000
,
00001001
00000001
00001001
00001000
,
00000001
00001000
00000000
00000010
00000000
00010000
00000000
00001000
,
00010000
00001000
01000000
00000000
00100000
00000000
10000000
00000000
,
00010000
01000000
00000000
00010000
00000000
10000000
01000000
10000000
,
00010000
01000000
00100000
10000000
,
00010000
00100000
00000000
10000000
00000000
00100000
00000000
00010000
,
00100000
00001000
00010000
00000000
00000100
00000000
00001000
00000001
,
00001000
00000010
00000100
00000001
,
00001000
00000010
00000100
00000001
,
00001001
00000000
00000001
00000000
00000100
00000000
00000010
00010000
,
00000010
00010000
00001000
01000000
,
10010000
00000000
00010000
00000000
01000000
00000000
00010000
10000000
,
00010000
01000000
00001000
00010000
,
00011000
00000000
00001000
00000000
00010000
00000000
00001000
00010000
,
00001000
00010000
00000010
00001000
,
00001001
00000001
00000101
00000100
,
00000010
00000010
00010000
00001000
,
00011000
00000000
00000000
00110000
00000000
00000000
01100000
00000000
,
00000000
11000000
00000000
00000000
10000000
00010000
00000000
00000000
,
00110000
00000000
00000000
00011000
00000000
00000000
00001100
00000000
,
00000000
00001001
00000000
00000001
00001000
00000000
00000100
00000000
,
00001001
00000000
00000000
00000011
00000000
00000000
00000110
00000000
,
00000000
00001100
00000000
00000000
00001000
00000001
00000000
00000000
,
00001100
00000000
00000000
00011000
00000000
00000000
00001000
00100000
,
00000000
00010000
00000000
00100000
00001000
00000000
01000000
00000000
,
00010000
00000000
10000000
01000000
10000000
01000000
00000000
10000000
,
00000000
00010000
00000000
00100000
00001000
00000000
00010000
00000000
,
00000100
00000000
00001000
00000000
00000001
00000000
00001000
00000010
,
00000000
00001000
00000000
00000001
00001000
00000000
00000010
00000000
,
00001000
00000000
00000001
00000100
00000010
00001000
00000000
00000010
,
00000000
00010000
00000000
00001000
00100000
00000000
00010000
00000000
,
10000000
00000000
00100000
00000000
01000000
00000000
00001000
00010000
,
00000000
00000100
00000000
00001000
00000010
00000000
00001000
00000000
,
00000001
00000010
00001000
00010000
,
00001000
01000000
00100000
10000000
,
10010000
10000000
01000000
00010000
,
01000000
00100000
00001000
00010000
,
00010100
00000100
00001000
00000100
,
00001001
00000001
00000100
00000010
,
00010010
00010000
00001000
00010000
,
00001000
00100000
00010000
10000000
,
00010000
00000000
00000000
01000000
00000000
00000000
00100000
00000000
00000000
10000000
00000000
00010000
,
00000000
00000000
01000000
00000000
00000000
00010000
10000000
00000000
00000000
01000000
00000000
00000000
,
00100000
00001000
00010000
00000000
,
00000100
00000000
00010000
00000000
00000100
00000000
00001000
00000000
00000000
00000002
00000000
00000000
,
00001003
00000010
00000100
00000002
,
00000103
00000010
00010000
00000200
,
00010300
00002000
10003000
00020000
,
10030000
00100000
00000000
10000000
00010000
00000000
00100000
00000000
,
00001000
00010000
00001000
00010000
,
00000010
00000100
00000001
00000010
,
00000100
00001000
00010000
00100000
,
01000000
10000000
00010000
01000000
,
00010000
10000000
00100000
01000000
,
00001000
00010000
00000100
00000000
,
00010000
00000100
00001000
00000100
,
00001000
00000001
00001000
00000001
,
00001000
00000010
00000001
00000010
,
00000100
00000001
00000100
00001000
,
00010000
00100000
10000000
00100000
,
01000000
00001000
00010000
00001000
,
00010000
00000100
00001000
00000000
,
00000010
00000000
00001000
00000001
,
00001000
00000010
00000100
00000001
,
00000010
00000001
00001000
00000100
,
00001100
00000000
00000000
00001100
00000000
00000000
00011000
00000000
,
00000000
00011000
00000000
00000000
00001000
00000000
00100000
00000000
,
00110000
00000000
00000000
00110000
00000000
00000000
10000000
00010000
,
00000000
10000000
00000000
00010000
10000000
00000000
00100000
00000000
,
01100000
00000000
00000000
01100000
00000000
00000000
00110000
00000000
,
00000000
00011000
00000000
00000000
00010000
00000000
00000010
00000000
,
00001010
00000000
00000000
00001100
00000000
00000000
00000100
00010000
,
00000000
00001000
00000000
01000000
00010000
00000000
10000000
00000000
,
00100000
22000000
00000000
33000000
;

//--------------- dance-double - ----------------
#NOTES:
     dance-double:
     :
     Medium:
     15:
     0,0,0,0,0:
00000000
00000000
00000000
00000000
,
00011000
00000000
00000000
00000000
00001000
00000000
00000000
01000000
00000000
00000000
00100000
00000000
10000000
00000000
00010000
00000000
,
01000000
01000000
00100000
10000000
10000000
00010000
00000000
00100000
,
00102000
00000000
00000000
00000000
00013000
00000000
00000000
00000010
00000000
00000000
00000100
00000000
00000001
00000000
00000000
00000000
,
00001001
00001000
00001000
00000010
00000100
00000100
00000001
00001000
,
00001001
00000000
00000000
00000000
00000001
00000000
00000000
00000100
00000000
00000000
00000010
00000000
00010000
00000000
00001000
00000000
,
00010000
00000000
00000000
00000000
00010200
00000000
00000000
00010300
00000000
00000000
00001000
00000000
01000000
00000000
01000000
00000000
,
02100000
00000000
00000000
00000000
03100000
00000000
00000000
00000000
10000000
00000000
00000000
00010000
00000000
00000000
00100000
00000000
,
00001000
00001000
00000000
00010000
00010000
00000000
00000000
00000000
,
00001000
00010000
00000010
00000100
00000002
00000000
00001003
00000100
,
00010000
00001000
00010000
00000100
00002000
00000000
00003100
00010000
,
00001000
01000000
00100000
01000000
00002000
00000000
00013000
00001000
,
01000000
00010000
00100000
00001000
01000000
00100000
00010000
00001000
,
00010000
00000100
00001000
00000001
00001000
00000010
00000200
00000000
,
00000301
00000100
00000010
00010000
00001000
00010000
00002000
00000000
,
01003000
00100000
01000000
00010000
00100000
01000000
20000000
00000000
,
30010000
00100000
00010000
00100000
00001000
00010000
00001000
00010000
,
00000100
00001000
00000100
00000010
00000001
00000100
00000010
00010000
,
00001000
00000000
00010000
00000000
00001000
00000000
00100000
00000000
00001000
00000000
00010000
00000000
00001000
00010000
00001000
00010000
,
00001000
01000000
00100000
10000000
00010000
00100000
01000000
10000000
,
00010000
00010000
01000000
00100000
01000000
01000000
00001000
00010000
,
00001000
00010000
00100000
00010000
00001000
00000100
00000010
00000100
,
00000001
00000000
00000010
00000000
00000100
00000000
00001000
00000000
00000100
00000000
00010000
00000000
00000100
00010000
00000100
00010000
,
00000100
00010000
00001000
00100000
00010000
00001000
00010000
00100000
,
00010000
01000000
00100000
01000000
10000000
01000000
00010000
00100000
,
00001000
00010000
00001000
00000100
00000010
00001000
00000001
00001000
,
00000100
00000000
00001000
00000000
00000100
00000000
00000000
00000000
00001100
00000000
00000000
00000000
00001000
00000001
00001000
00000001
,
00001000
00000100
00000010
00001000
00000010
00000001
00001000
00000100
,
00010000
00000000
00001000
00000000
00010000
00001000
00100000
00010000
,
20010000
00000000
30010000
01000000
00100000
00010000
00100000
01000000
,
00001000
00000000
00010000
00000000
00001000
00000000
00010000
00000000
00000010
00000000
00000000
00000000
00001000
00000001
00001000
00000001
,
00001000
00000010
00000100
00001000
00000100
00000001
00001000
00000100
,
00010000
00001000
00100000
00010000
01000000
00000000
00010000
00100000
,
00110000
00000000
00010000
00100000
00001000
00010000
00000010
00001000
,
00000001
00000000
00000010
00000000
00000100
00000000
00001000
00000000
00000100
00000000
00000000
00000000
00010000
00001000
00010000
00001000
,
00010000
00001000
01000000
00000000
01010000
00010000
10000000
00000000
,
10010000
00000000
00011000
00000000
00010000
00000100
00001000
00000010
,
00001001
00000000
00000000
00011000
00000000
00000000
10010000
00000000
,
00000000
01100000
00000000
00000000
01000000
01000000
00000000
00000000
,
01010000
00000000
00000000
00011000
00000000
00000000
00010010
00000000
,
00000000
00001100
00000000
00001000
00000001
00000010
00000100
00001000
,
00011000
00000000
00000000
00110000
00000000
00000000
00011000
00000000
,
00000000
00001100
00000000
00000000
00000010
00000010
00000000
00000000
,
00001001
00000000
00000000
00000110
00000000
00000000
00000001
00000100
,
00000000
00000000
00000010
00000000
00000000
00000000
00010000
00000000
00001000
00000000
00010000
00000000
00001000
00010000
00001000
00010000
,
00001000
00000000
01000000
00100000
01000000
00100000
10000000
00010000
,
00000000
01000000
00000000
00010000
00100000
01000000
00100000
00010000
,
00100000
00001000
00010000
00000100
00001000
00000010
00001000
00001010
,
00000000
00000110
00000000
00000100
00000001
00000010
00000001
00000100
,
00000001
00000000
00000010
00000100
00001000
00010000
00100000
01000000
,
00000000
00010000
00000000
00100000
00001000
00100000
00010000
00100000
,
00001000
00010000
00001000
00100000
00010000
00100000
00001000
00011000
,
00000000
00001100
00000000
00001000
00000001
00000100
00000010
00000100
,
00000101
00000001
00000100
00000010
00001000
00010000
00001000
00000010
,
00001000
00000100
00010000
00001000
01000000
00100000
10000000
00000000
,
10010000
00010000
00100000
01000000
00010000
01000000
00100000
00010000
,
00100000
00001000
00010000
00000100
00001000
00000000
00000010
00000000
,
00001010
00000010
00001000
00010000
00001000
00000010
00001000
00000100
,
00001100
00000000
00001000
00000000
00000010
00000000
00000100
00000010
,
00001001
00000000
00000001
00001000
00000010
00010000
00001000
00010000
,
00001000
00010000
00001000
00100000
00010000
00100000
00010000
10000000
00100000
01000000
00010000
10000000
,
00100000
00000000
10000000
01000000
00000000
00100000
00010000
00000000
01000000
00010000
00000000
00100000
,
00000000
00000000
00001000
00000000
00000000
00010000
00001000
00000000
00000000
00010000
00001000
00010000
,
00000010
00000000
00001000
00000100
00000000
00000010
00000001
00000000
00000010
00000100
00000000
00001000
,
00000100
00000000
00010000
00000000
00001000
00000000
00010000
00000000
00000000
00002000
00000000
00000000
,
00013000
00000000
00000100
00001000
00000000
00000100
00001000
00000000
00000000
00000002
00000000
00000000
,
00010003
00000000
00001000
00010000
00000000
00001000
00010000
00000000
00000000
00002000
00000000
00000000
,
00103000
00020000
10030000
02000000
,
13000000
00010000
00000000
01000000
00001000
00010000
00000100
00010000
,
00000010
00001000
00001001
00000001
,
00000100
00000010
00000100
00000000
00000001
00000000
00000100
00000010
,
00001000
00000100
00000010
00000001
00001000
00000000
00000010
00000000
,
00000100
00000001
00000100
00000010
00001000
00000100
00010000
00000000
,
00001000
00010000
00001000
00100000
00001000
00000000
01000000
00100000
,
01000000
00100000
01000000
00010000
01000000
00100000
00000000
10000000
,
00010000
00100000
01000000
10000000
00010000
01000000
00100000
01000000
,
00001000
00010000
00001000
00010000
00000100
00001000
00000100
00001000
,
00000001
00000010
00001000
00010000
01000000
10000000
01000000
00100000
,
00010000
00100000
00001000
00010000
00000100
00001000
00000001
00001000
,
00000001
00000100
00001000
00010000
00001000
00100000
00010000
10000000
,
00010000
01000000
10000000
01000000
00100000
01000000
00001000
00010000
,
00001000
00010000
00000010
00001000
00000001
00001000
00000010
00000000
,
00001000
00000001
00000000
00000000
00001000
00000001
00001000
00000100
,
00000010
00000001
00000100
00000010
00010000
00001000
01000000
00100000
,
10000000
01000000
00100000
00010000
00100000
00001000
00010000
00000100
,
00010100
00000000
00000000
00000110
00000000
00000000
00001001
00000000
,
00000000
00000101
00000000
00000100
00000010
00001000
00000100
00001000
,
00000100
00000000
00000000
00010100
00000000
00000000
00001000
00010000
,
00000000
00001000
00000000
01000000
00100000
01000000
00100000
00000000
,
10010000
00000000
00000000
00110000
00000000
00000000
00001100
00000000
,
00000000
00011000
00000000
00010000
00001000
00010000
00000010
00000100
,
00000001
00000000
00000000
00001001
00000000
00000000
00001000
00000100
,
00000000
00100000
00000000
00001000
00010000
00001000
01000000
00100000
,
10010000
22000000
33000000
00000000
;

//--------------- dance-double - ----------------
#NOTES:
     dance-double:
     :
     Hard:
     18:
     0.772,0.779,0.544,0.242,0.155,535,63,28,38,0,4,0.772,0.779,0.544,0.242,0.155,535,63,28,38,0,4:
00000000
00000000
00000000
00000000
,
00011000
00000000
00001000
00000000
01000000
00000000
00100000
10000000
00000000
00100000
10000000
00000000
00010000
00000000
00100000
00000000
,
00001000
00010000
00001000
00010000
00001000
00000000
00010000
00000010
00010000
00000010
00010000
00000000
00000100
00000010
00001000
00000010
,
00000100
00000000
00000010
00000000
00010000
00000000
00001000
00010000
00000000
00001000
00010000
00000000
00001000
00100000
00000000
00000000
,
00110000
00000000
00010000
10000000
00100000
00000000
01100000
00000000
01000000
00001000
00010000
00001000
00010000
00000100
00010000
00000100
,
00001000
00000000
00000001
00000000
00001001
00000000
00001000
00000100
00000000
00000010
00000001
00000000
00001000
00000000
00000010
00000000
,
00001010
00000000
00001000
00000000
00001001
00000000
00000000
00000001
00000000
00000000
00001000
00000000
00000010
00001000
00000010
00001000
,
00000100
00000000
00010000
00001000
00010000
00000000
00001000
00100000
00010000
01000000
00000000
00000000
00100000
00000000
10000000
00010000
,
01000000
01100000
00000000
00011000
00001100
00000000
00000000
00000000
,
00000001
00000000
00000100
00000000
00001000
00000000
00010000
00001000
00010000
00001000
00000000
00100000
00010000
00000000
10000000
00000000
,
01000000
00000000
00010000
00000000
00001000
00000000
00010000
00000100
00010000
00000100
00000000
00001000
00000100
00000000
00001000
00000000
,
00000001
00000000
00000010
00000000
00001000
00000000
00010000
00000010
00010000
00000010
00000000
00000100
00000010
00000000
00001000
00000000
,
00000100
00000000
00001000
00000000
00010000
00000000
00001000
00000000
00000100
00000000
00001000
00000000
00000010
00000000
00001000
00000001
,
00001000
00000000
00000100
00000000
00000001
00000000
00000100
00001000
00000100
00001000
00000000
00000100
00010000
00000000
00001000
00000000
,
01000000
00000000
00100000
00000000
10000000
00000000
00010000
01000000
00010000
01000000
00000000
00010000
01000000
00000000
00001000
00000000
,
00010000
00000000
00000100
00000000
00001000
00000000
00000001
00001000
00000001
00001000
00000000
00000001
00001000
00000000
00000001
00000000
,
00001000
00000010
00001000
00000010
00001000
00000000
00000100
00000000
00010000
00001000
00010000
00001000
00010000
00000000
00001000
00100000
,
00010000
01000000
00100000
10000000
00010000
00100000
00001000
00010000
,
00001000
00000000
00100000
00000000
00001000
00000000
00010000
00000000
00000010
00000000
00001000
00000000
00000001
00001000
00000001
00001000
,
00000001
00000100
00000010
00010000
00000010
00001000
00000100
00010000
,
00011000
00001000
01000000
00100000
10100000
10000000
00010000
00100000
,
00001000
00000000
00010000
00000000
00100000
00000000
00010000
00000000
00001000
00000000
00010000
00000000
00000100
00000000
00010000
00001000
,
00010000
00000000
00000100
00000000
00000010
00000000
00000001
00000000
00000010
00000000
00000100
00000000
00001000
00000100
00001000
00000100
,
00001000
00000000
00000100
00000000
00010000
00000000
00001000
00000000
00100000
00000000
00010000
00100000
01000000
00000000
10000000
00000000
,
00010000
00000000
01000000
00000000
00100000
00000000
01000000
00001000
01000000
00000000
00001000
00000000
00010000
00000000
00000100
00001000
,
00000100
00000000
00001000
00000000
00000100
00000000
00000001
00000000
00000100
00000000
00000010
00000000
00000001
00000000
00001000
00000100
,
00000010
00000000
00000100
00000000
00001000
00000000
00000100
00000000
00010000
00000000
00001000
00000000
00010000
00001000
00010000
00001000
,
01000000
00100000
10000000
01000000
00100000
00010000
00100000
00001000
,
00010000
00001000
00010000
00001000
00010000
00000010
00001000
00000010
00000100
00000001
00000010
00000100
00001000
00000001
00000100
00000010
,
00001000
00000000
00000100
00000000
00000001
00000000
00000100
00000000
00001000
00000000
00000100
00000000
00010000
00000000
00001000
00010000
,
00001000
00000000
00100000
00000000
01000000
00000000
00010000
00000000
01000000
00000000
00100000
00000000
10000000
00010000
10000000
00010000
,
01000000
00000000
00001000
00000000
00100000
00000000
00010000
00000000
00100000
00000000
00001000
00010000
00001000
00000000
00010000
00000000
,
00000010
00000000
00000100
00000000
00000010
00000000
00001000
00000001
00001000
00000000
00000010
00000000
00001000
00000000
00000001
00000100
,
00000001
00000000
00000100
00000000
00001000
00000000
00010000
00001000
00010000
00000000
00001000
00000000
01000000
00000000
00100000
10000000
,
00100000
00000000
01000000
00000000
00010000
00000000
10000000
00000000
00010000
00000000
00100000
00000000
00001000
00010000
00001000
00010000
,
00000100
00001000
00000100
00000010
00000110
00000100
00001000
00000001
,
00001000
00000000
00000010
00000000
00010000
00000000
00001000
00000000
00010000
00001000
00010000
00000000
00001000
01000000
00010000
01000000
,
00100000
00000000
00000000
10100000
00000000
00000000
10010000
00000000
,
00000000
00011000
00000000
00000000
00001000
00001001
00000001
00000000
,
00001001
00000000
00000000
00011000
00000000
00000000
10010000
00000000
,
00000000
00000000
00011000
00000000
00000000
00000000
00010000
00000000
00010000
00000000
00010000
00000000
00000010
00001000
00000010
00001000
,
00000010
00000100
00001000
00000100
00000010
00001000
00000100
00010000
,
00001000
00100000
00010000
00100000
00101000
00001000
01000000
00000000
,
00010000
00100000
10000000
00100000
01000000
10000000
10010000
10010000
,
00000000
00000000
00011000
00000000
00000000
00000000
00010000
00000000
00000010
00000000
00000100
00000000
00000001
00001000
00000001
00001000
,
00000001
00000000
00000100
00000000
00000010
00000000
00010000
00001000
00010000
00000000
00001000
00000000
00100000
00000000
00010000
00000000
,
10000000
00000000
01000000
00000000
00100000
00000000
00010000
00000000
00100000
00001000
00100000
00000000
00001000
00000000
00001000
00000000
,
00010000
00000000
00000010
00000100
00000010
00000000
00010000
00000100
00010000
00000000
00000010
00000000
00000100
00000000
00000101
00000000
,
00000000
00000000
00001001
00000000
00000000
00000000
00001010
00000000
00001000
00000001
00001000
00000000
00000010
00000000
00000010
00000000
,
00010000
00000000
00001000
00000000
01000000
00000000
00100000
10000000
00100000
00000000
10000000
00000000
01000000
00000000
00100000
00000000
,
00010000
00000000
00100000
00000000
00001000
00000000
00010000
00000000
00000100
00001000
00000100
00000000
00010000
00000000
00010000
00000000
,
00000010
00000000
00001000
00000100
00000010
00000000
00000001
00000010
00000001
00000000
00001000
00000000
00000100
00000000
00001100
00000000
,
00000000
00000000
00011000
00000000
00000000
00000000
00110000
00000000
00010000
10000000
00010000
00000000
10000000
00000000
10000000
00000000
,
00010000
01000000
00100000
01000000
10000000
01000000
00100000
01000000
,
00001000
00000000
00010000
00000000
00000100
00000000
00001000
00000000
00010000
00000000
00001000
00000000
00000100
00001000
00000100
00001000
,
00000001
00000100
00001000
00010000
00001000
00100000
01000000
00100000
,
00001000
00000000
01000000
00000000
00100000
00000000
10000000
00010000
10000000
00000000
00010000
00000000
01000000
00000000
00100000
10000000
,
00010000
00000000
00100000
00000000
00010000
00000000
00001000
00000000
00010000
00000000
00100000
00000000
00000100
00000000
00001000
00000001
,
00001000
00000000
00000010
00000000
00001000
00000000
00000100
00000000
00000010
00000000
00000100
00000000
00001000
00000001
00001000
00000001
,
00001000
00000100
00010000
00001000
00100000
00010000
01000000
00100000
,
10000000
01000000
00100000
00001000
00010000
00000100
00001000
00000010
00000100
00000010
00010000
00001000
,
01000000
00000000
00100000
10000000
00000000
00010000
10000000
00000000
01000000
00100000
00000000
00010000
,
00100000
00000000
00001000
00010000
00000000
00000100
00010000
00000000
00000100
00001000
00000100
00001000
,
00000001
00000000
00000100
00000010
00000000
00001000
00000100
00000000
00000010
00000001
00000000
00001000
,
00000010
00000000
00001010
00000000
00011000
00000000
01010000
00000000
00000000
00020000
00000000
00000000
,
10030000
00000000
01000000
00100000
00000000
00010000
00100000
00000000
00000000
00002000
00000000
00000000
,
00013000
00000000
00000010
00000100
00000000
00000001
00000100
00000000
00000010
00020000
00000000
00000000
,
00031000
00100000
00010000
00200000
00000000
00000000
00301000
00010000
00000010
00000200
00000000
00000000
,
00000301
00000000
00001000
00000000
00000000
00000000
00000001
00000000
00001000
00000100
00000010
00000001
00001000
00000010
00000100
00000001
,
00001000
00000001
00000100
00000010
00000001
00000010
00000100
00000010
,
00010000
00000000
00001000
00000000
00010000
00000000
00000100
00000000
00001000
00000000
00000100
00000000
00010000
00001000
00010000
00001000
,
00100000
00010000
01000000
00100000
00010000
00100000
01000000
00010000
,
10000000
01000000
00010000
00001000
00000010
00000001
00001000
00001000
,
00000001
00000010
00001000
00010000
00001000
00010000
00001000
01000000
,
00100000
01000000
00010000
10000000
00010000
00000000
01000000
00000000
,
00001000
00010000
00000010
00000100
00000010
00001000
00000010
00010000
,
00001000
00010000
00001000
00010000
00001000
00010000
00001000
00010000
00000100
00001000
00000100
00001000
00000100
00001000
00000100
00001000
,
00000001
00000100
00001000
00010000
00100000
10000000
01000000
00010000
,
00001000
00010000
00000100
00001000
00000001
00000100
00000001
00000001
,
00001000
00000100
00000010
00000001
00001000
00000010
00010000
00001000
,
10000000
00100000
00010000
00100000
01000000
00010000
00100000
00001000
,
00010000
00000001
00000010
00001000
00000010
00001000
00000010
00000001
,
00001000
00000000
00000100
00000000
00010000
00000000
00000000
00000000
00001000
00000000
00010000
00001000
00010000
00000000
00001000
00000000
,
01000000
00100000
01000000
00000000
00100000
00000000
10000000
00000000
00010000
00100000
01000000
10000000
00010000
00000000
00100000
01000000
,
10000000
00100000
01000000
00010000
01000000
00100000
10000000
00010000
00100000
00010000
10000000
00100000
01000000
00010000
10000000
00010000
,
10000000
00000000
00000000
10010000
00000000
00000000
00011000
00000000
,
00000000
00000000
00001001
00000000
00000000
00000000
00000001
00000000
00001000
00000000
00000010
00000000
00001000
00000001
00001000
00000001
,
00000100
00000000
00000000
00000110
00000000
00000000
00000010
00000010
,
00000000
00000000
00010010
00000000
00000000
00000000
00010000
00000000
00001000
00000000
00100000
00000000
00010000
10000000
00100000
10000000
,
00010000
01000000
00100000
10000000
01000000
00100000
00010000
00100000
,
00001000
00000000
00010000
00000000
00000000
00000000
00000100
00000000
00001000
00000000
00000100
00000000
00010000
00001000
00010000
00000100
,
00001000
00000010
00000100
00000001
00000010
00000100
00001000
00001000
,
00000000
00000000
00001010
00000000
00000000
00000000
00000010
00000000
00010000
00000000
00001000
00000000
00010000
00000010
00000100
00000010
,
00000100
00010001
00000000
00000000
;
