#VERSION:0.83;
#TITLE:Discloze;
#SUBTITLE:;
#ARTIST:lapix;
#TITLETRANSLIT:;
#SUBTITLETRANSLIT:;
#ARTISTTRANSLIT:;
#GENRE:;
#CREDIT:;
#MUSIC:Discloze.ogg;
#BANNER:Discloze.png;
#BACKGROUND:Discloze-bg.png;
#CDTITLE:;
#SAMPLESTART:13.241;
#SAMPLELENGTH:13.241;
#SELECTABLE:YES;
#OFFSET:0.000;
#BPMS:0.000=145.000
,104.000=140.000
,132.000=128.000
,200.000=145.000
;
#STOPS:;
#JACKET:Discloze-jacket.png;
#BGCHANGES:;
#FGCHANGES:;

//--------------- dance-single - ----------------
#NOTEDATA:;
#STEPSTYPE:dance-single;
#DESCRIPTION:;
#DIFFICULTY:Beginner;
#METER:4;
#RADARVALUES:0,0,0,0,0;
#CREDIT:Keekstra;
#NOTES:
0000
0000
0000
0000
,
0000
0000
0000
0000
,
0000
0000
0000
0000
,
0000
0000
0000
0000
,
0000
0000
0000
0000
,
0000
0000
0000
0000
,
2002
0000
0000
0000
,
0000
0000
0000
3003
,
0000
0000
0000
0000
,
0010
0010
0010
0000
,
1000
1000
0100
0000
,
0001
0001
0100
0000
,
0010
0000
0010
0000
,
0001
0000
1000
0000
,
0001
0001
0010
0000
,
1000
1000
0010
0000
,
0100
0000
0100
0000
,
0001
1000
0001
0000
,
0001
0001
0100
0000
,
1000
1000
0100
0000
,
0010
0000
0010
0000
,
1000
0000
0001
0000
,
1000
1000
0010
0000
,
0001
0001
0010
0000
,
0100
0000
0100
0000
,
0000
1000
1000
1000
,
2000
0000
0000
0000
,
0000
0000
0000
3000
,
0002
0000
0000
0000
,
0000
0000
0000
0003
,
1000
0000
0001
0000
,
1000
0000
0001
0000
,
1000
0001
1000
0001
,
0000
0000
0000
0000
,
0001
0100
0001
0000
,
0001
0100
0010
0000
,
1000
0001
1000
0000
,
0100
0000
0000
0000
,
1000
0100
1000
0000
,
1000
0100
0010
0000
,
0001
1000
0001
0000
,
0100
0000
0000
0000
,
0001
0000
0001
0001
,
1000
0000
1000
1000
,
0010
0000
0010
0010
,
0100
0000
0001
0000
,
1000
0000
1000
1000
,
0001
0000
0001
0001
,
0010
0000
0010
0010
,
0100
0000
0100
0100
,
2000
0000
0000
0000
,
0000
0000
0000
0000
,
3000
0000
0000
0000
,
0000
0000
0000
0000
,
1000
0000
0010
0000
,
1000
0000
0001
0000
,
0010
0000
0001
0000
,
0100
0000
0100
0000
,
0001
0000
0010
0000
,
0100
0000
1000
0000
,
0010
0000
0100
0000
,
0001
0000
0001
0000
,
1000
0000
0000
0000
,
1000
0000
0000
0000
,
0001
0000
0100
0000
,
0010
0000
1000
0000
,
0002
0000
0000
0000
,
0003
0000
0000
0000
,
2002
0000
0000
0000
,
0000
0000
0000
0000
,
0000
3003
0000
0000
;

//--------------- dance-single - ----------------
#NOTEDATA:;
#STEPSTYPE:dance-single;
#DESCRIPTION:;
#DIFFICULTY:Easy;
#METER:7;
#RADARVALUES:0,0,0,0,0;
#CREDIT:Keekstra;
#NOTES:
0000
0000
0000
0000
,
0000
0000
0000
0000
,
0000
0000
0000
0000
,
0000
0000
0000
0000
,
1000
0100
1000
0000
,
0001
0100
0001
0000
,
2002
0000
0000
0000
,
3003
0000
0000
0000
,
0001
0100
0010
1000
,
0001
0001
0001
0000
,
1000
0001
1000
0001
,
0010
0100
0010
0100
,
1000
0100
1000
0000
0001
0010
0001
0000
,
1000
0010
0100
0001
,
0001
1000
0001
1000
,
0100
0010
0100
0010
,
0001
0010
0001
0000
1000
0100
1000
0000
,
0010
0000
0010
0000
0010
0010
0010
0000
,
1000
0010
0200
0302
,
0013
0001
0200
0302
,
1003
0001
1000
0000
0001
1000
0001
0000
,
0010
0100
1000
0001
,
0010
0001
2000
3200
,
1300
0000
0000
0000
1000
0000
0001
0000
0000
0000
0001
0000
0200
0000
0000
0000
0000
0000
0000
0000
0000
0300
0000
0000
,
0110
0000
0000
0000
0110
0000
0000
2002
,
0000
0000
0000
0000
,
3003
0000
0000
0000
,
2000
0000
0000
0000
,
3002
0000
0000
0000
,
0203
0000
0000
0000
,
0320
0000
2030
0000
,
3002
0000
0023
0000
,
0130
0010
0100
0010
,
0002
0000
0000
0003
,
1001
1000
0100
1000
,
1001
0001
0100
0001
,
0101
0100
0010
1000
,
2020
3030
1000
0100
,
1001
0001
0010
0001
,
1001
0000
1000
0000
0010
0100
0010
0000
,
1001
1000
0100
0010
,
0001
1000
0001
0000
1000
0001
2000
0000
,
3001
0000
0100
0000
0010
1000
0010
0000
,
0100
0000
0001
0000
0010
0001
0010
0000
,
0001
0000
1000
0000
0001
0100
0001
0000
,
0202
0000
0000
0000
0303
0000
0000
0101
0000
0000
1000
0000
1000
0000
1000
0000
,
0010
0000
0100
0000
0001
0010
0001
0000
,
0100
0000
0000
0000
0010
0000
0000
1000
0000
0000
0001
0000
1000
0000
0001
0000
,
1000
0000
0100
0000
0010
0100
0010
0000
,
0100
0000
0100
0000
1000
0000
0001
1000
,
2002
0000
0000
0000
,
0000
0000
0000
3003
,
0001
1000
0001
0000
1000
0100
1000
0000
,
0002
0203
0310
0000
,
1000
0100
0010
0001
,
0100
0001
0010
0100
,
1000
0010
0100
0010
,
1000
1000
0001
0001
,
0010
0100
1000
0010
,
0100
0010
1000
0100
,
0010
0010
0100
0100
,
2000
0000
3002
0000
1003
0001
2000
0000
,
3020
0000
0100
0130
,
0002
0000
1000
1003
,
1000
0100
0010
0001
,
0100
0000
0001
0000
1000
0001
1000
0000
,
2002
0000
0000
0000
,
3003
0000
0000
0010
0000
0000
0100
0000
,
0220
0000
0000
0000
,
0000
0000
0000
0000
,
0000
0330
0000
0000
;

//--------------- dance-single - ----------------
#NOTEDATA:;
#STEPSTYPE:dance-single;
#DESCRIPTION:;
#DIFFICULTY:Medium;
#METER:12;
#RADARVALUES:0,0,0,0,0;
#CREDIT:Keekstra;
#NOTES:
0000
0000
0000
0000
,
0000
0000
0000
0000
,
0000
0000
0000
0000
,
0000
0000
0000
0000
,
1000
0000
0000
1000
0000
0000
0010
0000
0000
0000
1000
0000
1000
0000
0001
0000
,
0010
0000
0000
0010
0000
0000
0001
0000
0000
0000
0100
0000
0110
0000
0000
0000
,
2002
0000
0000
0000
,
0000
0000
0000
3003
,
0001
0001
0100
0010
1000
1000
0001
0010
,
0100
0110
1001
0000
,
1000
0100
0010
0001
1000
0010
0110
0000
,
0001
0100
1000
0100
0000
0001
1000
0001
,
0010
0100
0000
0000
0010
0100
0000
0000
1000
0000
0001
0000
1000
0020
0000
0000
,
1030
0001
0010
0010
0100
1000
0010
0010
,
1000
0100
0010
0100
1000
0010
0110
0000
,
0001
0000
1000
0000
0001
0000
1000
0000
0100
0000
1000
0000
0020
0000
0000
0000
0000
0000
0100
0000
0000
0100
0000
0000
,
1030
0000
0001
0010
0000
0010
0001
0000
1000
0000
0001
0000
0100
0000
0100
0000
,
0001
1000
0010
0001
0010
1000
0200
0000
,
1300
0010
0100
0001
1000
0100
0001
0100
,
1000
0001
0101
0000
0001
0100
1000
0100
,
0001
1000
0000
0000
0001
1000
0000
0000
0100
0000
0010
0000
0002
0100
0000
0000
,
1003
0010
0100
0100
0001
0010
0100
0100
,
1000
0001
0010
0001
0100
0010
0110
0000
,
1000
0000
0001
0000
1000
0000
0001
0000
0100
0000
0001
0000
2000
0000
0000
0000
0000
0000
0001
0000
0000
3001
0000
0000
,
1001
0000
1000
0100
0100
0001
0100
2000
,
0000
3020
0032
2003
3200
0302
1003
0000
,
1002
0000
0010
1000
,
0203
0000
0010
0010
,
0302
0000
0100
1000
,
0023
0000
0100
0031
,
1002
0103
2001
3100
,
1002
0013
2001
3010
,
0001
0100
1000
0100
0001
0010
1000
0010
,
2002
0000
0000
3003
,
1000
0000
0100
0000
0010
0000
0001
0000
1000
0010
0000
0000
0101
0000
0000
0000
,
0001
0000
0100
0000
0010
0000
1000
0000
0001
0010
0000
0000
1100
0000
0100
0000
,
1000
0000
0010
0000
0100
0000
0001
0000
1000
0001
0000
0001
0010
0000
0001
0000
,
0200
0000
0000
0000
0301
0000
1000
0000
0100
0000
0100
0000
1000
0001
1000
0000
,
0001
0000
0010
0000
0100
0000
1000
0000
0001
0100
0000
0000
1010
0000
0000
0000
,
0001
0000
0010
0000
0200
0300
0200
0300
0020
0030
2000
3000
0020
0030
0002
0003
,
2000
0000
0000
0000
3001
0000
1000
0000
0010
0100
0000
0100
0001
0000
1000
0000
,
0100
0000
0001
0000
0100
0000
1000
0000
0010
0100
0010
0000
1000
0001
1000
0001
,
1000
0000
0001
0000
0010
0000
0100
0010
0000
0010
0100
0000
1000
0000
0010
0000
,
0100
0000
0001
0000
1000
0000
0010
0100
0000
0100
0010
0000
2000
0000
0000
0000
,
3100
0100
1100
0000
0001
0001
0012
0000
,
2003
0000
0000
0000
3010
0000
0010
0100
0000
0100
0002
0000
0203
0000
2300
0000
,
3200
0000
0301
0000
0010
0000
0001
1000
0000
1000
0010
0000
0100
0000
0001
0000
,
1000
0000
0100
0000
0010
0000
0001
0100
0000
0100
0020
0000
0032
0000
0023
0000
,
1030
0001
1001
0000
0010
0100
0110
0000
,
1000
0000
0100
0000
0010
0000
0010
0000
0001
0000
0001
0000
1000
0001
1000
0001
,
2000
0000
0000
0000
,
0000
0000
0000
0000
,
0000
0000
0000
0000
3000
0000
0000
0000
1000
0000
1000
0000
0001
0010
0000
0010
,
0200
0000
1300
0001
0100
0000
0000
0000
,
0001
0000
0100
0010
0000
0000
1000
0000
0100
0000
0010
0000
0001
1000
0001
0000
,
1000
0010
0100
0001
1000
0100
0110
0000
,
0001
0000
0010
0100
0000
0010
0000
0100
1000
0000
0001
0000
0100
0000
0001
0000
,
1000
0100
0001
0100
1000
1000
0001
0001
,
1000
0000
0001
0100
0000
0000
0010
0000
1000
0000
0001
0000
0010
0100
0010
0000
,
0001
1000
0010
0100
0001
0010
0110
0000
,
1000
0000
0010
0100
0000
0010
0000
0100
0001
0000
1000
0000
0100
0000
1000
0000
,
1000
0001
0100
1000
0100
0001
0100
1000
,
0100
0000
0001
2000
0000
0000
0000
0000
0010
0000
0000
0000
3001
0000
0100
0000
,
0001
0000
1000
0200
0000
0000
0000
0000
0010
0000
0000
0000
1300
0000
0100
0000
,
1000
0000
0001
0010
0000
0100
0000
1000
0001
0000
0100
0000
0010
0000
1000
0000
,
0100
0000
0001
0000
0100
0000
1000
0000
0010
0000
0100
0000
0001
1000
0001
0000
,
0020
0000
0001
0032
,
2003
0000
3010
0200
0000
0301
1000
0001
,
2002
0000
0000
0000
,
0000
0000
0000
0000
,
0000
3003
0000
0000
;

//--------------- dance-single - ----------------
#NOTEDATA:;
#STEPSTYPE:dance-single;
#DESCRIPTION:;
#DIFFICULTY:Hard;
#METER:16;
#RADARVALUES:0,0,0,0,0;
#CREDIT:Keekstra;
#NOTES:
0000
0000
0000
0000
,
0000
0000
0000
0000
,
0000
0000
0000
0000
,
0000
0000
0000
0000
,
1000
0000
0001
0100
0001
0000
0020
0000
0000
0000
0031
0000
0001
0000
0100
0000
,
0010
0000
1000
0100
1000
0000
0020
0000
0000
0000
1030
0000
1000
0000
0100
0000
,
0220
0000
0000
0330
,
0100
0000
0000
0000
0000
0000
0000
0000
0000
0100
0000
0000
0000
0000
0000
0000
0000
0000
0100
0000
0000
0000
0000
0000
1000
0000
0000
0000
0001
0000
0000
0000
1000
0000
0000
0000
0100
0000
0000
0000
0010
0000
0000
0000
0001
0000
0000
0000
,
0100
0000
0010
0100
0010
0000
0100
0000
0001
0000
0010
0100
0010
0000
0001
0000
,
2000
3020
0200
0330
,
1001
0000
1000
0000
0010
0000
0100
0000
0001
0010
0100
0000
0210
0000
1300
0000
,
0001
0100
1000
0100
0001
0010
0100
1000
,
0010
2000
0000
3000
0100
2000
0000
3000
0001
0100
0010
0000
1000
0200
0000
1300
,
0001
0010
0001
1000
0010
0100
0001
0001
0010
0100
0010
0001
1000
0010
0100
0001
,
0010
0000
0001
0000
0100
0000
0010
0000
1000
0100
0010
0000
0120
0000
0031
0000
,
1000
0000
0000
0000
0010
0000
0000
0000
1000
0000
0000
0000
0001
0000
0000
0000
0010
0000
0000
0000
0001
0000
0000
0000
0100
0000
0000
0010
0000
0000
0100
0000
0000
0010
0000
0000
1000
0000
0000
0000
0000
0000
1010
0000
0000
0000
0000
0000
,
1000
0100
0010
0001
0000
1000
0010
0000
1000
0001
0010
0000
0100
0000
0100
0000
,
2000
0001
3020
0100
2030
0010
0002
3003
,
1001
1000
0010
0100
0001
0010
1000
0010
,
0001
0100
0000
0000
0110
0000
1001
0000
1000
0000
0010
0000
0001
0000
0010
0000
,
0100
0002
0000
0003
0010
0002
0000
0003
1000
0100
0010
0000
0001
0200
0000
0301
,
1000
0010
1000
0001
0010
0100
1000
1000
0010
0100
0010
1000
0001
0010
0100
1000
,
0010
0000
1000
0000
0100
0000
0010
0000
0001
0100
0000
0000
0210
0000
0301
0000
,
1000
0000
0000
0000
0100
0000
0000
0000
1000
0000
0000
0000
0001
0000
0000
0000
0100
0000
0000
0000
0001
0000
0000
0000
1000
0000
0000
0020
0000
0000
0000
0000
0000
0000
0000
0000
0130
0000
0000
0001
0000
0000
0010
0000
0000
0000
0000
0000
,
0012
0000
1003
0100
1100
1000
0010
0002
,
0000
0000
0013
0100
0010
0100
0001
0001
1000
0010
0100
0001
0010
0100
1000
0000
,
1200
0000
0000
0000
0000
0000
0000
0000
1300
0100
0000
0100
0010
0000
0001
0000
,
0201
0000
0000
0000
0000
0000
0000
0000
0301
0100
0000
0100
0010
0000
1000
0000
,
1002
0000
0000
0000
0000
0000
0000
0000
1003
0100
0000
0100
0001
0000
0100
0000
,
2001
0000
0000
0000
0000
0000
0000
0000
3001
0100
0000
0100
1000
0000
0100
0000
,
1002
0013
2001
3010
,
0012
0103
2010
3100
,
1100
0001
0101
1000
1010
0001
0011
0110
,
2002
0000
0000
3003
,
1000
0000
0100
0000
0010
0000
0001
0000
0100
0010
0000
0010
1000
1000
0001
0000
,
0010
0000
0100
0000
0110
0000
1100
0000
1000
0020
0000
0000
0130
0010
1000
0000
,
0001
0000
0010
0000
0100
0000
1000
0000
0010
0100
0000
0000
0001
1000
0100
0000
,
1200
0000
0000
0000
0310
0001
1000
0001
0200
0000
0010
0000
0301
0100
0010
1000
,
0001
0000
0010
0000
0100
0000
1000
0000
0010
0100
0000
0100
0001
0001
1000
0000
,
0100
0000
0010
0000
0220
0330
0022
0033
2002
3003
2020
3030
0220
0330
0202
0303
,
2000
0000
0000
0000
3001
0000
1000
0000
0100
0010
0000
0010
0001
1000
0010
0000
,
0102
0000
0000
0000
1003
0001
0100
0010
1000
0001
1000
0001
0010
0010
0100
0100
,
1000
0000
0010
0000
0100
0000
0001
0010
0000
1000
0010
0000
0100
0100
1000
0000
,
0001
0000
0100
0000
0010
0000
1000
0100
0000
0001
0100
0000
2000
0000
0010
0000
,
3001
0000
1000
0000
0001
0100
0010
1000
0000
1000
0001
0000
1000
0100
0010
0000
,
0012
0000
0000
0000
1003
0000
0000
1001
0000
0000
2200
3300
0202
0303
0220
0330
,
1001
0000
0001
0000
0100
0000
0010
0001
0000
0010
1000
0000
0001
0001
0010
0000
,
0001
1000
0100
0000
0010
0000
0001
0011
0000
1000
1100
0000
1001
0000
0101
0000
,
0100
0000
0010
0000
1000
0000
0001
0010
0000
1000
0010
0000
0001
1000
0010
0000
,
0100
0001
0100
0001
1000
0010
1000
0010
1000
0001
0010
0100
1000
0010
0100
0001
,
2000
0000
0000
0000
,
0000
0000
0000
3000
,
1000
0000
0100
0000
0010
0000
0001
0000
0100
0000
0100
0000
0001
1000
0000
0001
,
1000
0100
0010
0001
0100
0010
1000
0001
1000
0000
0200
0000
0302
0000
0203
0000
,
1300
0000
0001
0100
0000
0010
1000
0001
0010
0100
1000
0000
0010
0100
0001
0000
,
0101
0000
1001
0000
1000
0100
0010
0001
0100
0010
0100
0001
0010
0000
0100
1000
,
0001
0000
1000
0020
0000
0032
0000
0013
1000
0001
0010
0100
1000
0001
0100
0000
,
0001
1000
0100
0100
1000
0001
0100
0100
0001
1000
0100
0010
0001
0000
1000
0001
,
0100
0000
0010
1000
0000
1000
0001
1000
0100
0010
0001
0000
0100
0010
1000
0000
,
1010
0000
1001
0000
0001
0100
0001
1000
0100
0010
0100
1000
0001
0000
1000
0001
,
0200
0000
0301
0020
0000
2030
0000
3010
0001
1000
0010
0100
0001
1000
0100
0000
,
0010
0000
0001
1000
0100
1000
0001
1000
0100
1000
0001
1000
0100
0010
0001
1000
,
0010
0000
0100
0002
0000
0000
1003
0001
0010
0000
0100
0000
0001
0000
0100
0000
,
1000
0000
0001
0200
0000
0000
0301
1000
0010
0000
0100
0000
1000
0000
0100
0000
,
0010
0000
1000
0002
0000
0023
0000
0130
1000
0001
0100
0000
0001
1000
0100
0000
,
1000
0001
0010
0000
0011
0000
1001
0000
1010
0000
0110
0000
0100
0001
0010
0000
,
0022
0000
0000
0033
,
1002
0000
0000
0000
0103
0000
0101
0000
0000
0000
1010
0000
0010
1000
0001
0000
,
0220
0000
0000
0000
,
0000
0000
0000
0000
,
0000
0330
0000
0000
;
