#VERSION:0.83;
#TITLE:Digital Labyrinth;
#SUBTITLE:;
#ARTIST:nato;
#TITLETRANSLIT:;
#SUBTITLETRANSLIT:;
#ARTISTTRANSLIT:;
#GENRE:;
#CREDIT:;
#MUSIC:Digital Labyrinth.ogg;
#BANNER:Digital Labyrinth.png;
#BACKGROUND:Digital Labyrinth-bg.png;
#CDTITLE:;
#SAMPLESTART:99.338;
#SAMPLELENGTH:15.000;
#SELECTABLE:YES;
#OFFSET:-0.145;
#BPMS:0.000=150.000
,32.000=300.000
,36.000=150.000
,50.000=300.000
,52.000=150.000
,67.000=300.000
,69.000=150.000
,83.000=300.000
,85.000=150.000
,98.000=300.000
,102.000=150.000
,129.500=300.000
,134.000=150.000
,157.000=300.000
,158.000=150.000
,159.000=300.000
,162.000=150.000
,163.000=300.000
,166.000=37.500
,174.000=75.000
,175.000=300.000
,177.000=150.000
,179.000=600.000
,180.000=150.000
,180.750=37.500
,181.000=150.000
,183.000=600.000
,184.000=150.000
,184.750=600.000
,185.250=150.000
,188.000=600.000
,189.000=150.000
,189.750=75.000
,190.000=150.000
,192.000=600.000
,193.000=150.000
,195.750=300.000
,196.500=150.000
,199.000=75.000
,199.500=150.000
,200.000=300.000
,200.500=150.000
,200.750=75.000
,201.000=300.000
,201.500=150.000
,201.750=75.000
,202.000=300.000
,202.500=150.000
,202.750=75.000
,203.000=300.000
,204.000=150.000
,206.000=600.000
,207.000=150.000
,218.000=600.000
,219.000=150.000
,220.750=75.000
,222.750=150.000
,224.750=600.000
,225.750=150.000
,227.500=75.000
,229.500=150.000
,231.500=600.000
,232.500=150.000
,234.250=75.000
,236.250=150.000
,238.250=600.000
,239.250=150.000
,241.000=300.000
,245.250=150.000
,247.000=600.000
,248.000=150.000
,249.750=300.000
,253.750=150.000
,255.750=600.000
,256.750=150.000
,258.500=300.000
,264.500=600.000
,265.500=150.000
,266.250=300.000
,273.250=600.000
,274.250=300.000
,280.000=1.500
;
#STOPS:32.000=0.050
,32.250=0.050
,32.500=0.050
,32.750=0.050
,33.000=0.100
,33.500=0.100
,34.000=0.066
,34.333=0.067
,34.667=0.033
,34.833=0.034
,35.000=0.050
,35.250=0.050
,35.500=0.100
,67.000=0.025
,67.125=0.025
,67.250=0.050
,67.500=0.050
,67.750=0.050
,68.000=0.050
,68.250=0.050
,68.500=0.050
,68.750=0.050
,98.000=0.150
,98.750=0.150
,99.500=0.100
,100.000=0.067
,100.333=0.067
,100.667=0.067
,101.000=0.200
,129.500=0.200
,130.500=0.100
,131.000=0.100
,131.500=0.100
,132.000=0.100
,132.500=0.050
,132.750=0.050
,133.000=0.050
,133.250=0.050
,133.500=0.050
,133.750=0.050
,157.000=0.025
,157.125=0.025
,157.250=0.025
,157.375=0.025
,157.500=0.025
,157.625=0.025
,157.750=0.025
,157.875=0.025
,159.000=0.200
,160.000=0.200
,161.000=0.025
,161.125=0.025
,161.250=0.025
,161.375=0.025
,161.500=0.025
,161.625=0.025
,161.750=0.025
,161.875=0.025
,163.000=0.200
,164.000=0.100
,164.500=0.050
,164.750=0.050
,165.000=0.050
,165.250=0.050
,165.500=0.050
,165.750=0.050
,166.000=3.200
,175.000=0.050
,175.250=0.050
,175.500=0.050
,175.750=0.050
,176.000=0.050
,176.250=0.050
,176.500=0.050
,176.750=0.050
,184.750=0.050
,189.750=0.100
,189.875=0.100
,193.750=0.300
,194.875=0.400
,195.750=0.150
,199.500=0.025
,199.563=0.025
,199.625=0.025
,199.688=0.025
,199.750=0.025
,199.813=0.025
,199.875=0.025
,199.938=0.025
,203.000=0.050
,203.250=0.050
,203.500=0.050
,203.750=0.050
,208.750=0.300
,241.000=0.133
,241.667=0.134
,242.333=0.183
,243.250=0.150
,244.000=0.050
,244.250=0.050
,244.500=0.050
,244.750=0.100
,249.750=0.100
,250.250=0.050
,250.500=0.100
,251.000=0.050
,251.250=0.100
,251.750=0.050
,252.000=0.100
,252.500=0.050
,252.750=0.100
,253.250=0.100
,258.500=0.100
,259.000=0.050
,259.250=0.100
,259.750=0.050
,260.000=0.100
,260.500=0.050
,260.750=0.100
,261.250=0.050
,261.500=0.100
,262.000=0.100
,262.500=0.150
,263.250=0.150
,264.000=0.100
,266.250=0.025
,266.375=0.025
,266.500=0.025
,266.625=0.025
,266.750=0.025
,266.875=0.025
,267.000=0.025
,267.125=0.025
,267.250=0.100
,267.750=0.050
,268.000=0.100
,268.500=0.050
,268.750=0.100
,269.250=0.050
,269.500=0.150
,270.250=0.100
,270.750=0.100
,271.250=0.133
,271.917=0.133
,272.583=0.134
,274.250=0.050
,274.500=0.050
,274.750=0.050
,275.000=0.033
,275.167=0.033
,275.333=0.034
,275.500=0.100
,276.000=0.150
,276.750=0.150
,277.500=0.150
,278.250=0.150
,279.000=0.100
,279.500=0.100
;
#SPEEDS:0.000=1.000=0.000=0,
209.000=2.000=7.000=0,
216.000=1.000=0.000=0
;
#SCROLLS:0.000=1.000,
208.750=0.500,
216.000=1.000,
280.000=0.010,
280.063=1.000
;
#DISPLAYBPM:37.500:150.000;
#BGCHANGES:;
#FGCHANGES:;

//--------------- dance-single - Peter ----------------
#NOTEDATA:;
#STEPSTYPE:dance-single;
#DESCRIPTION:Peter;
#DIFFICULTY:Beginner;
#METER:5;
#RADARVALUES:0,0,0,0,0;
#NOTES:
0000
0000
0000
0000
,
0000
0000
0000
0000
,
0000
0000
0000
0000
,
0000
0000
0000
0000
,
1000
0000
0000
0000
,
0001
0000
0000
0000
,
1000
0000
0001
0000
,
1000
0001
1000
0001
,
2000
0000
0000
0000
,
3001
0000
0010
0000
,
1000
0000
0010
0000
,
0001
0000
0100
0000
,
0010
0000
2000
0000
,
3000
0001
0000
0100
,
0000
1000
0000
0100
,
0000
0001
0000
0010
,
0000
0000
0000
0000
0100
0000
0000
0000
0000
0000
0000
0000
2000
3000
0000
0000
,
0002
0003
0000
0000
1000
0000
0000
0000
0000
0000
0000
0000
0010
0000
0000
0000
,
0000
0001
0000
0010
,
0000
1000
0000
0100
,
0000
0010
0000
0002
,
0000
0003
1000
0000
,
0100
0000
0001
0000
,
0100
0000
1000
0000
,
0010
0000
0000
0000
0000
0000
0000
0000
0200
0300
0000
0000
0000
0000
0000
0000
,
0002
0000
1003
0000
,
0100
0000
1000
0000
,
0001
0100
0010
0000
,
0100
0000
0001
0000
,
1000
0100
0010
0000
,
0001
0000
0010
0000
,
1000
0010
0001
0000
,
0100
0000
0000
0000
0000
0000
0020
0030
0000
0000
0000
0000
0000
0000
0000
0000
,
2000
0000
3001
0000
,
0010
0000
0001
0000
,
0100
0010
1000
0000
,
0100
0000
0001
0000
,
0100
1000
0010
0000
,
0100
0000
0000
0001
0000
0000
0000
0000
,
1000
0000
0000
0000
0002
0000
0000
0000
0003
0000
0000
0000
0020
0030
0000
0000
,
0200
0000
0000
0000
0000
0000
0000
0000
2300
3000
0000
0000
0002
0003
0000
0000
,
0200
0000
0000
0000
0000
0000
0000
0000
0000
0000
0000
0000
0000
0000
0000
0000
0000
0000
0000
0000
0000
0000
0000
0000
0000
0000
0000
0000
0000
0000
0000
0000
0000
0300
0000
0000
0000
0000
0000
0000
0000
0000
0000
0000
0000
0000
0000
0000
0001
0000
0000
0000
0000
0000
0000
0000
0000
0000
0000
0000
0000
0000
0000
0000
,
0010
0100
1000
0010
,
0100
0001
1001
0002
,
0000
1003
0000
0200
,
0300
0000
0000
0020
0031
0000
0000
0000
0000
0000
0000
0000
0200
0000
0000
0000
,
0300
0000
0000
0020
0030
0000
0000
0000
1000
0000
0000
0000
0000
0000
0000
0000
,
0020
0000
0000
0000
0030
0000
0000
0200
0301
0000
0000
0000
0000
0000
0000
0000
,
0020
0000
0000
0000
0030
0000
0000
0200
1300
0000
0000
0000
0001
0000
0000
0000
,
0000
0000
0000
0000
0100
0000
0000
0000
0000
0000
0000
0000
0020
0030
0000
0000
,
2000
0000
0000
3000
0200
0000
0000
0300
0020
0000
0000
0030
0002
0000
0000
0000
,
1003
0000
0002
0003
,
0000
0200
0300
0000
0000
0000
0000
0000
,
0001
0000
1000
0000
,
0001
0000
0000
0000
0000
0000
0000
0000
0020
0000
0000
0000
0030
0000
0000
0100
,
0000
0000
0000
1000
0000
0000
0000
1000
0000
0000
0000
0001
0000
0000
0000
0000
,
0000
0000
0000
0200
0000
0000
0000
0300
0000
0000
0010
0000
0000
0000
1000
0000
,
0000
1000
0000
0001
0000
0000
0000
0200
,
0000
0000
0300
0000
0000
1000
0000
0000
0000
0100
0000
0000
0000
0100
0000
0000
,
0000
0001
0000
0000
0000
0000
0000
0000
0000
0020
0000
0000
0000
0030
0000
0000
,
1000
0000
0000
0000
0020
0030
0000
0000
0000
0000
0000
0000
0000
0002
0000
0000
,
0000
0003
1000
0002
,
0003
0000
0000
0010
0000
0000
0000
0200
0300
0000
0000
0000
0000
0000
0000
2000
,
3000
0000
0000
0000
0000
0000
0000
0001
0000
0000
0000
0100
0000
0000
0000
0020
,
0000
0000
0000
0030
0000
0000
1000
0000
0000
0000
0200
0300
0000
0000
0000
0000
,
0000
0000
0020
0030
0000
0000
0000
0000
0000
0000
0002
0003
0000
0000
0000
0000
,
0000
0000
2000
0000
0000
0000
3000
0000
0000
0020
0000
0000
0000
0230
0300
0000
,
0000
0000
0000
0000
0000
0002
0003
0000
0000
0000
0000
0000
0000
2000
3000
0000
,
0000
0000
0000
0000
0000
0200
0000
0000
0000
0300
0000
0000
0020
0000
0000
0000
,
0032
0003
0000
0000
0000
0000
2000
3000
0000
0000
0000
0000
0002
0003
0000
0000
,
0020
0030
0000
0000
0000
0000
0000
0000
0000
0000
0000
0000
0000
0000
0000
0000
0000
0000
0000
0000
0000
0000
0000
0000
0000
0000
0000
0000
0000
0000
0000
0000
0000
0000
0000
0000
0000
0000
0000
0000
0000
0000
0000
0000
0000
0000
0000
0000
0000
0000
0000
0000
0000
0000
0000
0000
0000
0000
0000
0000
0000
0000
0000
0000
0000
0000
0000
0000
0000
0000
0000
0000
0000
0000
0000
0000
0000
0000
0000
0000
0000
0000
0000
0000
0000
0000
0000
0000
0000
0000
0000
0000
0000
0000
0000
0000
;

//--------------- dance-single - Peter ----------------
#NOTEDATA:;
#STEPSTYPE:dance-single;
#DESCRIPTION:Peter;
#DIFFICULTY:Easy;
#METER:9;
#RADARVALUES:0,0,0,0,0;
#NOTES:
0000
0000
0000
0000
,
0000
0000
0000
0000
,
0000
0000
0000
0000
,
0000
0000
0000
0000
,
1001
0000
0100
0000
,
1001
0000
0100
0000
,
1001
0000
0110
0000
,
1001
0000
0000
0000
,
2000
3000
0000
0000
0200
0300
0000
0000
0020
0030
0000
0000
0002
0003
0000
0000
,
1000
0010
0001
0010
,
1000
0001
0010
0001
,
1000
0100
0010
0001
,
0100
0010
2000
0000
,
3001
0001
0001
0000
0010
0000
1000
0000
,
0010
0001
1000
0010
,
1000
0001
0010
0100
,
1000
0000
0000
0000
0010
0000
0000
0000
0100
0000
0000
0000
0002
0003
0000
0000
,
2000
3000
0000
0000
0001
0000
0000
0000
0010
0000
0000
0000
1000
0000
0000
0000
,
0010
0100
1000
0010
,
0100
0001
0010
0001
,
0100
0010
1000
0200
,
0000
0000
1300
1000
1000
0000
0010
0000
,
0001
0010
0100
0001
,
0010
0100
1000
0010
,
0100
0000
0000
0000
0001
0000
0000
0000
2000
3000
0000
0002
0003
0000
2000
3000
,
0020
0030
0000
0000
0200
0000
0000
0000
0301
0000
0000
0000
0010
0000
0000
0000
,
1000
0010
0001
0100
,
0010
0001
0010
0100
,
0001
0010
0100
1000
,
0010
0100
0001
0100
,
1000
0100
0001
0010
,
0100
0001
0100
0010
,
0001
0000
0000
0000
0100
0000
0020
0030
0000
0000
2000
3000
0002
0003
0000
0000
,
0020
0030
0000
0000
0200
0300
0000
0000
1000
0000
0000
0000
0010
0000
0000
0000
,
0001
0010
1000
0100
,
0010
1000
0010
0100
,
1000
0010
0100
0001
,
0010
0100
1100
1000
,
1010
0000
0000
0110
0000
0000
0100
0000
,
0001
0000
0000
0000
2000
0000
0000
0000
3100
0000
0000
0000
0220
0330
0000
0000
,
0022
0033
0000
0000
0002
0000
0000
0000
1003
0000
0000
0000
2002
3003
0000
0000
,
0002
0000
0000
0000
0003
0000
0000
0000
0200
0000
0000
0000
0300
0000
0000
0000
0002
0000
0000
0000
0003
0000
0000
0000
0200
0000
0000
0000
0300
0000
0000
0000
0002
0003
0000
0000
0000
0000
0000
0000
0000
0000
0000
0000
0000
0000
0000
0000
1000
0000
0000
0000
0000
0000
0000
0000
0100
0000
0000
0000
0000
0000
0000
0000
,
0010
0001
0100
1000
0100
0001
0010
0100
,
1000
0000
0001
0000
0100
0000
1000
0000
0100
0000
0000
0000
0002
0003
2000
3000
,
0002
0003
2000
3000
0001
0000
0000
0000
0010
0000
0000
0000
0200
0000
0000
0000
,
0300
0000
0000
2000
3001
0000
0000
0000
0100
0000
0000
0000
0020
0000
0000
0000
,
0030
0000
0000
2000
0000
3000
0000
0000
1000
0000
0000
0000
0100
0000
0000
0000
,
0010
0000
0000
0000
0000
0000
0000
0002
1003
0000
0000
0000
0010
0000
0000
0000
,
0200
0000
0000
0000
0300
0000
0000
0002
1003
0000
0000
0200
0310
0000
0000
0002
,
0003
0000
0000
0000
0100
0000
0000
0010
0000
0000
0000
0000
2000
3000
0002
0000
,
0023
0000
0000
0030
2000
0000
0000
3000
0020
0000
0000
0030
0002
0000
0000
0000
,
1003
0000
0000
0000
0010
0000
0000
0000
0200
0000
0000
0000
0300
0000
0000
0001
,
0000
2000
3001
0000
0010
0000
0100
0000
,
1000
0100
0010
0001
,
1000
0000
0000
0000
0010
0000
0000
0000
0002
0000
0000
0000
0003
0000
0000
0010
,
0000
0000
0000
1000
0000
0100
0000
0010
0000
0001
0000
1000
0000
0000
0000
0100
,
0000
0000
0000
0002
0000
0000
0000
0003
0000
0000
0100
0000
0000
0000
1000
0000
,
0000
0010
0000
0000
0100
0000
0001
0000
0000
0000
0010
0000
0000
0000
2000
0000
,
0000
0000
3000
0000
0000
0010
0000
0000
0000
0001
0000
0100
0000
0010
0000
1000
,
0000
0001
0000
0000
0000
0100
0000
0000
0000
2000
0000
0000
0000
3000
0000
0000
,
0100
0000
0000
0000
0000
0000
0000
0000
0000
0000
0000
0000
0002
0000
0000
0000
0003
0000
0000
0000
0000
0000
0000
0000
0000
0000
0000
0000
0020
0000
0000
0000
0030
0000
0000
0000
0000
0000
0000
0200
0000
0000
0300
0000
0000
0000
0000
0000
,
2000
3000
0002
0003
0000
1000
0000
0000
0100
0000
0000
0000
0002
0000
0000
0000
,
0003
0000
0000
0100
0000
0000
0000
0020
0030
0000
0020
0030
0000
0002
0003
0000
,
0002
0003
0000
2000
3000
0000
0000
0001
0000
0000
0000
0100
0000
0000
0000
2000
,
0000
0000
0000
3000
0000
0000
0100
0000
0000
0000
0020
0030
0000
0020
0030
0000
,
2000
3000
0000
2000
3000
0000
0002
0003
0000
0000
0020
0030
0000
0200
0300
0000
,
0000
0000
2000
0000
0000
0000
3000
0000
0000
0002
0000
0000
0000
0023
0030
0000
,
0020
0000
0000
0030
0000
0000
0000
0000
0000
2000
0000
0000
3000
0000
0000
0000
0000
0000
2000
0000
0000
3000
0000
0000
0000
0000
0000
0020
0000
0000
0030
0000
0000
0000
0000
0000
0000
0000
0000
0002
0000
0000
0003
0000
0000
0000
0000
0002
,
0000
0000
0003
0000
0000
0000
0000
0002
0000
0000
0003
0000
0000
0000
0000
2000
0000
0000
0000
0000
0000
0000
0000
0000
0000
0000
0000
3000
0000
0000
0000
0000
0000
0000
0000
0000
0020
0000
0000
0030
0000
0000
0000
0000
0000
0000
0000
0000
,
0200
0300
0000
0200
0300
0000
0002
0003
0000
0002
0003
0000
2000
3000
2000
3000
,
0020
0030
0000
0000
0000
0000
0000
0000
0000
0000
0000
0000
0000
0000
0000
0000
0000
0000
0000
0000
0000
0000
0000
0000
0000
0000
0000
0000
0000
0000
0000
0000
0000
0000
0000
0000
0000
0000
0000
0000
0000
0000
0000
0000
0000
0000
0000
0000
0000
0000
0000
0000
0000
0000
0000
0000
0000
0000
0000
0000
0000
0000
0000
0000
0000
0000
0000
0000
0000
0000
0000
0000
0000
0000
0000
0000
0000
0000
0000
0000
0000
0000
0000
0000
0000
0000
0000
0000
0000
0000
0000
0000
0000
0000
0000
0000
;

//--------------- dance-single - Peter ----------------
#NOTEDATA:;
#STEPSTYPE:dance-single;
#DESCRIPTION:Peter;
#DIFFICULTY:Medium;
#METER:11;
#RADARVALUES:0,0,0,0,0;
#NOTES:
0000
0000
0000
0000
,
0000
0000
0000
0000
,
0000
0000
0000
0000
,
0000
0000
0000
0000
,
1000
1000
1000
0000
,
0001
0001
0001
0000
,
0100
0100
0010
0010
,
1001
1001
1001
1001
,
2000
3000
0200
0300
0020
0030
0002
0003
0200
0300
0000
0000
0020
0030
2000
3000
,
0001
0010
0000
0010
0100
0000
0000
0100
,
1000
0000
0010
0000
0001
0010
1000
0000
,
0001
0000
0010
0100
0010
0000
1000
0000
,
0010
0001
2000
0000
,
3001
0001
0001
0100
0000
0100
0010
0000
,
0000
0010
1000
0000
0100
0000
0001
0100
,
1000
0000
0001
0000
0100
0010
0100
0000
,
0001
0000
0000
0000
0010
0000
0000
0000
0100
0000
0000
0000
2000
3000
0002
0003
,
2000
3000
0002
0003
1000
0000
0000
0000
0100
0000
0010
0000
0001
0000
0000
0000
,
0100
0010
1000
0000
0001
0000
0010
1000
,
0010
0000
0001
0100
0000
0100
0010
0000
,
1000
0001
1000
0000
0100
0000
0020
0000
,
0000
0000
0031
0001
0001
0000
0100
0010
,
1000
0000
0100
0010
0001
0000
1000
0000
,
0010
0001
0010
0000
1000
0001
0000
0001
,
0010
0000
0000
0000
0100
0000
0000
0000
2000
3000
0000
0002
0003
0000
2000
3000
,
0020
0030
0020
0230
0000
0000
0301
0000
0000
0010
0000
0000
,
0001
0000
0000
1000
0000
0000
0010
0000
0000
0000
0000
0000
0001
0000
0000
0000
,
0010
0000
0000
0100
0000
0000
0001
0000
1000
0000
0000
0000
0100
0000
0000
0000
,
0001
0000
0000
0100
0000
0000
0010
0000
0000
0000
0001
0000
1000
0000
0001
0000
,
0100
0010
0000
0000
1000
0000
0100
0000
,
1000
0000
0000
0001
0000
0000
0100
0000
0000
0000
0000
0000
1000
0000
0000
0000
,
0100
0000
0000
0010
0000
0000
1000
0000
0001
0000
0000
0000
0010
0000
0000
0000
,
1000
0000
0000
0010
0000
0000
0002
0003
0000
0000
0200
0300
0020
0030
2000
3000
,
0002
0003
0020
0030
0020
0030
0020
0030
0001
0000
0000
0000
0100
0000
0000
0000
,
0010
0000
0000
0001
0000
0000
0010
0000
0000
0000
1000
0000
0001
0000
0000
0000
,
0010
0000
0100
1000
0001
0000
0010
0000
,
1000
0000
0000
0001
0000
0000
0100
0000
1000
0000
1000
0000
0010
0000
0010
0000
,
0100
0001
0100
0010
1000
0000
0100
0000
,
0001
0000
0000
0100
0000
0000
1000
0000
0000
0000
0001
0000
0100
0000
0100
0000
,
0010
0000
0010
0000
2000
0000
0000
0000
3001
0000
0001
0000
0022
0033
0000
0000
,
2020
3030
0000
0000
0002
0000
0000
0000
0103
0000
0010
0000
0220
0330
0000
0000
,
2000
0000
0000
0000
3000
0000
0000
0000
0020
0000
0000
0000
0030
0000
0000
0000
2000
0000
0000
0000
3000
0000
0000
0000
0020
0000
0000
0000
0030
0000
0000
0000
2000
3000
0000
0000
0000
0000
0000
0000
0000
0000
0000
0000
0000
0000
0000
0000
0001
0000
0000
0000
0000
0000
0010
0000
0000
0000
0000
0000
0100
0000
0000
0000
,
0000
1000
0000
0000
0001
0000
0000
0000
1000
0000
0000
0010
0000
0000
0100
0000
0000
0001
0000
0000
0010
0000
0100
0000
1000
0000
0000
0100
0000
0000
0010
0000
,
0000
0001
0000
0000
1000
0000
0000
0000
0001
0000
0000
0100
0000
0000
0010
0000
1000
0000
0000
0000
0000
0000
0000
0000
0001
0000
0000
0000
1000
0000
0000
0000
,
0001
1000
0001
0000
0010
0000
0200
0000
,
1300
0000
0000
0002
1003
0000
0000
0000
0100
0000
0000
0000
0020
0000
0000
0000
,
0031
0000
0000
2000
3000
2000
3000
0000
0001
0000
0000
0000
0100
0000
0000
0000
,
0020
0000
0000
0000
1030
0000
0000
0002
1003
0000
0000
0000
0010
0000
0000
0000
,
0200
0000
0000
0000
0301
0000
0000
2000
3001
0000
0000
0020
1030
0000
0000
0020
,
0030
0000
0000
0000
0001
0000
0000
0100
0000
0000
0000
0000
0020
0030
2000
0000
,
3002
0000
0000
0003
0020
0000
0000
0030
0200
0000
0000
0300
2000
3000
0002
0003
,
1000
0000
0000
0000
0100
0000
0000
0000
0020
0000
0000
0000
0031
0000
0000
1000
,
0000
0002
1003
0000
0010
0000
0100
0000
,
0001
0010
0100
1000
,
0001
0000
0000
0000
0100
0000
0000
0000
0020
0000
0000
0000
1030
0000
0000
0001
,
0000
0010
0000
0100
0000
0001
0000
0100
0000
1000
0000
0001
0000
0000
0000
0100
,
0000
0000
0000
0000
0000
0000
0020
0000
0000
0000
0000
0000
0000
0000
1030
0000
0000
0000
0000
0000
0001
0000
0000
0000
0010
0000
0000
0000
0001
0000
0000
0001
,
0000
0000
1000
0000
0000
1000
0000
0000
0010
0000
0000
0000
1000
0000
0000
0000
0000
0000
0000
0000
0100
0000
0000
0000
0000
0000
0000
0000
0020
0000
0000
0000
,
0000
0000
0031
0000
0000
1000
0000
0010
0000
0100
0000
1000
0000
0100
0000
0001
,
0000
1000
0000
0000
0000
0100
0000
0000
0000
0020
0000
0000
0000
0031
0000
0000
,
0100
0000
0000
0000
0000
0000
0010
0000
0000
0000
0000
0000
2000
0000
0000
0000
3000
0000
0000
0000
0002
0000
0000
0000
0003
0000
0000
0000
2000
0000
0000
0000
3000
0000
0000
0000
0000
0000
0000
2002
0000
0000
3003
0000
0000
0000
0000
0000
,
0002
0003
2000
3000
0000
1000
0000
0000
0001
0000
0010
0000
0200
0000
0000
0000
,
1300
0000
0000
0010
0000
0100
0000
0002
0003
0000
0020
0030
0000
0200
0300
0000
,
2000
3000
0000
0020
0030
0200
0300
0001
0000
0000
0000
0010
0000
0100
0000
2000
,
0000
0000
0000
3001
0000
0000
0100
0000
0010
0000
2000
3000
0000
0200
0300
0000
,
0020
0030
0000
0002
0003
0000
0200
0300
0020
0030
2000
3000
0000
0200
0300
0000
,
0020
0030
0002
0000
0000
0000
1003
0000
0000
0020
0000
0000
0000
2030
3000
0000
,
0200
0000
0000
0300
0000
0000
0000
0000
0000
0002
0000
0000
0003
0000
0000
0000
0000
0000
0200
0000
0000
0300
0000
0000
0000
0000
0000
2000
0000
0000
3000
0000
0000
0000
0000
0000
0000
0000
0000
0002
0000
0000
0003
0000
0000
0000
0000
0200
,
0000
0000
0300
0000
0000
0000
0000
0020
0000
0000
0030
0000
0000
0000
0000
2000
0000
0000
0000
0000
0000
0000
0000
0000
0000
0000
0000
3002
0000
0000
0003
0000
0000
0000
0000
0000
0020
0000
0000
0030
0000
0000
0200
0000
0000
0300
0000
0000
,
2000
3000
0000
0020
0030
0000
0002
0003
0000
0020
0030
0000
2000
3000
0002
0003
,
0020
0030
0000
0000
0000
0000
0000
0000
0000
0000
0000
0000
0000
0000
0000
0000
0000
0000
0000
0000
0000
0000
0000
0000
0000
0000
0000
0000
0000
0000
0000
0000
0000
0000
0000
0000
0000
0000
0000
0000
0000
0000
0000
0000
0000
0000
0000
0000
0000
0000
0000
0000
0000
0000
0000
0000
0000
0000
0000
0000
0000
0000
0000
0000
0000
0000
0000
0000
0000
0000
0000
0000
0000
0000
0000
0000
0000
0000
0000
0000
0000
0000
0000
0000
0000
0000
0000
0000
0000
0000
0000
0000
0000
0000
0000
0000
;

//--------------- dance-single - Peter ----------------
#NOTEDATA:;
#STEPSTYPE:dance-single;
#DESCRIPTION:Peter;
#DIFFICULTY:Hard;
#METER:14;
#RADARVALUES:0,0,0,0,0;
#NOTES:
0000
0000
0000
0000
,
0000
0000
0000
0000
,
0000
0000
0000
0000
,
0000
0000
0000
0000
,
1000
0100
0010
0001
1000
0000
0000
0000
,
0001
0100
0001
1000
0100
0000
0000
0000
,
1000
0000
0000
0010
0000
0000
0100
0000
0001
0000
0000
0010
0000
0000
0100
0000
,
1000
0000
0000
0010
0000
0000
0001
0000
0000
0010
0000
0000
1000
0000
0001
0000
,
2000
0000
0000
3200
0000
0000
2300
0000
0000
3200
0000
0000
2300
0000
0000
3000
0000
0000
0002
0000
0000
0003
0000
0000
0200
0000
0000
0000
0320
0000
0000
0000
2030
0000
0000
0000
3002
0000
0000
2003
0000
0000
3002
0000
0000
0003
0000
0000
,
1000
0100
1000
0000
0001
0100
0001
0000
,
1000
0000
0000
0100
0000
0000
0010
0000
0001
1000
0000
0000
0010
0000
0100
0000
,
0001
0010
0000
0100
0001
0000
0100
1000
,
0010
0000
0100
0001
2000
0000
0000
0000
,
3001
0001
0001
0100
0001
0000
1000
0100
,
1000
0000
0000
0000
0001
0000
0000
0100
0000
0000
0010
0000
1000
0001
0000
0000
,
0010
0100
1000
0010
0000
0001
0010
0000
,
0100
0000
0000
0000
0001
0000
0010
0000
0011
0000
0000
0000
2000
3002
0203
0300
,
0020
2030
3020
2030
3001
0000
0010
0000
0100
0000
0010
0000
0000
0000
0010
0000
,
1000
0000
0010
0000
0000
0000
0010
0000
0001
0000
0000
0000
0100
0010
0100
0000
,
0001
0000
1000
0100
0000
0001
0100
0010
,
0001
1000
0010
0000
0110
0000
0002
0000
,
0000
0000
1003
1000
1000
0010
0100
0010
,
0000
0010
0001
0010
0000
0010
1000
0000
,
0100
0010
0100
0000
1000
0000
0000
0000
0001
0000
0100
0000
0000
0000
1000
0000
,
0100
0000
0010
0000
1000
0000
0000
0000
0002
0003
0000
0002
0003
0000
0002
0003
,
0020
2030
3020
0032
0000
0000
1003
0000
0000
1100
0000
0000
,
0100
0000
0000
0001
0000
0000
0100
0000
0000
0000
0010
0000
0001
0000
0000
0000
,
1000
0000
0000
0010
0100
0001
1000
0000
0001
0000
0010
0000
0100
0000
0000
0000
,
0001
0000
0000
0100
0000
0000
1000
0000
0000
0000
0010
0000
0100
0000
0010
0000
,
0001
0010
0000
1000
0001
0000
0101
0000
,
0100
0000
0000
1000
0000
0000
0100
0000
0000
0000
0010
0000
1000
0000
0000
0000
,
0001
0000
0000
0010
0100
1000
0001
0000
1000
0000
0010
0000
0100
0000
0000
0000
,
1000
0000
0000
0100
0000
0000
0020
0030
0000
0000
2000
3000
0200
0300
0020
0030
,
0002
0003
2000
3002
2003
3002
2003
3002
1003
0000
0100
0000
0110
0000
0000
0000
,
0010
0000
0000
1000
0000
0000
0010
0000
0001
0000
1000
0000
0010
0000
0000
0000
,
0100
0000
0000
0001
0010
0100
1000
0000
0001
0000
0000
0000
0100
0000
0010
0000
,
0001
0000
0000
0010
0000
0000
1000
0000
0001
0000
0010
0000
1000
0000
0010
0000
,
0001
0000
1000
0000
0010
0100
0001
0000
1001
0000
0000
0000
1000
0000
0000
0000
,
1100
0000
0000
0100
0000
0000
0110
0000
0000
0000
0010
0000
0011
0000
0001
0000
,
1000
0000
0010
0000
0200
0000
0000
0000
0301
0000
0001
0000
2002
3003
0000
0000
,
0220
0330
0000
0000
2000
0000
0000
0000
3001
0000
0100
0000
0202
0303
0000
0000
,
0020
0000
0000
0000
0030
0000
0000
0000
0200
0000
0000
0000
0320
0000
0000
0000
0230
0000
0000
0000
0320
0000
0000
0000
0230
0000
0000
0000
0320
0000
0000
0000
0230
0300
0000
0000
0000
0000
0000
0000
0000
0000
0000
0000
0000
0000
0000
0000
0001
0000
1000
0000
0000
0000
1000
0000
0000
0000
0000
0000
0100
0000
0010
0000
,
0000
0001
0000
0000
0100
0010
0000
0000
0100
0001
0000
0001
0000
0010
1000
0010
0000
0001
0000
1000
0010
0000
0100
0000
0001
1000
0000
1000
0000
0000
0010
0100
,
0000
0001
0000
0000
0010
0100
0000
0000
0010
0001
0000
0100
0000
0010
1000
0000
0001
0000
0000
0000
0000
0000
0000
0000
2000
0000
3002
0000
2003
0000
3002
0000
,
2003
3002
2003
3002
1003
0000
0000
0100
0000
0000
0010
0000
0002
0000
0000
0000
,
1003
0000
0000
0020
1030
0000
0000
0100
0000
0000
0010
0000
0002
0000
0000
0000
,
0103
0000
0000
0020
0030
2000
3000
0000
0001
0000
0000
0010
0000
0000
0100
0000
,
2000
0000
0000
0000
0000
0000
0000
0000
0000
0000
0000
0000
0000
0000
0000
0000
3001
0000
0000
0000
0000
0000
0000
0000
0000
0000
0000
0000
0200
0300
0200
0300
0001
0000
0000
0000
0000
0000
0000
0000
0000
0000
0000
0000
0010
0000
0000
0000
0000
0000
0000
0000
0000
0000
0000
0000
0100
0000
0000
0000
0000
0000
0000
0000
,
2000
0000
0000
0000
3010
0000
0000
0210
0301
0000
0000
0012
1003
0000
0000
2010
,
3000
0000
0000
0000
0001
0000
0000
0101
0000
0000
0100
0000
0220
0330
0020
0000
,
2030
0000
0000
0000
0000
0000
3000
0100
0020
0000
0000
0000
0000
0000
0030
0001
2000
0000
0000
0000
0000
0000
3000
0000
0002
0000
2003
0000
3002
0000
2003
0000
,
3001
0000
0000
0010
0000
0000
0100
0000
2000
0000
0000
0000
3001
0000
0000
0100
,
0000
0020
1030
0000
0100
0000
0010
0000
,
0001
0000
0000
0100
0000
0000
0010
0000
0000
1000
0000
0000
0100
0000
0010
0000
,
0001
0000
0000
0010
0000
0010
0100
0000
2000
0000
0000
0000
3001
0000
0000
0100
,
0000
0000
0010
0000
0000
0000
0001
0000
0000
0010
0000
0000
0100
0000
0000
1000
0000
0000
0100
0000
0001
0000
1000
0000
0000
0000
0000
0000
0100
0000
0000
0000
,
0100
0000
0010
0000
0000
0000
0002
0000
0000
0000
0000
0000
0000
0000
1003
0000
0000
0000
0000
0000
0010
0000
0000
0000
0100
0000
0000
0000
0001
0000
0000
0010
,
0000
0000
1000
0000
0000
0010
0000
0000
0001
0000
0001
0000
1000
0000
0000
0000
0000
0000
0010
0000
0000
0000
0010
0000
0100
0000
0000
0000
0002
0000
0000
0000
,
0000
0000
0000
0000
1003
0000
0000
0000
0000
0000
0100
0000
0000
0000
0010
0000
0000
0000
1000
0000
0000
0010
0000
0000
0100
0000
0000
0001
0000
0000
0100
0000
,
1000
0001
0000
0000
0100
0000
0100
0010
0000
2000
0000
0000
0000
3001
0000
0000
,
0010
0000
0000
0000
0000
0000
0100
0000
0000
0000
0000
0000
2200
0000
0000
0000
3300
0000
0000
0000
2200
0000
0000
0000
3300
0000
0000
0000
2200
0000
0000
0000
3300
0000
0000
0000
0000
0000
0000
2002
0000
0000
3003
0000
0000
0000
0000
0000
,
2000
3002
2003
3002
0003
0001
0000
0001
0000
0010
0100
0000
2000
0000
0000
0000
,
3001
0000
0000
0010
0000
1000
0000
0020
0030
0000
0002
0003
0000
2000
3000
0000
,
0020
0030
0000
0002
0003
0020
0030
1000
0000
0100
0010
0000
0010
0001
0000
0002
,
0000
0000
0000
1003
0000
0000
0010
0000
0001
0000
0020
0030
0000
2000
3000
0000
,
0002
0003
0000
0020
0030
0000
2000
3000
0020
0030
0002
0003
0000
2000
3000
0000
,
0020
0030
2000
0000
0000
0000
3001
0000
0000
0200
0000
0000
0000
2300
3000
0000
,
0200
0000
0000
0300
0000
0000
0000
0000
0000
0002
0000
0000
0003
0000
0000
0000
0000
0000
2000
0000
0000
3000
0000
0000
0000
0000
0000
0200
0000
0000
0300
0000
0000
0002
0000
0000
0003
0000
0000
0200
0000
0000
0300
0000
0000
0000
0000
2000
,
0000
0000
3000
0000
0000
0000
0000
0020
0000
0000
0030
0000
0000
0000
0000
0200
0000
0000
0000
0000
0000
0000
0000
0000
0000
0000
0000
0302
0000
0000
2003
0000
0000
3200
0000
0000
0320
0000
0000
0030
0000
0000
0002
0000
0000
0003
0000
0000
,
2002
3003
0000
0220
0330
0000
2002
3003
0000
0220
0330
0000
2000
3000
0002
0003
,
0020
0030
0000
0000
0000
0000
0000
0000
0000
0000
0000
0000
0000
0000
0000
0000
0000
0000
0000
0000
0000
0000
0000
0000
0000
0000
0000
0000
0000
0000
0000
0000
0000
0000
0000
0000
0000
0000
0000
0000
0000
0000
0000
0000
0000
0000
0000
0000
0000
0000
0000
0000
0000
0000
0000
0000
0000
0000
0000
0000
0000
0000
0000
0000
0000
0000
0000
0000
0000
0000
0000
0000
0000
0000
0000
0000
0000
0000
0000
0000
0000
0000
0000
0000
0000
0000
0000
0000
0000
0000
0000
0000
0000
0000
0000
0000
;

//--------------- dance-single - Peter ----------------
#NOTEDATA:;
#STEPSTYPE:dance-single;
#DESCRIPTION:Peter;
#DIFFICULTY:Challenge;
#METER:17;
#RADARVALUES:0,0,0,0,0;
#NOTES:
0000
0000
0000
0000
,
0000
0000
0000
0000
,
0000
0000
0000
0000
,
0000
0000
0000
0000
,
1001
0000
0000
0000
,
0110
0000
0000
0000
,
1001
0000
0110
0000
,
1100
0000
0000
0110
0000
0000
0011
0000
0000
1001
0000
0000
1000
0001
1000
0001
,
2000
0000
0000
3200
0000
0000
0302
0000
0000
0203
0000
0000
2300
0000
0000
3000
0000
0000
0002
0000
0000
0003
0000
0000
0200
0000
0000
0000
0320
0000
0000
0000
2030
0000
3200
0000
0320
0000
0000
0032
0000
0000
2003
0000
0000
3000
0000
0000
,
0010
0100
0010
1000
0100
1000
0010
1000
,
0001
0000
0000
0010
0100
0010
0100
0000
0010
0001
1000
0000
0010
0000
0100
0000
,
0001
0010
0100
0010
1000
0010
0100
0010
,
0001
1000
0010
0100
0002
0000
0000
0000
,
1003
1000
1000
0100
0010
0001
0010
0100
,
0001
0000
0100
0000
1000
0000
0000
0010
0100
0010
0100
0000
0001
1000
0100
0000
,
0010
0001
1000
0010
0001
0010
0100
0010
,
1000
0000
0000
0000
0010
0000
0000
0000
1000
0000
0000
0000
0001
0000
0000
0000
1001
0000
0000
0000
0000
0000
0000
0000
2000
3002
2003
0000
3002
0000
2003
0000
,
3020
0230
0320
0230
0301
0000
0010
0000
0011
0000
0001
0000
0100
0000
0010
0000
,
1010
0000
1000
0000
0100
0000
0000
0010
0001
0010
0100
0000
1000
0010
0100
0000
,
1000
0100
0001
0100
0101
0001
1000
0100
,
0110
0010
0001
1000
1001
0001
2000
0000
,
0000
0000
3001
0001
0001
0100
0101
0001
,
0010
0000
0100
0000
1100
0000
1000
0000
0001
0000
0000
0100
0010
1000
0010
0000
,
0100
0001
0010
0000
1000
0000
0010
0000
0001
0000
0100
0000
0101
0000
0001
0000
,
0100
0000
0010
0000
0110
0000
0100
0000
2200
3300
0000
0220
0330
0000
0202
0303
,
0002
0000
0023
0000
0230
0000
2300
0000
0000
0000
0000
0000
3001
0000
0000
0010
0000
0000
0100
0000
0000
0010
0000
0000
,
0001
0000
1000
0010
0000
0000
0001
0000
0000
0000
0010
0000
0100
0000
0001
0000
,
0010
0000
0000
0100
1000
0100
0010
0001
1000
0000
0010
0000
0100
0000
0010
0000
,
1000
0000
0001
0010
0000
0000
0100
0000
0000
0000
0001
0000
1000
0000
0010
0000
,
0001
0000
1000
0000
0010
0000
0010
1000
0001
0000
0100
0000
0010
0000
0100
0000
,
0001
0000
1000
0100
0000
0000
0001
0000
0000
0000
0100
0000
0010
0000
0001
0000
,
0100
0000
0000
0010
1000
0010
0100
0001
1000
0000
0100
0000
1000
0000
0001
0000
,
0100
0000
0010
0100
0000
0000
2000
3000
0000
0000
0200
0300
0020
0030
0002
0003
,
2000
3000
0200
0320
0230
0302
2003
3020
1030
0000
0100
0000
1000
0000
0001
0000
,
0100
0000
0010
0100
0000
0000
1000
0000
0001
0000
0000
0000
0010
0000
1000
0000
,
0001
0000
0000
0010
0100
1000
0100
0010
0001
0000
0100
0000
0001
0000
1000
0000
,
0100
0001
1000
0010
0000
0100
1000
0001
,
0100
0000
0010
0000
0100
0001
1000
0100
0010
0000
0001
0000
1000
0000
0010
0000
,
0110
0000
0000
0101
0000
0000
1001
0000
0000
0000
1000
0000
0100
0000
0010
0000
,
1001
0000
0001
1000
0002
0000
0000
0000
1003
0000
1000
0000
2200
3300
0000
0000
,
0202
0303
0000
0000
0020
0000
0000
0000
1030
0000
0100
0000
2200
3300
0000
0000
,
0020
0000
0000
0000
0030
0000
0000
0000
0200
0000
0000
0000
0320
0000
0000
0000
0230
0000
0000
0000
0320
0000
0000
0000
0230
0000
0000
0000
0320
0000
0000
0000
0032
0003
0000
0000
0000
0000
0000
0000
0000
0000
0000
0000
0000
0000
0000
0000
1000
0000
0010
0000
0000
0000
0010
0000
0000
0000
1000
0000
0001
0000
0010
0000
,
0000
0100
0000
0001
0100
1000
0000
0000
0001
0100
0000
0100
0000
0001
0010
0100
0000
1000
0000
0010
0001
0010
1000
0000
0001
0010
0000
0010
0000
0001
1000
0010
,
0000
0100
0000
1000
0100
0001
0000
0000
1000
0100
0000
0100
0000
1000
0010
0100
0001
0000
0000
0000
0000
0000
0000
0000
2000
0000
3002
0000
2003
0000
3002
0000
,
2003
3002
2003
3002
1003
0000
0100
0010
0000
0001
1000
0000
0020
0000
0000
0000
,
0031
0000
0010
0200
0301
0000
0010
0100
0000
1000
0010
0000
0200
0000
0000
0000
,
1300
0000
0100
0002
0003
0002
0003
0000
1000
0000
0010
0100
0000
0001
0010
0000
,
0200
0000
0000
0000
0000
0000
0000
0000
0000
0000
0000
0000
0000
0000
0000
0000
0301
0000
0000
0000
0000
0000
0000
0000
0100
0000
0000
0000
2000
3000
2000
3000
0001
0000
0000
0000
0000
0000
0000
0000
0100
0000
0000
0000
0010
0000
0000
0000
0000
0000
0000
0000
1000
0000
0000
0000
0001
0000
0000
0000
0000
0000
0000
0000
,
0020
0000
0000
0000
1030
0000
0010
0002
1003
0000
0100
0020
0031
0000
0000
0220
,
0330
0000
1000
0000
1010
0000
0010
0100
0000
0001
1000
0000
0020
0030
2000
0000
,
3002
0000
0000
0000
0000
0000
0013
1000
0002
0000
0000
0000
0000
0000
0103
1000
0002
0000
0000
0000
0000
0000
1003
0000
0002
0000
2003
0000
3002
0000
2003
0000
,
3001
0000
0010
0100
0000
1000
0010
0000
0200
0000
0000
0000
1300
0000
0100
0001
,
1000
0100
0010
0002
1003
0000
0010
0000
0000
0100
0000
0000
0001
0000
0010
0000
,
0100
0000
0100
1000
0000
1000
0010
0000
0010
0100
0000
0100
0001
0000
1000
0001
,
1000
0000
0010
0001
0000
0010
0100
0000
0002
0000
0000
0000
0013
0000
0100
1000
,
0000
0000
0001
0000
0000
0000
1000
0000
1000
0010
0000
0010
0100
0000
0100
0001
0000
0001
0010
0100
1000
0000
0001
0000
0000
0000
0100
0000
1000
0000
0000
0000
,
0100
0000
0010
0000
0000
0000
2000
0000
0000
0000
0000
0000
0000
0000
3100
0000
0000
0000
0010
0000
0001
0000
0000
0000
1000
0000
0000
0000
0001
0000
0010
0100
,
0000
1000
0001
0000
0100
0010
0000
1000
0001
0000
0001
0000
1000
0000
0000
0000
0100
0000
0001
0000
0000
0000
0100
0000
0010
0000
0000
0000
0002
0000
0000
0000
,
0000
0000
0000
0000
0103
0000
0000
0000
0010
0000
1000
0000
0000
0000
0001
0000
0000
0000
1000
0000
1000
0100
0000
0100
0010
0000
0010
0001
0000
0001
0100
0010
,
1000
0001
0000
0010
1000
0000
0010
0100
0000
2000
0000
0000
0000
3010
0000
0100
,
0001
0000
0000
0000
0000
0000
1000
0000
0000
0000
0000
0000
2020
0000
0000
0000
3030
0000
0000
0000
0022
0000
0000
0000
0033
0000
0000
0000
2200
0000
0000
0000
3300
0000
0000
0000
0000
0000
0000
0202
0000
0000
0303
0000
0000
0000
0000
0000
,
2000
3002
2003
3002
0003
0001
0000
0001
0100
1000
0001
0000
0020
0000
0000
0000
,
0130
0000
1000
0100
0000
0001
0000
2000
3000
2000
3200
0300
0200
0302
0003
0002
,
0203
0300
0200
2300
3000
0002
0003
1000
0000
0010
0001
0000
1000
0100
0000
0020
,
0000
0000
0000
0031
0000
0010
0100
0010
1000
0000
0002
0003
0002
0023
0030
0020
,
2030
3000
2000
3020
0030
0020
0032
0003
2000
3000
2002
3003
0000
0220
0330
0000
,
2002
3003
0002
0000
0000
0000
0013
0000
0100
2000
0000
0000
0000
3002
0003
0002
,
0203
0000
0000
0300
0000
0000
0200
0000
0000
2300
0000
0000
3000
0000
0000
2000
0000
0000
3002
0000
0000
0003
0000
0000
0000
0000
0000
0020
0000
0000
0030
0000
0000
2000
0000
0000
3000
0000
0000
2002
0000
0000
3003
0000
0000
0000
0000
2020
,
0000
0000
3030
0000
0000
0000
0000
0202
0000
0000
0303
0000
0000
0000
0000
0002
0000
0000
0000
0000
0000
0000
0000
0000
0000
0000
0000
0023
0000
0000
0230
0000
0000
2300
0000
0000
3002
0000
0203
0000
0320
0000
2030
0000
0000
3000
0000
0000
,
2200
3300
0000
0202
0303
0000
0022
0033
0000
2020
3030
0000
0220
0330
2002
3003
,
0020
0030
0000
0000
0000
0000
0000
0000
0000
0000
0000
0000
0000
0000
0000
0000
0000
0000
0000
0000
0000
0000
0000
0000
0000
0000
0000
0000
0000
0000
0000
0000
0000
0000
0000
0000
0000
0000
0000
0000
0000
0000
0000
0000
0000
0000
0000
0000
0000
0000
0000
0000
0000
0000
0000
0000
0000
0000
0000
0000
0000
0000
0000
0000
0000
0000
0000
0000
0000
0000
0000
0000
0000
0000
0000
0000
0000
0000
0000
0000
0000
0000
0000
0000
0000
0000
0000
0000
0000
0000
0000
0000
0000
0000
0000
0000
;

//--------------- dance-single - No Guide+ ----------------
#NOTEDATA:;
#STEPSTYPE:dance-single;
#DESCRIPTION:No Guide+;
#DIFFICULTY:Edit;
#METER:18;
#RADARVALUES:0,0,0,0,0;
#NOTES:
0000
0000
0000
0000
,
0000
0000
0000
0000
,
0000
0000
0000
0000
,
0000
0000
0000
0000
,
1000
0100
1000
0100
1000
0100
1000
0100
1000
0100
0000
0000
1000
0000
0000
0000
,
0001
0100
0001
0100
0001
0100
0001
0100
0001
0000
0000
0000
0100
0000
0000
0001
,
1000
0100
1000
0001
0100
0001
0010
0100
1000
0010
1000
0001
0010
0001
0100
0010
,
1000
0000
0100
0000
0010
0000
0001
0000
0100
0000
0010
0000
1000
0000
0100
0000
0010
0000
0001
0000
0100
0000
0010
0000
1000
0000
0100
0000
0010
0000
0001
0000
0100
0000
0010
0000
1000
0000
0000
0001
0000
0000
1000
0000
0000
0001
0000
0000
,
1000
0000
0000
0100
0000
0000
0001
0000
0000
0100
0000
0000
1000
0000
0000
0000
0000
0000
0001
0000
0000
0000
0000
0000
0100
0000
0000
0000
0010
0000
0000
0000
1000
0000
0100
0000
0010
0000
0000
0001
0000
0000
1000
0000
0000
0000
0000
0000
,
0010
0100
0010
1000
0100
1000
0010
1000
,
0001
0000
0000
0010
0100
0010
0100
0000
0010
0001
1000
0000
0010
0000
0100
0000
,
0001
0010
0100
0010
1000
0010
0100
0010
,
0001
1000
0010
0100
0001
0000
0010
0100
,
1000
1000
1000
0100
0010
0001
0010
0100
,
0001
0000
0100
0000
1000
0000
0000
0010
0100
0010
0100
0000
0001
1000
0100
0000
,
0010
0001
1000
0010
0001
0010
0100
0010
,
1000
0000
0000
0000
0010
0000
0000
0000
1000
0000
0000
0000
0001
0000
0000
0000
1001
0000
0000
0000
0000
0000
0000
0000
1000
0010
0100
0000
0001
0000
1000
0000
,
0100
1000
0010
0100
0001
0000
0010
0000
0011
0000
0001
0000
0100
0000
0010
0000
,
1010
0000
1000
0000
0100
0000
0000
0010
0001
0010
0100
0000
1000
0010
0100
0000
,
1000
0100
0001
0100
0101
0001
1000
0100
,
0110
0010
0001
1000
1001
0001
1000
0000
,
0100
0010
0001
0001
0001
0100
0101
0001
,
0010
0000
0100
0000
1100
0000
1000
0000
0001
0000
0000
0100
0010
1000
0010
0000
,
0100
0001
0010
0000
1000
0000
0010
0000
0001
0000
0100
0000
0101
0000
0001
0000
,
0100
0000
0010
0000
0110
0000
0100
0000
1100
0000
0000
0110
0000
0000
0101
0000
,
0001
0000
0010
0000
0100
0000
1000
0000
0000
0000
0000
0000
0001
0000
0000
0010
0000
0000
0100
0000
0000
0010
0000
0000
,
0001
0000
1000
0010
0000
0000
0001
0000
0000
0000
0010
0000
0100
0000
0001
0000
,
0010
0000
0000
0100
1000
0100
0010
0001
1000
0000
0010
0000
0100
0000
0010
0000
,
1000
0000
0001
0010
0000
0000
0100
0000
0000
0000
0001
0000
1000
0000
0010
0000
,
0001
0000
1000
0000
0010
0000
0010
1000
0001
0000
0100
0000
0010
0000
0100
0000
,
0001
0000
1000
0100
0000
0000
0001
0000
0000
0000
0100
0000
0010
0000
0001
0000
,
0100
0000
0000
0010
1000
0010
0100
0001
1000
0000
0100
0000
1000
0000
0001
0000
,
0100
0000
0010
0100
0000
0000
1000
0000
0000
0000
0100
0000
0010
0000
0001
0000
,
1000
0000
0100
0010
0100
0001
0010
0100
1000
0000
0100
0000
1000
0000
0001
0000
,
0100
0000
0010
0100
0000
0000
1000
0000
0001
0000
0000
0000
0010
0000
1000
0000
,
0001
0000
0000
0010
0100
1000
0100
0010
0001
0000
0100
0000
0001
0000
1000
0000
,
0100
0001
1000
0010
0000
0100
1000
0001
,
0100
0000
0010
0000
0100
0001
1000
0100
0010
0000
0001
0000
1000
0000
0010
0000
,
0110
0000
0000
0101
0000
0000
1001
0000
0000
0000
1000
0000
0100
0000
0010
0000
,
1001
0000
0000
0000
1000
0000
0001
0000
1000
0001
1000
0001
1000
0001
1000
0001
1000
0000
0000
0000
1000
0000
0000
0000
1100
0000
0000
0000
0000
0000
0000
0000
,
0101
0000
0000
0000
0000
0000
0000
0000
0010
0001
0010
0001
0010
0001
0010
0001
1000
0000
0000
0000
0100
0000
0000
0000
1100
0000
0000
0000
0000
0000
0000
0000
,
0010
0000
0000
0000
0100
0000
0010
0000
0100
0000
0010
0000
0100
0000
0010
0000
0001
0000
0000
0000
0000
0000
0000
0000
1000
0010
0000
0010
0000
1000
0001
0010
,
0000
0100
0000
0001
0100
1000
0000
0000
0001
0100
0000
0100
0000
0001
0010
0100
0000
1000
0000
0010
0001
0010
1000
0000
0001
0010
0000
0010
0000
0001
1000
0010
,
0000
0100
0000
1000
0100
0001
0000
0000
1000
0100
0000
0100
0000
1000
0010
0100
0001
0000
0000
0000
0000
0000
0000
0000
1000
0000
0001
0000
1000
0000
0001
0000
,
1000
0001
1000
0001
1000
0000
0100
0010
0000
0001
1000
0000
0010
0000
0000
0000
,
0001
0000
0010
0100
0001
0000
0010
0100
0000
1000
0010
0000
0100
0000
0000
0000
,
1000
0000
0100
0001
0000
0001
0000
0000
1000
0000
0010
0100
0000
0001
0010
0000
,
0100
0000
0000
0000
0000
0000
0000
0000
0001
0000
0000
0000
0100
0000
1000
1000
0001
0000
0000
0000
0100
0000
0010
0000
0000
0000
1000
0000
0001
0000
0000
0000
,
0010
0000
0000
0000
1000
0000
0010
0001
1000
0000
0100
0010
0001
0000
0000
0110
,
0000
0000
0000
0000
0000
0000
0000
0000
1000
0000
0000
0000
0000
0000
0000
0000
1010
0000
0000
0000
0000
0000
0000
0000
0010
0000
0000
0000
0100
0000
0000
0000
0001
0000
0000
0000
1000
0000
0000
0000
0010
0000
0000
0000
0000
0000
0000
0000
1000
0000
0000
0000
0000
0000
0000
0000
0001
1000
0001
1000
0001
1000
0001
1000
,
0001
0000
0000
0000
0000
0000
0010
1000
0001
0000
0000
0000
0000
0000
0100
1000
0001
0000
0000
0000
0000
0000
1000
0000
0001
0000
1000
0000
0001
0000
1000
0000
,
0001
0000
0010
0100
0000
1000
0010
0000
0100
0000
0000
0000
1000
0000
0100
0001
,
1000
0100
0010
0001
1000
0010
0100
0000
0001
0010
0000
0001
0010
0000
0100
0001
,
0100
0000
0100
1000
0000
1000
0010
0000
0010
0001
0000
0001
0010
0000
1000
0001
,
1000
0000
0010
0001
0000
0010
0100
0000
0001
0000
0000
0000
0010
0000
0100
1000
,
0001
0000
0100
0000
0010
0000
1000
0000
1000
0010
0000
0010
0100
0000
0100
0001
0000
0001
0010
0100
1000
0000
0001
0000
0000
0000
0100
0000
1000
0000
0000
0000
,
0100
0000
0010
0000
0000
0000
1000
0000
0000
0000
0000
0000
0000
0000
0100
0000
0000
0000
0010
0000
0001
0000
1000
0000
0010
0000
1000
0000
0001
0000
0010
0100
,
0000
1000
0001
0000
0100
0010
0000
1000
0001
0000
0001
0000
1000
0000
0000
0000
0100
0000
0001
0000
0000
0000
0100
0000
0010
0000
0000
0000
0001
0000
0000
0000
,
0000
0000
0000
0000
0100
0000
0000
0000
0010
0000
1000
0000
0001
0000
0010
0000
0001
0000
1000
0000
1000
0100
0000
0100
0010
0000
0010
0001
0000
0001
0100
0010
,
1000
0001
0000
0010
1000
0000
0010
0100
0000
1000
0000
0000
0000
0010
0000
0100
,
0001
0000
0000
0000
0000
0000
1000
0000
0000
0000
0000
0000
1010
0000
0000
0000
0000
0000
0000
0000
0011
0000
0000
0000
0000
0000
0000
0000
1100
0000
0000
0000
0000
0000
0000
0000
0000
0000
0000
0101
0000
0000
0000
0000
0000
0000
0000
0000
,
1000
0001
1000
0001
0000
0001
0000
0001
0100
1000
0100
0000
0010
0000
0000
0000
,
1000
0000
0100
0001
0100
1000
0000
1000
0000
1000
0010
0000
0010
0001
0000
0001
,
0100
0000
0100
1000
0000
0001
0000
1000
0000
0100
0001
0000
0100
0010
0000
0001
,
0000
0000
0000
0100
0000
1000
0100
0010
1000
0000
0001
0000
0001
0010
0000
0010
,
1000
0000
1000
0100
0000
0100
0001
0000
1000
0000
1001
0000
0000
0110
0000
0000
,
1001
0000
0000
0000
1000
0000
0000
0000
0000
0000
0000
0000
0100
0000
0010
0000
0000
0000
0001
1000
0001
1000
0001
1000
0001
1000
0001
0000
0000
0000
0001
0000
,
0100
0000
0000
0000
0000
0000
0100
0000
0000
1000
0000
0000
0000
0000
0000
1000
0000
0000
0010
0000
0000
0000
0000
0000
0000
0000
0000
0010
0000
0000
0000
0000
0000
0001
0000
0000
0000
0000
0000
1001
0000
0000
0000
0000
0000
0000
0000
1010
,
0000
0000
0000
0000
0000
0000
0000
0101
0000
0000
0000
0000
0000
0000
0000
0001
0000
0000
0000
0000
0000
0000
0000
0000
0000
0000
0000
0010
0000
0000
0100
0000
0000
1000
0000
0000
0001
0000
0100
0000
0010
0000
1000
0000
0000
0000
0000
0000
,
1100
0000
0000
0101
0000
0000
0011
0000
0000
1010
0000
0000
0110
0000
1001
0000
,
0020
0030
0000
0000
0000
0000
0000
0000
0000
0000
0000
0000
0000
0000
0000
0000
0000
0000
0000
0000
0000
0000
0000
0000
0000
0000
0000
0000
0000
0000
0000
0000
0000
0000
0000
0000
0000
0000
0000
0000
0000
0000
0000
0000
0000
0000
0000
0000
0000
0000
0000
0000
0000
0000
0000
0000
0000
0000
0000
0000
0000
0000
0000
0000
0000
0000
0000
0000
0000
0000
0000
0000
0000
0000
0000
0000
0000
0000
0000
0000
0000
0000
0000
0000
0000
0000
0000
0000
0000
0000
0000
0000
0000
0000
0000
0000
;

//--------------- dance-double - Peter ----------------
#NOTEDATA:;
#STEPSTYPE:dance-double;
#DESCRIPTION:Peter;
#DIFFICULTY:Challenge;
#METER:17;
#RADARVALUES:0,0,0,0,0;
#NOTES:
00000000
00000000
00000000
00000000
,
00000000
00000000
00000000
00000000
,
00000000
00000000
00000000
00000000
,
00000000
00000000
00000000
00000000
,
10010000
00000000
00000000
00000000
,
00011000
00000000
00000000
00000000
,
00001001
00000000
00011000
00000000
,
01010000
00000000
00000000
11000000
00000000
00000000
10100000
00000000
00000000
00110000
00000000
00000000
00010000
00001000
00010000
00001000
,
00200000
00000000
00000000
00320000
00000000
00000000
02030000
00000000
00000000
03002000
00000000
00000000
00023000
00000000
00000000
00030000
00000000
00000000
00000200
00000000
00000000
00000300
00000000
00000000
00002000
00000000
00000000
00003020
00000000
00000000
00000032
00000000
00000023
00000000
00000230
00000000
00000302
00000000
00000000
00000023
00000000
00000000
00002030
00000000
00000000
00003000
00000000
00000000
,
00010000
00100000
00010000
00001000
00000100
00001000
00010000
01000000
,
10000000
00000000
00000000
00100000
00010000
00000000
00100000
00000000
01000000
00001000
00010000
00000000
00000100
00000000
00001000
00000001
,
00000100
00001000
00010000
00100000
00010000
00001000
00000010
00001000
,
00010000
01000000
10000000
00100000
00020000
00000000
00000000
00000000
,
00031000
00001000
00001000
00000100
00001000
00010000
01000000
00010000
,
00001000
00000000
00000010
00000000
00000001
00000000
00000000
00000100
00001000
00000000
00000100
00000000
00000010
00010000
00001000
00000000
,
00100000
00000000
00010000
10000000
00100000
00000000
00010000
00000000
00001000
00000000
00000010
00000000
00001000
00000000
00010000
00000000
,
01000000
00000000
00000000
00000000
00010000
00000000
00000000
00000000
00001000
00000000
00000000
00000000
00100000
00000000
00000000
00000000
00010000
00000000
00000000
00000000
10000000
00000000
00000000
00000000
00200000
02300000
03002000
00000000
00023000
00000000
00030200
00000000
,
00002300
00003020
00000230
00002300
00013000
00000000
00100000
00000000
10000000
00000000
01000000
00000000
00010000
00000000
00001000
00000000
,
00000010
00000000
00000001
00000000
00000100
00000000
00001000
00010000
00000000
00001000
00000010
00000000
00001000
00010000
01000000
00000000
,
10000000
00000000
00100000
00010000
00100000
00000000
01000000
00000000
00001000
00000000
00010000
00000000
01000000
00000000
00010000
00000000
,
00001000
00000100
00000001
00000010
00001000
00010000
00002000
00000000
,
00000000
00000000
00013000
00010000
00010000
01000000
10000000
00100000
,
00010000
00000000
00001000
00000000
00000100
00000000
00000001
00000000
00000010
00000000
00001000
00010000
00000000
00001000
00000100
00000000
,
00001000
00010000
00100000
00000000
10000000
00000000
01000000
00010000
01000000
00000000
10000000
00000000
00100000
00000000
00010000
00000000
,
00001000
00000000
00100000
00000000
00010000
00000000
00001000
00000000
00000200
00000300
00000000
00000002
00000003
00000000
00000200
00000300
,
00020000
00000000
00032000
00000000
02003000
00000000
03200000
00000000
00000000
00000000
00000000
00000000
10300000
00000000
00000000
01000000
00000000
00000000
00010000
00000000
00000000
00001000
00000000
00000000
,
00100000
00000000
00001000
00000010
00000000
00000000
00000001
00000000
00000000
00000000
00000100
00000000
00001000
00000000
00010000
00000000
,
01000000
00000000
00010000
00000000
00001000
00010000
00000010
00001000
00000001
00000000
00000100
00000000
00001000
00000000
00010000
00000000
,
00000010
00000000
00010000
00100000
00000000
00000000
10000000
00000000
00000000
00000000
01000000
00000000
00100000
00000000
00010000
00000000
,
00001000
00000000
00000100
00000000
00000010
00000000
00000001
00001000
00000001
00000000
00000010
00000000
00001000
00000000
00010000
00000000
,
00000100
00000000
00010000
01000000
00000000
00000000
10000000
00000000
00000000
00000000
00100000
00000000
00010000
00000000
00001000
00000000
,
00000010
00000000
00001000
00000000
00010000
00001000
01000000
00010000
10000000
00000000
00100000
00000000
00010000
00000000
00001000
00000000
,
01000000
00000000
00001000
00000100
00000000
00000000
00000001
00000000
00000000
00000000
00000010
00000000
00000100
00000000
00001000
00000000
,
00010000
00000000
00100000
01000000
10000000
01000000
00100000
00010000
10000000
00000000
00100000
00000000
00010000
00000000
00001000
00000000
,
00000100
00000000
00010000
01000000
00000000
00000000
00100000
00000000
00010000
00000000
00001000
00000000
00000100
00000000
00000010
00000000
,
00010000
00000000
00001000
00000000
00100000
00010000
01000000
00100000
10000000
00000000
01000000
00000000
00010000
00000000
00001000
00000000
,
00000010
00000000
00010000
00100000
00000000
00000000
01000000
00000000
00010000
00000000
00001000
00000000
00000010
00000000
00000100
00000000
,
00010000
00000000
00001000
00000000
00000100
00000000
00000001
00001000
00001001
00000000
00000000
00000000
00000100
00000000
00001000
00000000
,
00001010
00000000
00000000
00011000
00000000
00000000
01010000
00000000
00000000
00000000
00100000
00000000
00001000
00000000
00100000
00000000
,
10000000
00000000
01000000
00000000
00020000
00000000
00000000
00000000
00031000
00000000
00000100
00000000
00000202
00000303
00000000
00000000
,
00000022
00000033
00000000
00000000
00000020
00000000
00000000
00000000
00001030
00000000
00010000
00000000
00022000
00033000
00000000
00000000
,
00022000
00000000
00000000
00000000
00033000
00000000
00000000
00000000
00020000
00000000
00000000
00000000
00032000
00000000
00000000
00000000
00023000
00000000
00000000
00000000
00032000
00000000
00000000
00000000
00023000
00000000
00000000
00000000
00032000
00000000
00000000
00000000
00023000
00030000
00000000
00000000
00000000
00000000
00000000
00000000
00000000
00000000
00000000
00000000
00000000
00000000
00000000
00000000
00001000
00000000
00000100
00000000
00000000
00000000
00000010
00000000
00000000
00000000
00001000
00000000
00010000
00000000
01000000
00000000
,
00000000
00100000
00000000
00010000
00100000
10000000
00000000
00000000
01000000
00010000
00000000
00001000
00000000
00000010
00001000
00010000
00000000
00000100
00000000
00000001
00000100
00000010
00000100
00001000
00010000
00100000
00000000
00001000
00000000
00010000
00100000
01000000
,
00000000
00010000
00000000
00001000
00000010
00000100
00000000
00000000
00001000
00010000
00000000
01000000
00000000
00010000
00001000
00010000
00011000
00000000
00000000
00000000
00000000
00000000
00000000
00000000
00020000
00000000
00032000
00000000
00023000
00000000
00032000
00000000
,
00023000
00032000
00023000
00032000
10003000
00000000
00100000
00010000
00000000
00001000
00000100
00000000
00020000
00000000
00000000
00000000
,
01030000
00000000
00001000
00020000
00030001
00000000
00000010
00001000
00000000
00010000
01000000
00000000
00002000
00000000
00000000
00000000
,
00003100
00000000
00010000
00002000
00003000
00002000
00003000
00000010
00000001
00000000
00000100
00001000
00000000
00010000
00100000
00000000
,
00002000
00000000
00000000
00000000
00000000
00000000
00000000
00000000
00000000
00000000
00000000
00000000
00000000
00000000
00000000
00000000
00003010
00000000
00000000
00000000
00000000
00000000
00000000
00000000
00010000
00000000
00000000
00000000
00002000
00003000
00002000
00003000
10000000
00000000
00000000
00000000
00000000
00000000
00000000
00000000
01000000
00000000
00000000
00000000
00010000
00000000
00000000
00000000
00000000
00000000
00000000
00000000
00001000
00000000
00000000
00000000
00000010
00000000
00000000
00000000
00000000
00000000
00000000
00000000
,
00002000
00000000
00000000
00000000
00000000
00000000
00000000
00000000
00103000
00000000
00000000
00000000
00010000
00000000
02000000
03000000
10010000
00000000
00000000
00000000
00000000
00000000
02020000
03030000
00101000
00000000
00000000
00000000
00000000
00000000
00022000
00000000
,
00033000
00000000
00000010
00000000
00000101
00000000
00000000
00001001
00000000
00000000
00001100
00000000
00021000
00030000
00002000
00000000
,
00023000
00000000
00000000
00000000
00000000
00000000
00130000
01000000
00020000
00000000
00000000
00000000
00000000
00000000
00130000
00000000
00020000
00000000
00000000
00000000
00000000
00000000
00031000
00000000
00000200
00000000
00000320
00000000
00000230
00000000
00000320
00000000
,
00000031
00000000
00000100
00001000
00010000
00100000
10000000
00000000
02000000
00000000
00000000
00000000
03001000
00000000
01000000
10000000
,
00010000
00000000
01000000
00000000
00002000
00000000
00000000
00003000
00010000
00000000
00000000
00000000
00000010
00000000
00000000
00000000
00000000
00000000
00000001
00000000
00000000
00000000
00000000
00000000
00000010
00000000
00000000
00000000
00001000
00000000
00000000
00000000
,
00010000
00000000
00000000
01000000
00000000
00000000
10000000
00000000
00000000
01000000
00000000
00000000
00001000
00000000
00010000
01000000
,
10000000
00000000
00100000
00010000
00000000
00001000
00000100
00000000
00020000
00000000
00000000
00000000
01030000
00000000
00001000
00010000
,
00000010
00000000
00000100
00000000
00000000
00000000
00000001
00000000
00000010
00000100
00000000
00001000
00010000
00000000
00100000
01000000
00000000
10000000
00100000
00010000
00001000
00000000
10000000
00000000
00000000
00000000
01000000
00000000
00010000
00000000
00000000
00000000
,
00001000
00000000
00000010
00000000
00000000
00000000
00020000
00000000
00000000
00000000
00000000
00000000
00000000
00000000
00130000
00000000
00000000
00000000
00001000
00000000
00010000
00000000
00000010
00000000
00001000
00000000
00000000
00000000
00000001
00000000
00000010
00001000
,
00000000
00010000
00100000
00000000
10000000
01000000
00000000
00010000
00001000
00000000
00000100
00000000
00000001
00000000
00000000
00000000
00000010
00000000
00001000
00000000
00000000
00000000
00010000
00000000
01000000
00000000
00000000
00000000
00002000
00000000
00000000
00000000
,
00000000
00000000
00000000
00000000
00003100
00000000
00000000
00000000
00010000
00000000
00001000
00000000
01000000
00000000
00100000
00000000
00000000
00000000
10000000
00000000
01000000
00100000
00000000
00010000
00001000
00000000
00000100
00000010
00000000
00000001
00000100
00001000
,
00010000
00000001
00000000
00000100
00001000
00000000
00010000
00100000
00000000
00002000
00000000
00000000
00000000
00003010
00000000
00010000
,
00001000
00000000
00000000
01000000
00000000
00000000
00010000
00000000
00000000
00000000
00000000
00000000
20020000
00000000
00000000
00000000
30030000
00000000
00000000
00000000
00022000
00000000
00000000
00000000
00033000
00000000
00000000
00000000
00002002
00000000
00000000
00000000
00003003
00000000
00000000
00000000
00000000
00000000
00000000
00022000
00000000
00000000
00033000
00000000
00000000
00000000
00000000
00000000
,
00020000
00032000
00023000
00032000
00003000
00001000
00000000
00001000
00010000
00001000
00000100
00000000
00020000
00000000
00000000
00000000
,
01030000
00000000
00000100
00001000
00000001
00000000
00000000
00000020
00000030
00002000
00203000
00300000
02000000
03020000
00030000
00000200
,
00000320
00000030
00020000
00230000
00300000
00002000
00003000
00010000
00000000
00000001
00000010
00000000
00001000
00010000
00000000
00200000
,
00000000
00000000
00000000
00301000
00000000
00000010
00100000
00010000
10000000
00000000
02000000
03000000
00020000
00030200
00000300
00000020
,
00002030
00003000
00200000
02300000
03000000
00020000
00030200
00000300
00002000
00003000
00020000
00030000
00000000
00200000
00300000
00000000
,
02000000
03000000
00002000
00000000
00000000
00000000
00003100
00000000
00000010
00000002
00000000
00000000
00000000
00000203
00000300
00020000
,
02030000
00000000
00000000
03000000
00000000
00000000
00200000
00000000
00000000
00302000
00000000
00000000
00003000
00000000
00000000
00000020
00000000
00000000
00000230
00000000
00000000
00000300
00000000
00000000
00000000
00000000
00000000
00020000
00000000
00000000
00030000
00000000
00000000
02000000
00000000
00000000
03000000
00000000
00000000
02200000
00000000
00000000
03300000
00000000
00000000
00000000
00000000
00022000
,
00000000
00000000
00033000
00000000
00000000
00000000
00000000
00000220
00000000
00000000
00000330
00000000
00000000
00000000
00000000
00000002
00000000
00000000
00000000
00000000
00000000
00000000
00000000
00000000
00000000
00000000
00000000
00000203
00000000
00000000
00000320
00000000
00000000
00020030
00000000
00000000
00032000
00000000
00203000
00000000
00320000
00000000
20030000
00000000
00000000
30000000
00000000
00000000
,
20020000
30030000
00000000
00022000
00033000
00000000
00002002
00003003
00000000
00022000
00033000
00000000
00020000
00030000
20000000
30000000
,
00200000
00300000
00000000
00000000
00000000
00000000
00000000
00000000
00000000
00000000
00000000
00000000
00000000
00000000
00000000
00000000
00000000
00000000
00000000
00000000
00000000
00000000
00000000
00000000
00000000
00000000
00000000
00000000
00000000
00000000
00000000
00000000
00000000
00000000
00000000
00000000
00000000
00000000
00000000
00000000
00000000
00000000
00000000
00000000
00000000
00000000
00000000
00000000
00000000
00000000
00000000
00000000
00000000
00000000
00000000
00000000
00000000
00000000
00000000
00000000
00000000
00000000
00000000
00000000
00000000
00000000
00000000
00000000
00000000
00000000
00000000
00000000
00000000
00000000
00000000
00000000
00000000
00000000
00000000
00000000
00000000
00000000
00000000
00000000
00000000
00000000
00000000
00000000
00000000
00000000
00000000
00000000
00000000
00000000
00000000
00000000
;
