#TITLE:Diamonds;
#SUBTITLE:;
#ARTIST:Long Run Music, Inc.;
#TITLETRANSLIT:;
#SUBTITLETRANSLIT:;
#ARTISTTRANSLIT:;
#GENRE:;
#CREDIT:;
#MUSIC:Diamonds.ogg;
#BANNER:Diamonds.png;
#BACKGROUND:Diamonds-bg.png;
#CDTITLE:;
#SAMPLESTART:67.026;
#SAMPLELENGTH:10.793;
#SELECTABLE:YES;
#OFFSET:0.000;
#BPMS:0.000=111.000
,123.000=111.180
;
#STOPS:;
#DISPLAYBPM:111.000;
#BGCHANGES:0.000=Diamonds.avi=1.000=1=0=0=StretchNoLoop==CrossFade==;
#FGCHANGES:;

//--------------- dance-single - ----------------
#NOTES:
     dance-single:
     :
     Beginner:
     1:
     0,0,0,0,0:
0000
0000
0000
0000
,
0000
0000
0000
0000
,
0000
0000
0000
0000
,
1000
0000
1000
0000
,
0001
0000
0001
0000
,
1000
0000
1000
0000
,
0100
0000
0100
0000
,
1000
0000
0001
0000
,
0100
0000
0001
0000
,
1000
0000
0100
0000
,
1001
0000
0000
0000
,
0001
0000
0001
0000
,
1000
0000
1000
0000
,
0001
0000
0001
0000
,
0010
0000
0010
0000
,
0001
0000
1000
0000
,
0010
0000
1000
0000
,
0001
0000
0010
0000
,
0110
0000
0000
0000
,
1000
1000
0000
0000
,
0001
0001
0000
0000
,
1000
1000
0000
0000
,
0001
0001
0000
0000
,
0100
0100
0000
0000
,
0010
0010
0000
0000
,
0100
0100
0000
0000
,
0010
0010
0000
0000
,
0001
0000
1000
0000
,
0001
0000
1000
0000
,
0010
0000
0000
0000
,
0110
0000
0000
0000
,
1000
0000
1000
0000
,
0100
0000
0100
0000
,
0010
0000
0010
0000
,
0001
0000
0001
0000
,
0100
0000
0100
0000
,
0010
0000
0010
0000
,
1000
0000
0000
0000
,
1001
0000
0000
0000
,
1000
0000
1000
0000
,
0010
0000
0010
0000
,
0100
0000
0100
0000
,
0001
0000
0001
0000
,
0010
0000
0010
0000
,
0100
0000
0100
0000
,
1000
0000
0000
0000
,
1001
0000
0000
0000
,
0110
0000
0000
0000
;

//--------------- dance-single - ----------------
#NOTES:
     dance-single:
     :
     Easy:
     4:
     0,0,0,0,0:
0000
0000
0000
0000
,
0000
0000
0000
0000
,
0000
0000
0000
0000
,
0001
0100
0001
0000
,
1000
0100
1000
0000
,
0001
0001
1000
1000
,
0001
0010
0100
0000
,
1000
0000
1000
0000
,
0001
0000
0001
0000
,
0100
0010
0100
0010
,
1000
0000
0000
0000
,
0001
0010
0001
0000
,
1000
0010
1000
0000
,
0001
0001
1000
1000
,
0001
0100
0010
0000
,
1000
0000
1000
0000
,
0100
0000
0100
0000
,
0010
0001
0010
0001
,
1000
0000
1001
0000
,
0002
0000
0203
0000
,
0310
1000
0001
0000
,
2000
0000
3200
0000
,
0310
0001
1000
0000
,
0002
0000
2003
0000
,
3010
1000
0001
0000
,
2000
0000
3002
0000
,
0013
0001
1000
0000
,
1000
1000
0100
0100
,
0010
0010
0001
0001
,
1000
0000
0000
0000
,
2002
0000
0000
3003
,
1000
0100
0010
0001
,
1000
0001
0100
0010
,
1000
1000
0001
0001
,
1000
0001
1001
0000
,
0100
0100
0010
0010
,
0100
1000
0001
1000
,
0002
0000
0203
0000
,
0301
0010
0100
1000
,
0001
0100
0010
1000
,
0001
1000
0100
0010
,
0001
0001
1000
1000
,
0001
1000
1001
0000
,
0100
0100
0010
0010
,
0100
0001
1000
0001
,
2000
0000
3200
0000
,
1300
0010
0100
0001
,
2002
0000
0000
0000
,
3003
0000
0000
0000
;

//--------------- dance-single - ----------------
#NOTES:
     dance-single:
     :
     Medium:
     8:
     0,0,0,0,0:
0000
0000
0000
0000
,
0000
0000
0000
0000
,
0000
0000
0000
0000
,
1000
0000
1000
0000
0100
1000
0001
0000
,
0001
0000
0001
0000
0100
0001
1000
0000
,
1000
0000
0100
0000
0010
0001
0010
0000
,
0100
0000
1000
0000
0001
0100
0001
0000
,
1000
1000
0010
0000
0010
0010
0100
0000
,
0002
0023
0230
2300
,
3001
0100
0010
0000
0010
0100
0001
0000
,
2000
0000
3200
0000
0310
0001
1000
0001
,
0001
0000
0001
0000
0010
0001
1000
0000
,
1000
0000
1000
0000
0010
1000
0001
0000
,
0001
0000
0010
0000
0100
1000
0100
0000
,
0010
0000
0001
0000
1000
0010
1000
0000
,
0001
0001
1000
0000
0010
0010
0100
0000
,
0020
2030
3002
0023
,
0130
1000
0001
0000
0001
1000
0100
0000
,
2000
0000
3001
0000
1000
1000
0010
0010
,
0100
0000
0000
0000
0000
0110
0000
0000
0000
0000
0000
0000
0001
0000
0000
0000
0000
1001
0000
0000
0000
0000
0000
0000
,
1000
0100
0010
0002
0000
0100
0103
0000
,
0100
0000
0000
0000
0000
0110
0000
0000
0000
0000
0000
0000
1000
0000
0000
0000
0000
1001
0000
0000
0000
0000
0000
0000
,
0001
0100
0010
2000
0000
0001
3001
0000
,
1000
0000
0000
0000
0000
1100
0000
0000
0000
0000
0000
0000
0100
0000
0000
0100
0000
0000
1000
0000
0000
1000
0000
0000
,
0010
0100
0001
2000
0000
0100
3001
0000
,
0001
0000
0000
0000
0000
0011
0000
0000
0000
0000
0000
0000
1000
0000
0000
0000
0000
1010
0000
0000
0000
0000
0000
0000
,
1000
0010
0100
0002
0000
0100
1003
0000
,
2100
0000
0000
3001
0102
0000
0000
0013
,
0210
0000
0000
1300
1000
0100
0010
0001
,
1000
1000
0001
0001
0100
0010
1000
0100
,
0220
0000
0000
0330
,
1000
0100
0001
0000
1000
0100
0001
0000
,
0001
0100
1000
0000
0001
0100
1000
0100
,
0100
0010
0010
1000
0001
0010
0100
1000
,
0002
0000
0023
0000
0230
0000
1300
0001
,
0001
1000
1000
0100
1000
0001
0100
0010
,
1000
1010
0011
0110
,
1001
0000
1000
0100
0010
0001
1000
0001
,
1000
0000
0000
0000
,
0001
0010
1000
0000
0001
0010
1000
0000
,
1000
0010
0001
0000
1000
0010
0001
0010
,
0010
0100
0100
0001
1000
0010
0100
0001
,
2000
0000
3200
0000
0320
0000
0031
1000
,
1000
0001
0001
0100
0001
1000
0010
0100
,
0001
0011
1010
0110
,
1001
0000
1000
0100
0020
0000
0031
0100
,
0010
0100
0001
0000
0010
0100
0110
0000
,
2002
0000
0000
0000
,
3003
0000
0000
0000
;

//--------------- dance-single - ----------------
#NOTES:
     dance-single:
     :
     Hard:
     12:
     0,0,0,0,0:
0000
0000
0000
0000
,
0000
0000
0000
0000
,
0000
0000
0000
0000
,
0001
0000
0000
1000
0000
0000
0100
0000
0000
1000
0000
0020
0000
0000
0000
0100
0000
0000
0100
0000
0000
0130
0000
0000
,
1000
0000
0000
0001
0000
0000
0100
0000
0000
0001
0000
0020
0000
0000
0000
0100
0000
0000
0100
0000
0000
0100
0000
0000
,
0031
0000
0000
0100
0000
0000
0001
0000
0000
1000
0000
0020
0000
0000
0000
1030
0000
0000
0001
0000
0000
0010
0000
0000
,
1000
0000
0000
0010
0000
0000
0001
0000
0000
1000
0000
0010
0000
0000
0010
0100
0000
0000
0001
0000
0000
0010
0000
0000
,
0001
0001
0100
0010
1000
1000
0100
0010
,
0002
0010
2003
0010
3002
0100
2003
0100
,
3001
0000
0000
0010
0000
0000
0100
0000
0000
1000
0000
0001
0100
0000
0100
0010
0000
0000
1000
0000
0000
0001
0000
0000
,
0020
0000
0000
0100
0000
0000
0000
0000
0000
0130
0000
0000
1000
0000
0001
0010
0000
0000
0001
0000
1000
0100
0000
0000
,
1000
0000
0000
1000
0000
0000
0010
0000
0000
1000
0000
0002
0000
0000
0000
0010
0000
0000
0010
0000
0000
0013
0000
0000
,
0001
0000
0000
0001
0000
0000
0100
0000
0000
0001
0000
2000
0000
0000
0000
0100
0000
0000
0100
0000
0000
3100
0000
0000
,
1000
0000
0000
0001
0000
0000
0010
0000
0000
0001
0000
0200
0000
0000
0000
0301
0000
0000
1000
0000
0000
0010
0000
0000
,
0001
0000
0000
0010
0000
0000
1000
0000
0000
0001
0000
0010
0000
0000
0010
0100
0000
0000
1000
0000
0000
0001
0000
0000
,
0100
0100
0010
1000
0100
0100
0010
0001
,
2000
0100
3002
0100
2003
0010
3002
0010
,
1003
0100
0010
0001
0200
0000
1300
0100
,
0001
0000
0000
0010
0000
0000
0100
0000
0000
1000
0000
0010
0100
0000
0100
0001
0000
0000
1000
0000
0000
0100
0000
0000
,
1000
0000
0000
0001
0000
0200
0000
0000
0000
0000
0000
0000
0301
0000
0000
1000
0000
0200
0000
0000
0000
0310
0000
0000
,
0002
0203
2300
3020
0000
0100
0130
0001
,
1000
0000
0000
0001
0000
0020
0000
0000
0000
0000
0000
0000
0031
0000
0000
1000
0000
0020
0000
0000
0000
1030
0000
0000
,
0200
0000
0000
0302
0000
0000
0023
0000
0000
2030
0000
0000
0000
0000
3001
0100
0000
0000
0100
0000
0000
0001
0000
1000
,
0100
0000
0000
0010
0000
0002
0000
0000
0000
1003
0000
0000
0001
0000
0000
0100
0000
0000
1000
0000
0000
0100
0000
0000
,
0001
0000
0000
0010
0000
0000
1000
0000
0000
0010
0000
0000
0001
0000
0000
1000
0000
0000
0100
0000
0000
1000
0000
0001
,
0100
0000
0000
0010
0000
2000
0000
0000
0000
3001
0000
0000
1000
0000
0000
0100
0000
0020
0000
0000
0000
0031
0000
0000
,
1000
0000
0010
0000
0001
0000
0010
0000
1000
0000
0100
0000
0000
0100
0010
0001
,
1000
0000
0000
0001
0000
0100
0000
0000
0001
0100
0000
0010
1000
0000
0000
0001
0000
0010
0000
0000
0001
0010
0000
0100
,
1000
0000
0000
0001
0000
0100
0000
0000
0000
0001
0000
0000
1000
0000
0000
0001
0000
0000
0010
0000
0000
0001
0000
0000
,
0100
0000
0000
0101
0000
0000
0000
0000
0000
1010
0000
0000
0000
0000
0000
0011
0000
0000
1000
0001
1000
0001
1000
0001
,
2000
0000
0000
0000
0000
0000
0000
0000
0000
0000
0000
0000
0000
0000
0000
0000
0000
0000
3100
0000
0000
1000
0000
0001
,
0100
0000
0000
0100
0000
0000
0010
0000
0000
1000
0000
1000
0100
0000
0000
0100
0000
0000
0010
0000
0000
0001
0000
0000
,
1000
0000
0000
1000
0000
0000
0010
0000
0000
0100
0000
0001
0000
0000
0001
1000
0000
0000
0100
0000
0000
0020
0000
0000
,
0001
0230
1000
0310
0001
1000
0010
0001
,
0010
0000
0000
1000
0000
0000
0100
0000
0000
0010
0000
0001
0000
0000
0001
1000
0000
0000
0010
0000
0000
0200
0000
0000
,
0001
0320
1000
0130
0001
0010
1000
0010
,
0002
1000
2003
0010
3020
0100
0230
0302
,
1003
0000
0000
0000
0000
0000
0001
0000
0000
1000
0000
0000
0100
0000
0100
0010
0000
0000
0100
0000
0000
1000
0000
0000
,
0002
0000
0000
0000
0000
0000
2003
0000
0000
0000
0000
0000
3001
0000
0001
0100
0000
0000
0010
0000
0010
1000
0000
1000
,
0100
0000
0000
0100
0000
0000
0010
0000
0000
0001
0000
0001
0100
0000
0000
0100
0000
0000
0010
0000
0000
1000
0000
0000
,
0001
0000
0000
0001
0000
0000
1000
0000
0000
0010
0000
0100
0000
0000
0100
0001
0000
0000
0010
0000
0000
0200
0000
0000
,
1000
0320
0001
0130
1000
0001
0100
1000
,
0100
0000
0000
0001
0000
0000
0010
0000
0000
0100
0000
1000
0000
0000
1000
0001
0000
0000
0100
0000
0000
0020
0000
0000
,
1000
0230
0001
0310
1000
0100
0001
0100
,
1000
0001
0002
0100
0203
0010
0320
1000
,
1030
0000
1000
0010
0002
0000
0013
1000
,
0001
0000
0000
0010
0000
0000
1000
0000
0000
0010
0000
0000
0001
0000
1000
0100
0000
0000
1000
0000
0001
0100
0000
0010
,
1000
0000
0000
0000
;
