#VERSION:0.83;
#TITLE:Destruction Dance;
#SUBTITLE:;
#ARTIST:From Wrecking Crew;
#TITLETRANSLIT:;
#SUBTITLETRANSLIT:;
#ARTISTTRANSLIT:;
#GENRE:;
#CREDIT:;
#MUSIC:Destruction Dance.ogg;
#BANNER:Destruction Dance-bn.png;
#BACKGROUND:Destruction Dance-bg.png;
#CDTITLE:;
#SAMPLESTART:36.910;
#SAMPLELENGTH:20.000;
#SELECTABLE:YES;
#OFFSET:1.844;
#BPMS:0.000=130.000;
#STOPS:;
#SPEEDS:0.000=1.000=0.000=0;
#SCROLLS:0.000=1.000;
#TICKCOUNTS:0.000=4;
#TIMESIGNATURES:0.000=4=4;
#LABELS:0.000=Song Start;
#COMBOS:0.000=1;
#ORIGIN:;
#PREVIEWVID:;
#JACKET:Destruction Dance-jacket.png;
#CDIMAGE:;
#DISCIMAGE:;
#BGCHANGES:3.500=Destruction Dance.avi=1.000=1=0=1===CrossFade==,
236.000=Destruction Dance-bg.png=1.000=1=0=1===CrossFade==,
99999.000=-nosongbg-=1.000=0=0=0=StretchNoLoop====
;
#FGCHANGES:;

//--------------- dance-single - ----------------
#NOTEDATA:;
#STEPSTYPE:dance-single;
#DESCRIPTION:;
#DIFFICULTY:Beginner;
#METER:2;
#RADARVALUES:0.115464,0.187495,0,0.018796,0,86,86,0,2,0,0,0,0,0,0.115464,0.187495,0,0.018796,0,86,86,0,2,0,0,0,0,0;
#CHARTNAME:;
#CHARTSTYLE:;
#CREDIT:ZSL;
#NOTES:
0000
0000
0000
0000
,
0000
0000
0000
0000
,
0000
0000
0000
0000
,
0000
0000
0000
0000
,
0000
0000
0000
0000
,
0001
0000
0000
0000
,
0010
0000
0000
0000
,
0100
0000
0000
0000
,
1000
0000
0000
0000
,
0001
0000
0000
0000
,
0100
0000
0000
0000
,
0010
0000
0000
0000
,
1000
0000
0000
0000
,
0001
0000
1000
0000
,
0100
0000
0000
0000
,
0010
0000
0001
0000
,
1000
0000
0000
0000
,
0010
0000
1000
0000
,
0100
0000
0000
0000
,
0010
0000
0001
0000
,
1000
1000
1000
0000
,
0010
0000
0100
0000
,
0001
0000
0000
0000
,
1000
0000
0100
0000
,
0010
0000
0000
0000
,
0100
0000
1000
0000
,
0010
0000
0000
0000
,
0100
0000
0001
0000
,
0100
0100
0100
0000
,
0010
0000
1000
0000
,
0001
0000
0010
0000
,
0100
0000
1000
0000
,
0001
0000
0100
0000
,
0010
0000
1000
0000
,
0010
0000
0100
0000
,
0001
0000
1000
0000
,
0200
0000
0000
0300
,
0010
0000
0001
0000
,
1000
0000
0010
0000
,
0100
0000
0001
0000
,
1000
0000
0100
0000
,
0010
0000
0001
0000
,
0010
0000
0100
0000
,
1000
0000
0001
0000
,
0200
0000
0000
0300
,
0010
0000
0000
0000
,
1000
0000
0000
0000
,
0001
0000
0010
0000
,
0100
0000
0000
0000
,
1000
0000
0010
0000
,
0100
0000
0000
0000
,
0001
0000
1000
0000
,
0100
0100
0100
0000
,
0010
0010
0010
0000
,
0001
0000
0000
0000
,
1000
0000
0000
0000
,
0010
0000
0000
0000
,
0100
0000
0000
0000
;

//--------------- dance-single - ----------------
#NOTEDATA:;
#STEPSTYPE:dance-single;
#DESCRIPTION:;
#DIFFICULTY:Easy;
#METER:5;
#RADARVALUES:0.200048,0.241065,0.009398,0.018796,0,149,148,1,2,0,0,0,0,0,0.200048,0.241065,0.009398,0.018796,0,149,148,1,2,0,0,0,0,0;
#CHARTNAME:;
#CHARTSTYLE:;
#CREDIT:ZSL;
#NOTES:
0000
0000
0000
0000
,
0000
0000
0000
0000
,
0000
0000
0000
0000
,
0000
0000
0000
0000
,
0000
0000
0000
0000
,
0001
0000
0100
0000
,
0010
1000
0010
0000
,
1000
0000
0100
0000
,
0010
0001
0010
0000
,
0001
0000
1000
0000
,
0010
0100
0010
0000
,
1000
0001
0010
0100
,
1000
0000
0001
1000
,
0010
0100
0001
1000
,
0100
0000
0100
0000
,
0010
0001
1000
0010
,
0100
0000
0100
0000
,
0001
1000
0100
0010
,
0001
0000
0001
0000
,
1000
0010
0100
0001
,
1000
1000
1000
0000
,
0100
0010
0001
1000
,
0010
0000
0010
0000
,
0100
0010
1000
0001
,
0010
0000
0010
0000
,
0001
0100
0010
1000
,
0100
0000
0100
0000
,
1000
0010
0100
0001
,
0010
0010
0010
0000
,
0001
1000
0010
0000
,
1000
0001
0010
0000
,
0001
0100
0010
0000
,
1000
0100
0010
0000
,
0100
1000
0001
0000
,
0100
0001
1000
0000
,
0010
0000
0010
0010
,
1000
1000
0001
0001
,
0010
0100
1000
0000
,
0010
0100
0001
0000
,
1000
0100
0010
0000
,
0001
0100
0010
0000
,
0100
0001
0010
0000
,
0100
1000
0010
0000
,
1000
0000
0100
0100
,
0010
0010
0002
0203
,
0310
0000
0000
0000
,
1000
0000
0000
0001
,
0001
0010
0001
0100
,
0010
0000
0010
0000
,
1000
0010
1000
0100
,
0010
0000
0010
0000
,
0100
1000
0001
0100
,
0010
0010
0010
0010
,
1000
1000
1000
1000
,
0001
0000
0010
0000
,
0100
0000
1000
0000
,
0001
0000
0100
0000
,
0110
0000
0000
0000
;

//--------------- dance-single - ----------------
#NOTEDATA:;
#STEPSTYPE:dance-single;
#DESCRIPTION:;
#DIFFICULTY:Medium;
#METER:11;
#RADARVALUES:0.441717,0.455344,0.018796,0.093982,0.42292,329,327,2,10,0,0,0,0,0,0.441717,0.455344,0.018796,0.093982,0.42292,329,327,2,10,0,0,0,0,0;
#CHARTNAME:;
#CHARTSTYLE:;
#CREDIT:ZSL;
#NOTES:
0000
0000
0000
0000
,
0000
0000
0000
0000
,
0000
0000
0000
0000
,
0000
0000
0000
0000
,
0000
0000
0000
0000
,
0001
0010
0000
0001
0000
1000
0000
0010
,
0100
0000
0000
0100
0000
0000
0000
0000
0010
0000
0000
0010
0000
0000
0000
0000
,
1000
0010
0000
1000
0000
0001
0000
0010
,
0100
0000
0000
0100
0000
0000
0000
0000
0010
0000
0000
0010
0000
0000
0000
0000
,
0001
0100
0000
0010
0000
1000
0000
0100
,
1000
0000
0000
1000
0000
0000
0000
0000
0001
0000
0000
0001
0000
0000
0000
0000
,
1000
0010
1000
0010
0100
0001
0100
0001
,
1000
0100
0010
0001
1000
0001
0100
0000
,
0010
0000
1000
0000
0001
0000
0000
0010
0000
0010
0000
0000
0100
0000
0000
0000
,
0010
0000
0001
0000
1000
0000
0000
0010
0000
0010
0000
0000
0100
0000
0000
0000
,
0001
0000
0010
0000
0100
0000
0000
1000
0000
1000
0000
0000
0001
0000
0000
0000
,
1000
0000
0010
0000
0100
0000
0000
0001
0000
0001
0000
0000
1000
0000
0000
0000
,
0100
0000
0010
0000
0001
0000
0000
0100
0000
0100
0000
0000
0010
0000
0000
0000
,
0100
0000
0010
0000
1000
0000
0000
0100
0000
0100
0000
0000
0010
0000
0000
0000
,
0100
0000
0010
0000
0001
0000
0000
1000
0000
1000
0000
0000
0010
0000
0000
0000
,
0100
0000
0001
0000
0100
0000
0000
0010
0000
1000
0000
0010
0000
0000
0000
0000
,
1000
0000
0100
0000
0010
0000
0000
0100
0000
0100
0000
1000
0001
0000
0000
0000
,
0001
0000
0100
0000
0010
0000
0000
0100
0000
0100
0000
0001
1000
0000
0000
0000
,
0100
0000
0010
0000
0001
0000
0000
1000
0000
1000
0000
0010
0100
0000
0000
0000
,
0100
0000
0010
0000
1000
0000
0000
0001
0000
0001
0000
0010
0100
0000
0000
0000
,
1000
0000
0100
0000
0010
0001
0000
1000
0000
1000
0000
0010
0100
0000
0000
0000
,
0001
0000
0100
0000
0010
1000
0000
0001
0000
0001
0000
0010
0100
0000
0000
0000
,
0010
0000
0001
0000
0100
0010
0000
0100
0000
0100
0000
0001
0200
0000
0000
0000
,
0310
0000
1000
0000
0001
0000
0010
0001
0000
0010
0000
0100
2000
0000
0000
0000
,
3001
0000
0100
0000
0001
0000
1000
0000
0010
0000
0000
0010
0000
0000
0000
0000
,
1000
0000
0100
0000
0010
0000
0001
0000
0010
0000
0000
0010
0000
0000
0000
0000
,
0100
0000
1000
0000
0001
0000
0100
0000
0001
0000
0000
0001
0000
0000
0000
0000
,
0100
0000
0001
0000
1000
0000
0100
0000
1000
0000
0000
1000
0000
0000
0000
0000
,
0100
0000
0010
0000
0001
0000
0100
0000
0010
0000
0000
0010
0000
0000
0000
0000
,
0100
0000
0010
0000
1000
0000
0100
0000
0010
0000
0000
0010
0000
0000
0000
0000
,
0200
0000
0000
1300
0001
0100
0010
1000
,
0100
1000
0001
0010
0001
0100
0010
0000
,
1000
0000
0001
0000
0010
0000
0100
0000
1000
0000
0001
0100
0000
0000
0000
0000
,
0001
0000
1000
0000
0010
0000
0100
0000
0001
0000
1000
0100
0000
0000
0000
0000
,
0010
0000
0100
0000
1000
0000
0001
0000
0100
0000
0010
1000
0000
0000
0000
0000
,
0010
0000
0100
0000
0001
0000
1000
0000
0100
0000
0010
0001
0000
0000
0000
0000
,
0100
0000
0010
0000
1000
0000
0100
0000
1000
0000
0010
0100
0000
0000
0000
0000
,
0010
0000
0100
0000
0001
0000
0010
0000
0001
0000
0100
0010
0000
0000
0000
0000
,
0200
0000
0000
0301
1000
0100
0010
0001
,
0100
0001
1000
0010
0200
0302
0023
0000
,
0130
0000
0000
0000
,
1000
0000
0000
0100
0000
0000
1000
0000
0000
0000
0000
0000
1001
0000
0000
0000
,
0001
0000
0100
0000
0010
0000
0000
0100
0000
0100
0000
0001
1000
0000
0000
0000
,
1000
0000
0100
0000
0010
0000
0000
0100
0000
0100
0000
1000
0001
0000
0000
0000
,
1000
0000
0010
0000
0100
0001
0000
1000
0000
1000
0000
0100
0010
0000
0000
0000
,
0001
0000
0010
0000
0100
1000
0000
0001
0000
0001
0000
0100
0010
0000
0000
0000
,
0100
0000
0001
0000
0010
0100
0000
0010
0000
0010
0000
0001
0020
0000
0000
0000
,
0130
0000
0010
0000
0001
0000
1000
0020
0000
0100
0000
1030
0000
0000
0000
0000
,
1000
0000
0010
0000
0100
0000
0001
0020
0000
0100
0000
0031
0000
0000
0000
0000
,
0001
0000
1000
0000
0010
0000
0000
0000
0100
0000
0000
0010
0000
0000
0000
0000
,
0100
0000
0001
0000
1000
0000
0000
0000
0100
0000
0000
0010
0000
0000
0000
0000
,
0100
0000
1000
0000
0001
0000
0000
0000
0100
0000
0000
0010
0000
0000
0000
0000
,
1001
0000
0000
0000
;

//--------------- dance-single - ----------------
#NOTEDATA:;
#STEPSTYPE:dance-single;
#DESCRIPTION:;
#DIFFICULTY:Hard;
#METER:14;
#RADARVALUES:0.612228,0.723194,0.187965,0.441717,0.671974,456,436,20,47,0,0,0,0,0,0.612228,0.723194,0.187965,0.441717,0.671974,456,436,20,47,0,0,0,0,0;
#CHARTNAME:;
#CHARTSTYLE:;
#CREDIT:ZSL;
#NOTES:
0000
0000
0000
0000
,
0000
0000
0000
0000
,
0000
0000
0000
0000
,
0000
0000
0000
0000
,
0000
0000
0000
0000
,
0001
0011
0000
0110
0000
1100
0000
1000
,
0001
0010
0000
0001
0000
0000
0000
0000
0100
0010
0000
0100
0000
0000
0010
0000
,
1000
0000
1010
0000
0000
0000
0110
0000
0000
0000
0101
0000
0000
0100
0001
0000
,
1000
0010
0000
1000
0000
0000
0000
0000
0100
0010
0000
0100
0000
0000
0010
0000
,
0100
1100
0000
0011
0000
0101
0000
0100
,
0010
1000
0000
0100
0000
0000
0000
0000
1000
0010
0000
0100
0000
0000
0010
0000
,
1000
0100
0010
0001
1000
0100
0010
0001
,
1000
0001
1000
0001
0100
0010
0100
0010
1000
0001
0010
0100
2000
0000
0000
0000
,
3001
0000
0100
0000
0010
2000
0000
0010
0000
3001
0000
0100
0001
0000
0000
0000
,
1000
0000
0100
0000
0010
0002
0000
0010
0000
1003
0000
0100
1000
0000
0000
0000
,
0100
0000
0010
0000
0100
2000
0000
0001
0000
3010
0000
0100
0001
0000
0000
0000
,
0100
0000
0010
0000
0100
0002
0000
1000
0000
0013
0000
0100
1000
0000
0000
0000
,
0001
0000
1000
0000
0010
2000
0000
0100
0000
3010
0000
0100
0001
0000
0001
0000
,
1000
0000
0001
0000
0010
0002
0000
0100
0000
0013
0000
0100
1000
0000
1000
0000
,
0010
0000
0100
0000
0001
0020
0000
0100
0000
0031
0000
0100
0020
0000
0000
0000
,
1030
0000
0100
0000
0010
0000
0001
1000
0010
0100
0000
0001
2000
0000
0000
0000
,
3001
0000
0010
0000
0200
1000
0000
0310
0002
1000
0000
0013
0100
0000
0000
0000
,
1000
0000
0010
0000
0200
0001
0000
0310
2000
0001
0000
3010
0100
0000
0000
0000
,
0010
0000
1000
0000
0200
0010
0000
1300
0002
0100
0000
1003
0100
0000
0000
0000
,
0010
0000
0001
0000
0200
0010
0000
0301
2000
0100
0000
3001
0100
0000
0000
0000
,
0001
0000
0100
0000
0020
1000
0000
0130
0002
0010
0000
0103
0010
0000
0010
0000
,
1000
0000
0100
0000
0020
0001
0000
0130
2000
0010
0000
3100
0010
0000
0010
0000
,
0100
0000
1000
0000
0020
0100
0000
1030
0002
0010
0000
0103
0020
0000
0000
0000
,
1030
0000
0001
0000
0010
0000
0100
1000
0001
0100
0000
0010
2000
0000
0000
0000
,
3100
0000
0010
0000
0001
0000
0100
0000
0010
0000
1000
0002
0000
0000
0000
0000
,
0103
0000
0001
0000
1000
0000
0100
0000
1000
0000
0010
0200
0000
0000
0000
0000
,
0310
0000
0100
0000
0001
0000
0010
0000
0100
0000
1000
0002
0000
0000
0000
0000
,
0013
0000
0001
0000
1000
0000
0010
0000
1000
0000
0100
0020
0000
0000
0000
0000
,
0130
0000
1000
0000
0001
0000
0100
0000
0010
0000
0100
2000
0000
0000
0000
0000
,
3100
0000
0001
0000
1000
0000
0100
0000
0010
0000
0100
0002
0000
0000
0103
0000
,
2100
0000
0000
0000
0000
0000
3001
0100
0001
0010
0001
1000
0010
1000
0001
0000
,
1000
0100
0010
0001
0100
0010
1000
0001
0010
0100
0010
0100
2000
0000
0000
0000
,
3001
0000
0100
0000
0001
0000
1000
0000
0100
0000
0010
0001
0100
0000
0001
0000
,
1000
0000
0100
0000
1000
0000
0001
0000
0100
0000
0010
1000
0100
0000
0010
0000
,
0011
0000
0010
0000
0001
0000
1000
0000
0010
0000
0100
0001
0010
0000
0001
0000
,
1000
0000
0010
0000
1000
0000
0001
0000
0010
0000
0100
1000
0010
0000
0100
0000
,
0101
0000
0001
0000
1000
0000
0001
0000
0100
0000
0010
0001
0010
0000
0100
0000
,
0110
0000
0010
0000
1000
0000
0100
0000
0010
0000
0100
0001
0100
0000
1000
0000
,
1002
0000
0000
0000
0000
0000
1003
0100
1000
0010
1000
0001
0010
0001
1000
0000
,
0001
0100
0010
1000
0100
0010
0001
1000
0020
0130
0002
0103
0020
0000
0000
0000
,
1030
0000
0000
0000
,
0100
0000
0000
1000
0000
0000
0010
0000
0000
0000
0000
0000
0110
0000
0000
0000
,
0010
0000
0100
0000
0010
2000
0000
0001
0000
3100
0000
0010
0001
0000
0000
0000
,
0010
0000
0100
0000
0010
0002
0000
1000
0000
0103
0000
0010
1000
0000
0000
0000
,
0001
0000
0010
0000
0200
1000
0000
0310
0002
0100
0000
0013
0100
0000
0100
0000
,
1000
0000
0010
0000
0200
0001
0000
0310
2000
0100
0000
3010
0100
0000
0100
0000
,
0010
0000
1000
0000
0200
0010
0000
1300
0002
0100
0000
0013
0200
0000
0300
0000
,
1001
0000
1000
0000
1010
0000
0010
0100
0001
0010
0100
1000
0010
0000
1000
0000
,
1001
0000
0001
0000
0011
0000
0010
0100
1000
0010
0100
0001
0010
0000
0001
0000
,
1000
0000
0010
0000
0100
0000
0010
0000
1000
0000
0000
1000
0000
0000
0100
0000
,
0010
0000
0001
0000
1000
0000
0001
0000
0010
0000
0000
0010
0000
0000
0001
0000
,
0100
0000
0010
0000
1000
0000
0010
0000
0100
0000
0000
0001
0000
0000
0010
0000
,
0110
0000
0000
0000
;
