#VERSION:0.83;
#TITLE:電光石火;
#SUBTITLE:;
#ARTIST:HiTECH NINJA;
#TITLETRANSLIT:Denko Sekka;
#SUBTITLETRANSLIT:;
#ARTISTTRANSLIT:;
#GENRE:;
#CREDIT:;
#MUSIC:Denko Sekka.ogg;
#BANNER:Denko Sekka-bn.png;
#BACKGROUND:;
#CDTITLE:;
#SAMPLESTART:84.981;
#SAMPLELENGTH:11.636;
#SELECTABLE:YES;
#OFFSET:0.474;
#BPMS:0.000=165.000;
#STOPS:;
#SPEEDS:0.000=1.000=0.000=0;
#SCROLLS:0.000=1.000;
#TIMESIGNATURES:0.000=4=4,
136.000=5=4,
141.000=4=4,
145.000=5=4,
150.000=4=4,
154.000=5=4,
159.000=4=4
;
#JACKET:;
#DISCIMAGE:;
#CDIMAGE:;
#BGCHANGES:;
#FGCHANGES:;

//--------------- dance-single - ----------------
#NOTEDATA:;
#STEPSTYPE:dance-single;
#DESCRIPTION:;
#DIFFICULTY:Medium;
#METER:11;
#RADARVALUES:0,0,0,0,0;
#CHARTNAME:;
#CHARTSTYLE:;
#CREDIT:Talkion;
#METERF:11;
#NOTES:
0000
0000
0000
0000
,
0000
0000
0000
0000
,
0000
0000
0000
0000
,
0000
0000
0000
0000
,
0000
0000
0000
0000
,
1000
0000
0100
0000
1000
0000
0000
0000
0001
0000
0000
0001
0000
0000
0000
0000
,
0100
0000
0010
0000
0100
0000
0000
0000
0001
0000
0000
0001
0000
0000
0000
0000
,
1000
0100
1000
0100
0020
0000
0000
0031
,
0200
0000
0000
0300
,
0002
1000
0000
1000
,
0000
1003
0100
0010
,
0200
0000
1300
0001
,
0200
0000
0320
0000
1030
0001
1000
0001
,
0010
0100
0000
0000
1000
0001
0000
0000
,
0100
0010
0000
0000
1000
0000
0001
0000
,
0020
0000
0130
1000
,
0010
0200
0302
0023
,
0031
0001
0001
0001
,
1001
1000
0010
0100
,
0001
0010
0002
0000
0100
0000
1003
0000
,
0001
0010
0100
0010
,
0001
1000
0001
0000
0200
0000
0310
0000
,
1001
1000
0100
0010
,
0001
0100
0002
0000
0010
0000
1003
0000
,
0001
0000
0100
0000
0010
1000
0010
1000
,
0000
0100
1000
1000
,
1001
0001
0100
0010
,
1000
0100
2000
0000
0010
0000
3001
0000
,
1000
0100
0010
0100
,
1000
0001
1000
0000
0020
0000
0130
0001
,
0000
0100
0001
0000
0010
0000
0100
0000
,
1000
1000
0001
0001
,
0100
0010
0100
0010
0000
1000
0000
1000
,
0200
0000
0000
0300
,
1000
0010
0100
0001
,
1000
0100
1000
0000
0010
0000
0100
0000
,
0002
1003
0100
0010
,
0001
0000
1000
0010
1000
0000
0100
0000
,
0010
0002
1003
0001
,
0100
0000
0010
0000
1000
0100
1000
0000
,
0001
0100
0020
1030
,
0001
0000
0010
0000
0100
0000
1000
0001
,
1000
0001
0100
0010
1000
0000
0001
0000
,
0010
0000
0001
0010
0010
0000
0100
0000
,
0010
0001
0001
1000
,
0010
0000
1000
0010
0010
0000
0100
0000
,
0001
0010
0001
1000
,
0100
0000
1000
0100
0100
0000
0010
0000
,
0100
1000
1000
0001
,
0100
0000
0001
0100
0100
0000
0010
0000
,
1000
0100
1000
0001
,
0100
0010
0100
0002
,
0010
2003
0010
3001
,
0010
0100
0010
0002
,
0100
2003
0100
3002
,
0203
0320
2030
3002
,
0023
0230
2300
3020
,
0000
0000
0000
0030
,
0000
0000
0000
1001
,
2000
0100
0000
3002
0100
0000
1003
0000
,
0001
0000
0010
0000
0001
0000
1000
0010
,
0100
0001
0000
1000
0100
0010
0001
0000
,
0001
1000
1000
0010
,
0100
0010
0000
1000
0001
0000
0010
0000
,
0100
0010
0000
0001
0100
0000
0001
0000
,
2000
0000
0000
0000
3100
0000
0000
0100
0000
0000
0010
0000
0001
0000
0000
0000
,
0020
0230
1300
1001
,
0002
0100
0000
2003
0100
0000
3001
0000
,
1000
0000
0010
0000
1000
0000
0001
0010
,
0100
1000
0000
0010
0100
0010
1000
0000
,
1000
0001
0001
0010
,
0100
0010
0000
0001
1000
0000
0010
0000
,
0100
0010
0000
1000
0200
0000
2300
0000
,
0100
0000
0000
0000
3001
0000
0000
0001
0000
0000
0100
0000
0020
0000
0000
0000
,
0000
0000
1030
0010
0100
0000
0001
0000
,
2000
0100
0000
3001
0000
0000
0100
0001
,
0100
0010
0000
0000
2000
0000
3001
0000
,
0010
0100
0000
0100
1000
0000
0001
0010
,
0001
0100
0000
0000
0010
0000
1000
0000
,
0002
0100
0000
1003
0000
0000
0100
1000
,
0100
0010
0000
0000
0001
0000
2000
0000
,
3020
0000
0130
0001
0100
0001
0010
0000
,
0001
0000
0000
0000
1000
0000
0000
1000
0000
0000
0100
0000
0020
0000
0000
0000
,
0000
0000
0130
1000
0010
0200
0000
0000
,
0000
0301
0001
2000
,
3100
0020
0100
0000
0031
0000
2000
0000
,
3010
0200
0010
0000
0301
0000
2000
0000
,
3100
0020
0100
0000
0031
0000
2000
0000
,
3010
0200
0000
0301
0010
0000
0002
0000
,
0100
2003
0100
3002
,
0010
0000
2003
0000
0010
0000
3001
0010
,
0100
0000
1000
0010
0100
0000
0001
0010
,
0200
0000
1300
0100
1000
0010
0000
0000
;

//--------------- dance-single - XO DS- ----------------
#NOTEDATA:;
#STEPSTYPE:dance-single;
#DESCRIPTION:XO DS-;
#DIFFICULTY:Hard;
#METER:15;
#RADARVALUES:0,0,0,0,0;
#CHARTNAME:;
#CHARTSTYLE:;
#CREDIT:Talkion;
#METERF:15;
#NOTES:
0000
0000
0000
0000
,
0000
0000
0000
0000
,
0000
0000
0000
0000
,
0000
0000
0000
0000
,
0000
0000
0000
0000
,
0001
0000
0001
0000
0001
0000
0000
0000
0200
0000
0000
0310
0000
0000
0000
0000
,
1000
0000
1000
0000
1000
0000
0000
0000
0002
0000
0000
0013
0000
0000
0001
1000
,
0001
0000
0100
0000
0001
0000
0100
0000
0010
0000
1000
0000
0100
0000
0010
0100
,
2000
0000
0000
3000
,
1001
0001
0100
0020
0000
1030
0100
0020
,
0000
0031
0100
0010
2000
0000
3002
0000
,
0023
0000
0000
0031
1000
0010
0100
0000
,
0001
0000
1000
0000
0100
0010
0100
1000
0010
0000
0100
0000
0010
0000
0100
0000
,
0001
1000
0200
0010
1300
0001
0200
0010
,
0301
1000
0200
0010
2300
0000
3002
0000
,
0203
0000
0000
0301
1000
0100
1000
0010
,
0200
0000
0301
0100
0001
0010
0200
0000
,
1300
0100
0000
0000
0001
0100
0000
0000
1100
0000
0000
0000
0101
0000
0000
0000
,
1001
0000
0001
0010
0100
2000
0001
3010
,
1000
0010
0100
0000
1000
0000
0100
0000
0002
0000
1000
0000
0013
0100
1000
0000
,
0001
0000
0000
0100
0010
0000
1000
0000
0010
0100
0000
0000
0001
0000
1000
0000
,
0001
0010
0100
0000
0001
0000
0100
0000
2000
0000
0010
0000
3010
0000
0000
0000
,
1001
0000
1000
0010
0100
0002
1000
0013
,
0001
0010
0100
0000
0001
0000
0100
0000
2000
0000
0001
0000
3010
0100
0001
0000
,
1000
0000
0100
0010
0100
0000
1000
0000
0001
0010
0001
0000
0100
0000
1000
0000
,
0000
0100
0001
0000
0011
0000
1010
0000
,
1001
0000
1000
0100
0010
0002
1000
0103
,
0001
0100
0010
0000
0001
0000
0010
0000
2000
0000
0001
0000
3100
0010
0001
0000
,
1000
0000
0000
0010
0100
0000
0001
0000
0100
0010
0000
0000
1000
0000
0001
0000
,
1000
0100
0010
0000
1000
0000
0010
0000
0002
0000
0100
0000
0103
0000
0010
0000
,
1000
0100
0010
0100
1000
0010
0100
0010
,
1000
0000
0001
0010
0100
0000
1000
0000
0100
0010
0001
0000
0100
0000
0000
0000
,
0001
0000
0100
0010
0100
0000
0001
0000
0010
0100
0010
0000
1000
0000
0002
0000
,
0100
0000
0000
0000
0103
1000
0100
1000
,
0010
0000
0010
0000
0010
0100
0001
1000
,
0100
1000
0010
0000
0010
0000
0100
0010
,
1000
0001
1000
0001
0010
0000
0000
0000
0010
0000
0000
0000
0010
0000
0100
0000
,
1000
0001
0100
0001
0010
0000
0010
0000
,
0100
0000
0010
0000
0001
1000
0001
1000
0010
0000
0100
0000
0010
0000
1000
0000
,
0100
1000
0001
0010
0100
1000
1010
0000
,
0011
0000
0000
0000
1010
0000
0000
0000
1000
0001
1000
0001
0010
0000
0100
0000
,
0010
0000
0001
0000
0100
0000
0010
0000
0100
0000
0001
0000
0010
0100
1000
0000
,
0100
0010
0001
0000
0100
0010
0100
0010
1000
0000
0000
0000
2001
0000
0000
0100
,
0000
0000
3001
0000
1000
0000
0010
0000
0010
0000
0100
0000
0002
0000
0000
0100
,
0000
0000
1003
0000
1100
0000
0000
0000
0101
0000
0001
0000
2000
0000
0000
0010
,
0000
3001
1000
0100
0100
0010
0011
0000
,
1010
0000
0000
0000
0012
0000
0000
0000
0103
0000
0010
0000
2000
0000
0000
0010
,
0000
0000
3001
0000
1000
0000
0100
0000
0100
0000
0010
0000
0002
0000
0000
0010
,
0000
0000
1003
0000
1010
0000
0000
0000
0011
0000
0001
0000
2000
0000
0000
0100
,
0000
3001
1000
0010
0010
0100
0101
0000
,
1100
0000
0011
0000
1010
1000
0001
0010
,
0100
0000
1000
0000
0001
0000
0100
0000
0010
0000
1000
0000
0002
0010
0000
0000
,
2003
0010
0000
0000
3002
0100
0000
0000
2003
0100
0000
0000
3001
0000
0100
0000
,
0010
0000
1000
0000
0001
0000
0010
0000
0100
0000
1000
0000
0002
0100
0000
0000
,
2003
0100
0000
0000
3002
0010
0000
0000
2003
0010
0000
0000
3001
0000
0001
0000
,
0010
0000
0010
0000
0100
0000
0100
0000
1000
0000
1000
0000
0001
0100
0001
0000
,
1000
0100
1000
0000
0001
0010
0001
0000
1000
0010
1000
0000
0200
0000
0000
0000
,
0000
0000
0000
1300
,
0020
0000
0000
0000
0230
0000
0000
0000
0302
0000
0000
0000
1003
0000
0100
0010
,
0001
0000
1000
0000
0001
0100
0020
0000
0001
0000
0000
0000
0130
0000
0001
1000
,
0001
0010
0100
0010
0001
0000
0101
0100
,
0010
1000
1100
0100
0010
0001
0101
0000
,
1100
0000
0000
0000
0101
0000
0100
0010
1000
0000
1000
0000
0001
0000
0010
0000
,
0001
0000
0100
0010
0100
0000
1000
0000
0100
0000
0001
0000
1000
0000
0010
0000
,
1000
0000
0100
0010
0100
0000
0001
0000
2000
0000
0000
0000
3020
0000
0100
0000
,
0031
1000
0001
1000
0010
0000
0000
0010
0000
0000
0010
0000
0100
0000
0001
0000
,
1000
0000
0001
0000
0010
0100
0010
0100
2000
0000
0000
0000
3001
0000
0100
0010
,
1000
0000
0001
0000
1000
0100
0020
0000
1000
0000
0000
0000
0130
0000
1000
0001
,
1000
0010
0100
0010
1000
0000
1100
0100
,
0010
0001
0101
0100
0010
1000
1100
0000
,
0101
0000
0000
0000
1100
0000
0100
0010
0001
0000
0001
0000
1000
0000
0010
0000
,
0100
0000
0010
0000
1000
0000
0100
0000
0010
0000
0100
0000
1000
0000
0001
0100
,
0010
0000
1000
0010
0100
0000
1000
0000
0002
0000
0000
0000
0023
0000
0100
0000
,
1030
0001
1000
0001
0010
0000
0000
0010
0000
0000
0010
0000
0100
0000
1000
0000
,
0001
0000
1000
0000
0010
0100
0010
0100
0002
0000
0000
0000
0023
0000
0000
0000
,
0031
0000
0100
0000
0010
0000
2000
0000
0001
0000
3100
0000
1000
0100
0010
0000
,
1000
0000
0010
0000
0002
0000
1000
0000
0103
0000
0010
0100
0001
0000
0000
0001
,
1000
0000
0100
0000
0000
0100
0010
0000
0001
0000
0010
0100
2000
0000
0010
0000
,
3001
0101
0000
0100
0010
0010
1001
0000
,
1000
0000
0100
0000
0010
0000
0002
0000
1000
0000
0103
0000
0001
0100
0010
0000
,
0001
0000
0010
0000
2000
0000
0001
0000
3100
0010
0001
0000
1000
0000
0100
1000
,
0010
0000
0100
0001
0010
0000
0001
0000
0100
0000
1000
0000
0100
0010
0000
0010
,
0100
0000
0001
0000
0010
0100
0000
0100
0010
0000
0001
0000
2000
0000
0000
0000
,
0000
0000
3010
0100
1000
0001
0020
0000
,
1030
0010
0100
0001
0010
0000
0000
0000
0110
0000
0000
0000
1100
0000
0100
0000
,
0100
0010
0100
0100
1000
0001
0101
0100
,
0100
0000
0010
0000
0100
0001
0100
0000
0010
0000
1000
0000
1100
0000
0100
0000
,
0100
0001
0100
0100
1000
0001
0101
0100
,
0100
0000
1000
0000
0100
0010
0200
0000
0302
0000
0003
0000
1000
0001
0010
0100
,
2000
0000
0000
0000
3001
1000
0010
0100
0002
0000
0000
0000
1003
0001
0010
0001
,
0200
0000
0000
0000
0301
1000
0010
1000
0200
0000
0000
0000
0310
0100
1000
0000
,
0010
0100
0001
0000
0010
0100
1000
0000
0010
0100
0001
0000
0100
0010
1000
0010
,
0200
0000
0302
0010
1003
1100
0000
0000
;

//--------------- dance-single - XO BU- GH- ----------------
#NOTEDATA:;
#STEPSTYPE:dance-single;
#DESCRIPTION:XO BU- GH-;
#DIFFICULTY:Challenge;
#METER:18;
#RADARVALUES:0,0,0,0,0;
#CHARTNAME:;
#CHARTSTYLE:;
#CREDIT:Talkion;
#METERF:18;
#NOTES:
0000
0000
0000
0000
,
0000
0000
0000
0000
,
0000
0000
0000
0000
,
0000
0000
0000
0000
,
0000
0000
0000
0000
,
1000
0000
1000
0000
1000
0000
0000
0000
0020
0000
0000
0130
0000
0000
0000
0000
,
0001
0000
0001
0000
0001
0000
0000
0000
2000
0000
0000
3100
0000
0000
1000
0010
,
0100
0000
0001
0000
1000
0000
0100
0000
1000
0001
0100
0010
1000
0001
0010
0001
,
0200
0000
0000
0000
0000
0000
0000
0000
0000
0000
0000
0000
0301
1000
0100
1000
,
0010
0000
0100
0010
0100
0001
2000
0000
0000
0000
3100
0000
0010
0000
0002
0000
,
0000
0103
0010
1000
0002
0000
0023
0000
,
0230
0000
0000
0000
0000
0000
1300
0001
1000
0000
0010
0000
0100
0000
0010
0000
,
1000
0001
0010
0100
1000
0001
0100
0010
0001
0010
0100
0001
1000
0000
0001
0000
,
0010
0000
0100
0010
0100
1000
0001
1000
0010
0000
0010
0000
0100
0001
1000
0001
,
0010
0000
0010
0100
2000
0000
0100
0000
3001
0100
0001
0100
0010
1000
0010
1000
,
0200
0000
0000
0000
0000
0000
1300
0001
1000
0000
0010
0000
0100
0000
0001
0000
,
0010
0100
0010
0001
1000
0010
0100
0001
1000
0100
0010
1000
0020
0000
0100
0000
,
0031
0010
0000
0000
1000
0010
0000
0000
0011
0000
0000
0000
1010
0000
0000
0000
,
1001
0000
0000
0000
0001
0010
0100
0010
0002
0000
2003
0000
0100
0000
3001
0100
,
0010
0100
1000
0000
0100
0000
0001
0000
1000
0001
1000
0000
0100
0010
0001
0000
,
2000
0000
0000
3010
0100
0010
1000
0001
0010
0001
0100
0000
0001
0000
1000
0000
,
0100
0010
0001
0000
0010
0000
1000
0000
0020
0000
0100
0000
0130
0000
1000
0000
,
1001
0000
0000
0000
1000
0010
0100
0010
2000
0000
3002
0000
0100
0000
1003
0100
,
0010
0100
0001
0000
0100
0000
1000
0000
0001
1000
0001
0000
0100
0010
1000
0000
,
0001
1000
0100
1000
0001
1000
0010
0100
1000
0000
0001
0010
0100
0000
0102
0000
,
0000
0100
1003
0000
1100
0000
0101
0000
,
1001
0000
0000
0000
1000
0100
0010
0100
2000
0000
3002
0000
0010
0000
1003
0010
,
0100
0010
0001
0000
0010
0000
1000
0000
0001
1000
0001
0000
0010
0100
1000
0000
,
0002
0000
0000
0103
0010
0100
0001
1000
0010
1000
0100
0000
1000
0000
0001
0000
,
0010
0100
1000
0000
0100
0000
0001
0000
0100
0010
0100
0000
1000
0000
0010
0100
,
0001
0100
0010
1000
0002
0000
0010
0000
1003
0010
0100
0001
2000
0000
0100
0000
,
3001
0100
0010
0100
0001
1000
0000
0100
0010
0100
1000
0010
0100
0000
0001
0000
,
1000
0001
0100
0001
1000
0001
0010
0100
0001
0000
1000
0010
0200
0000
0010
0000
,
0302
0000
0000
0000
0103
1000
0100
1000
,
0010
0100
0001
1000
0000
0001
0010
0001
1000
0000
0010
0100
0001
0000
1000
0100
,
1000
0000
0001
0000
0010
0100
1000
0001
0000
0100
0010
0100
0001
0000
1000
0000
,
0010
1000
0010
1000
0100
0010
0001
1000
0000
0001
0100
0001
1000
0000
0100
0010
,
0001
0000
1000
0010
1000
0000
0001
0000
0100
0010
1000
0001
0000
0010
0100
0010
,
0001
0000
1000
0000
0100
1000
0100
1000
0010
0100
0001
1000
0000
0001
0010
0001
,
1000
0000
0010
0100
0001
0000
1000
0100
1000
0001
0100
0001
0010
0100
1000
0001
,
0100
0010
0100
0001
0010
0000
0001
0000
1000
0010
1000
0010
0100
0000
0100
0000
,
0001
0000
0010
0000
0100
0000
0100
0000
1000
0000
0010
0000
0100
0010
0100
0001
,
0010
0100
0010
0001
0100
0010
0100
0010
1000
0000
0000
0000
2001
0000
0000
3100
,
0010
0000
0001
0000
1000
0000
0010
0000
0010
0000
0100
0000
0002
0000
0000
1003
,
0100
0000
1000
0000
0002
0000
0010
0000
2003
0000
0010
0000
3002
0000
0000
0103
,
0010
1000
0001
0010
0010
0100
2000
0010
,
3002
0000
0010
0000
2003
0000
0100
0000
3002
0000
0100
0000
2003
0000
0000
3010
,
0100
0000
0001
0000
1000
0000
0100
0000
0100
0000
0010
0000
0002
0000
0000
1003
,
0010
0000
1000
0000
0002
0000
0100
0000
2003
0000
0100
0000
3002
0000
0000
0013
,
0100
0100
1000
0010
0010
0100
0101
0000
,
1100
0000
0000
0000
0011
0000
0000
0000
1010
0000
0010
0000
1000
0100
0010
0000
,
0001
0100
0010
0000
1000
0100
0010
0000
0001
0100
0010
0000
0200
0001
0000
0300
,
0200
1000
0000
0300
0200
0001
0000
0300
0200
1000
0000
0300
0001
0100
0010
0000
,
1000
0100
0010
0000
0001
0100
0010
0000
1000
0100
0010
0000
0200
1000
0000
0300
,
0200
0001
0000
0300
0200
1000
0000
0300
0200
0001
0000
0300
1000
0000
1000
0000
,
0010
0000
0010
0000
0100
0000
0100
0000
0001
0000
0001
0000
1000
0200
0010
0000
,
0301
0200
0010
0000
1300
0200
0010
0000
0301
0200
0010
0000
2300
0000
0000
0000
,
3001
0010
0001
1000
0001
0100
0010
1000
0001
0010
0100
1000
0010
0000
0000
0000
,
0200
0000
0000
0000
0302
0000
0000
0000
0023
0000
0000
0000
0130
0010
0100
1000
,
0001
0000
0100
0010
0100
0001
0020
0000
1000
0000
0000
0000
0130
0000
1000
0001
,
0100
0010
1000
0000
0001
0010
0001
0000
1000
0000
0000
0000
1010
0000
0010
0100
,
0010
2000
0001
0000
3100
0000
0010
0100
0010
0002
1000
0000
0103
0020
1000
0000
,
0130
0020
0001
0000
0130
0020
1000
0000
0130
0020
0001
0000
1030
0000
0010
0100
,
0001
0000
1000
0000
0100
0010
0100
1000
0002
0000
0000
0000
0103
0000
0010
0100
,
0001
0000
0000
0000
0000
0000
0010
0000
0000
0000
0000
0000
0100
0000
0000
0000
0000
0000
0100
0000
0000
0000
0000
0000
1000
0000
0000
0001
0000
0000
0010
0000
0000
0001
0000
0000
0100
0000
0000
0000
0000
0000
0001
0000
1000
0000
0001
0000
,
1000
0100
0010
0100
1000
0000
0000
1010
0000
0000
0011
0000
0001
0000
0100
0000
,
0002
0000
0010
0000
1003
0001
1000
0100
0010
0001
1000
0001
0100
0010
0100
0001
,
1000
0000
0100
0010
0100
1000
0020
0000
0001
0000
0000
0000
0130
0000
0001
1000
,
0100
0010
0001
0000
1000
0010
1000
0000
0001
0000
0000
0000
0011
0000
0010
0100
,
0010
0002
1000
0000
0103
0000
0010
0100
0010
2000
0001
0000
3100
0020
0001
0000
,
0130
0020
1000
0000
0130
0020
0001
0000
0130
0020
1000
0000
0031
0000
0001
0000
,
0010
0000
0100
0000
1000
0000
1000
0000
0010
0000
0100
0000
0001
1000
0100
1000
,
0010
0000
0000
0100
0000
0000
0001
0000
0000
0010
0000
0000
0002
0000
0000
0000
0000
0000
0100
0000
0000
0000
0000
0000
2003
0000
0000
0000
0000
0000
0000
0000
0000
0000
0000
0000
3100
0000
0000
0000
0000
0000
1000
0000
0001
0000
1000
0000
,
0001
0100
0010
0100
0001
0000
0000
0011
0000
0000
1010
0000
2000
0000
0100
0000
,
0100
0000
3100
0000
1000
0010
0100
0001
0020
0000
0000
0000
0032
0000
0000
0000
,
1003
0100
0010
0100
2000
0000
3002
0000
0010
0000
1003
0000
0010
0100
1000
0000
,
0100
0000
0001
0000
1000
0001
1000
0000
0100
0010
0001
0010
0100
0000
0000
0100
,
1000
0000
0010
0000
0000
0010
0100
0000
0001
0000
0100
0010
2000
0000
0100
0000
,
3001
0011
0000
0010
0100
0100
1001
0000
,
0001
0100
0010
0100
0002
0000
2003
0000
0010
0000
3001
0000
0010
0100
0001
0000
,
0100
0000
0000
0000
0000
0000
1000
0000
0000
0000
0000
0000
0001
0000
0000
1000
0000
0000
0001
0000
0000
0000
0000
0000
0100
0000
0000
0010
0000
0000
1000
0000
0000
0000
0000
0000
0001
0000
0000
0000
0000
0000
1000
0000
0100
0000
1000
0000
,
0001
0000
0000
0000
0000
0000
1000
0000
0001
0000
0100
0000
0001
0000
0000
1000
0000
0000
0010
0000
0000
0100
0000
0000
1000
0000
0000
0100
0000
0000
0010
0000
0000
1000
0000
0000
0001
0000
0000
0000
0000
0000
0010
0000
0100
0000
0010
0000
,
0001
1000
0100
1000
0001
0000
0000
0100
0010
0000
0010
0000
2000
0000
0000
0000
,
0000
0000
0000
0000
3002
0000
0023
0000
2030
0000
3002
0000
0203
0000
0310
0100
,
0010
0001
0100
0010
1000
0000
0000
0000
1001
0000
0000
0000
1100
0000
0100
0000
,
0100
0010
0100
0100
1000
0001
0101
0100
,
0100
0000
0010
0000
0100
0001
0100
0000
0010
0000
1000
0000
1100
0000
0100
0000
,
0100
0001
0100
0100
1000
0001
0101
0100
,
0100
0000
1000
0000
0100
0010
0200
0000
0302
0000
0013
0000
0001
1000
0010
0100
,
0001
0010
0100
0010
0001
1000
0001
0100
0010
1000
0100
0010
0100
1000
0010
1000
,
0001
0010
0001
0100
0010
1000
0100
1000
0001
0100
0001
0010
0100
0010
0001
0100
,
0010
0100
0001
1000
0100
0010
0100
1000
0010
0100
0010
1000
0001
0010
0100
0010
,
0001
0100
0010
0100
2000
0000
0100
0000
3001
0000
0110
0000
0000
0000
0000
0000
;
